  0
SECTION
  2
HEADER
  9
$ACADVER
  1
AC1015
  9
$ACADMAINTVER
 70
     6
  9
$DWGCODEPAGE
  3
ANSI_1252
  9
$INSBASE
 10
0.0
 20
0.0
 30
0.0
  9
$EXTMIN
 10
0.0
 20
0.0
 30
0.0
  9
$EXTMAX
 10
38.0
 20
25.0
 30
0.0
  9
$LIMMIN
 10
0.0
 20
0.0
  9
$LIMMAX
 10
38.0
 20
25.0
  9
$ORTHOMODE
 70
     0
  9
$REGENMODE
 70
     1
  9
$FILLMODE
 70
     1
  9
$QTEXTMODE
 70
     0
  9
$MIRRTEXT
 70
     1
  9
$LTSCALE
 40
1.0
  9
$ATTMODE
 70
     1
  9
$TEXTSIZE
 40
0.2777777778
  9
$TRACEWID
 40
0.05
  9
$TEXTSTYLE
  7
Standard
  9
$CLAYER
  8
0
  9
$CELTYPE
  6
ByLayer
  9
$CECOLOR
 62
   256
  9
$CELTSCALE
 40
1.0
  9
$DISPSILH
 70
     0
  9
$DIMSCALE
 40
1.0
  9
$DIMASZ
 40
0.262898763
  9
$DIMEXO
 40
0.05
  9
$DIMDLI
 40
0.38
  9
$DIMRND
 40
0.0
  9
$DIMDLE
 40
0.0
  9
$DIMEXE
 40
0.125
  9
$DIMTP
 40
0.0
  9
$DIMTM
 40
0.0
  9
$DIMTXT
 40
0.3611111111
  9
$DIMCEN
 40
0.09
  9
$DIMTSZ
 40
0.0
  9
$DIMTOL
 70
     0
  9
$DIMLIM
 70
     0
  9
$DIMTIH
 70
     1
  9
$DIMTOH
 70
     1
  9
$DIMSE1
 70
     0
  9
$DIMSE2
 70
     0
  9
$DIMTAD
 70
     0
  9
$DIMZIN
 70
     0
  9
$DIMBLK
  1

  9
$DIMASO
 70
     1
  9
$DIMSHO
 70
     1
  9
$DIMPOST
  1

  9
$DIMAPOST
  1

  9
$DIMALT
 70
     0
  9
$DIMALTD
 70
     2
  9
$DIMALTF
 40
25.4
  9
$DIMLFAC
 40
1.0
  9
$DIMTOFL
 70
     0
  9
$DIMTVP
 40
0.0
  9
$DIMTIX
 70
     0
  9
$DIMSOXD
 70
     0
  9
$DIMSAH
 70
     0
  9
$DIMBLK1
  1

  9
$DIMBLK2
  1

  9
$DIMSTYLE
  2
Standard
  9
$DIMCLRD
 70
     0
  9
$DIMCLRE
 70
     0
  9
$DIMCLRT
 70
     0
  9
$DIMTFAC
 40
1.0
  9
$DIMGAP
 40
0.06
  9
$DIMJUST
 70
     0
  9
$DIMSD1
 70
     0
  9
$DIMSD2
 70
     0
  9
$DIMTOLJ
 70
     1
  9
$DIMTZIN
 70
     0
  9
$DIMALTZ
 70
     0
  9
$DIMALTTZ
 70
     0
  9
$DIMUPT
 70
     0
  9
$DIMDEC
 70
     3
  9
$DIMTDEC
 70
     3
  9
$DIMALTU
 70
     2
  9
$DIMALTTD
 70
     2
  9
$DIMTXSTY
  7
Standard
  9
$DIMAUNIT
 70
     0
  9
$DIMADEC
 70
     1
  9
$DIMALTRND
 40
0.0
  9
$DIMAZIN
 70
     0
  9
$DIMDSEP
 70
    46
  9
$DIMATFIT
 70
     3
  9
$DIMFRAC
 70
     0
  9
$DIMLDRBLK
  1

  9
$DIMLUNIT
 70
     2
  9
$DIMLWD
 70
    -2
  9
$DIMLWE
 70
    -2
  9
$DIMTMOVE
 70
     0
  9
$LUNITS
 70
     2
  9
$LUPREC
 70
     3
  9
$SKETCHINC
 40
0.1
  9
$FILLETRAD
 40
0.0
  9
$AUNITS
 70
     0
  9
$AUPREC
 70
     1
  9
$MENU
  1
.
  9
$ELEVATION
 40
0.0
  9
$PELEVATION
 40
0.0
  9
$THICKNESS
 40
0.0
  9
$LIMCHECK
 70
     0
  9
$CHAMFERA
 40
0.0
  9
$CHAMFERB
 40
0.0
  9
$CHAMFERC
 40
0.0
  9
$CHAMFERD
 40
0.0
  9
$SKPOLY
 70
     0
  9
$TDCREATE
 40
2460440.469925012
  9
$TDUCREATE
 40
2460440.636591678
  9
$TDUPDATE
 40
2460440.469926771
  9
$TDUUPDATE
 40
2460440.636593437
  9
$TDINDWG
 40
0.0000000116
  9
$TDUSRTIMER
 40
0.0000000116
  9
$USRTIMER
 70
     1
  9
$ANGBASE
 50
0.0
  9
$ANGDIR
 70
     0
  9
$PDMODE
 70
     0
  9
$PDSIZE
 40
-1.0
  9
$PLINEWID
 40
0.0
  9
$SPLFRAME
 70
     0
  9
$SPLINETYPE
 70
     6
  9
$SPLINESEGS
 70
     8
  9
$HANDSEED
  5
1C1
  9
$SURFTAB1
 70
     6
  9
$SURFTAB2
 70
     6
  9
$SURFTYPE
 70
     6
  9
$SURFU
 70
     6
  9
$SURFV
 70
     6
  9
$UCSBASE
  2

  9
$UCSNAME
  2

  9
$UCSORG
 10
0.0
 20
0.0
 30
0.0
  9
$UCSXDIR
 10
1.0
 20
0.0
 30
0.0
  9
$UCSYDIR
 10
0.0
 20
1.0
 30
0.0
  9
$UCSORTHOREF
  2

  9
$UCSORTHOVIEW
 70
     0
  9
$UCSORGTOP
 10
0.0
 20
0.0
 30
0.0
  9
$UCSORGBOTTOM
 10
0.0
 20
0.0
 30
0.0
  9
$UCSORGLEFT
 10
0.0
 20
0.0
 30
0.0
  9
$UCSORGRIGHT
 10
0.0
 20
0.0
 30
0.0
  9
$UCSORGFRONT
 10
0.0
 20
0.0
 30
0.0
  9
$UCSORGBACK
 10
0.0
 20
0.0
 30
0.0
  9
$PUCSBASE
  2

  9
$PUCSNAME
  2

  9
$PUCSORG
 10
0.0
 20
0.0
 30
0.0
  9
$PUCSXDIR
 10
1.0
 20
0.0
 30
0.0
  9
$PUCSYDIR
 10
0.0
 20
1.0
 30
0.0
  9
$PUCSORTHOREF
  2

  9
$PUCSORTHOVIEW
 70
     0
  9
$PUCSORGTOP
 10
0.0
 20
0.0
 30
0.0
  9
$PUCSORGBOTTOM
 10
0.0
 20
0.0
 30
0.0
  9
$PUCSORGLEFT
 10
0.0
 20
0.0
 30
0.0
  9
$PUCSORGRIGHT
 10
0.0
 20
0.0
 30
0.0
  9
$PUCSORGFRONT
 10
0.0
 20
0.0
 30
0.0
  9
$PUCSORGBACK
 10
0.0
 20
0.0
 30
0.0
  9
$USERI1
 70
     0
  9
$USERI2
 70
     0
  9
$USERI3
 70
     0
  9
$USERI4
 70
     0
  9
$USERI5
 70
     0
  9
$USERR1
 40
0.0
  9
$USERR2
 40
0.0
  9
$USERR3
 40
0.0
  9
$USERR4
 40
0.0
  9
$USERR5
 40
0.0
  9
$WORLDVIEW
 70
     1
  9
$SHADEDGE
 70
     3
  9
$SHADEDIF
 70
    70
  9
$TILEMODE
 70
     1
  9
$MAXACTVP
 70
    64
  9
$PINSBASE
 10
0.0
 20
0.0
 30
0.0
  9
$PLIMCHECK
 70
     0
  9
$PEXTMIN
 10
1.0000000000E+20
 20
1.0000000000E+20
 30
1.0000000000E+20
  9
$PEXTMAX
 10
-1.0000000000E+20
 20
-1.0000000000E+20
 30
-1.0000000000E+20
  9
$PLIMMIN
 10
0.0
 20
0.0
  9
$PLIMMAX
 10
12.0
 20
9.0
  9
$UNITMODE
 70
     0
  9
$VISRETAIN
 70
     1
  9
$PLINEGEN
 70
     0
  9
$PSLTSCALE
 70
     1
  9
$TREEDEPTH
 70
  3020
  9
$CMLSTYLE
  2
Standard
  9
$CMLJUST
 70
     0
  9
$CMLSCALE
 40
1.0
  9
$PROXYGRAPHICS
 70
     1
  9
$MEASUREMENT
 70
     0
  9
$CELWEIGHT
370
    -1
  9
$ENDCAPS
280
     0
  9
$JOINSTYLE
280
     0
  9
$LWDISPLAY
290
     1
  9
$INSUNITS
 70
     1
  9
$HYPERLINKBASE
  1

  9
$STYLESHEET
  1

  9
$XEDIT
290
     1
  9
$CEPSNTYPE
380
     0
  9
$PSTYLEMODE
290
     1
  9
$FINGERPRINTGUID
  2
{66a48cc1-0a62-4007-9073-e40366b85849}
  9
$VERSIONGUID
  2
{FAEB1C32-E019-11D5-929B-00C0DF256EC4}
  9
$EXTNAMES
290
     1
  9
$PSVPSCALE
 40
0.0
  9
$OLESTARTUP
290
     0
  0
ENDSEC
  0
SECTION
  2
CLASSES
  0
CLASS
  1
ACDBDICTIONARYWDFLT
  2
AcDbDictionaryWithDefault
  3
ObjectDBX Classes
 90
        0
280
     0
281
     0
  0
CLASS
  1
VISUALSTYLE
  2
AcDbVisualStyle
  3
ObjectDBX Classes
 90
     4095
280
     0
281
     0
  0
CLASS
  1
MATERIAL
  2
AcDbMaterial
  3
ObjectDBX Classes
 90
     1153
280
     0
281
     0
  0
CLASS
  1
SCALE
  2
AcDbScale
  3
ObjectDBX Classes
 90
     1153
280
     0
281
     0
  0
CLASS
  1
TABLESTYLE
  2
AcDbTableStyle
  3
ObjectDBX Classes
 90
     4095
280
     0
281
     0
  0
CLASS
  1
MLEADERSTYLE
  2
AcDbMLeaderStyle
  3
ACDB_MLEADERSTYLE_CLASS
 90
     4095
280
     0
281
     0
  0
CLASS
  1
SUN
  2
AcDbSun
  3
SCENEOE
 90
     1153
280
     0
281
     0
  0
CLASS
  1
ACDBPLACEHOLDER
  2
AcDbPlaceHolder
  3
ObjectDBX Classes
 90
        0
280
     0
281
     0
  0
CLASS
  1
LAYOUT
  2
AcDbLayout
  3
ObjectDBX Classes
 90
        0
280
     0
281
     0
  0
ENDSEC
  0
SECTION
  2
TABLES
  0
TABLE
  2
VPORT
  5
8
330
0
100
AcDbSymbolTable
 70
     1
  0
VPORT
  5
29
330
8
100
AcDbSymbolTableRecord
100
AcDbViewportTableRecord
  2
*Active
 70
     0
 10
0.0
 20
0.0
 11
1.0
 21
1.0
 12
19.0
 22
12.5
 13
0.0
 23
0.0
 14
0.5
 24
0.5
 15
0.5
 25
0.5
 16
0.0
 26
0.0
 36
1.0
 17
0.0
 27
0.0
 37
0.0
 40
25.0
 41
1.52
 42
50.0
 43
0.0
 44
0.0
 50
0.0
 51
0.0
 71
     0
 72
  2000
 73
     1
 74
     3
 75
     0
 76
     0
 77
     0
 78
     0
281
     0
 65
     1
110
0.0
120
0.0
130
0.0
111
1.0
121
0.0
131
0.0
112
0.0
122
1.0
132
0.0
 79
     0
146
0.0
  0
ENDTAB
  0
TABLE
  2
LTYPE
  5
5
330
0
100
AcDbSymbolTable
 70
     6
  0
LTYPE
  5
14
330
5
100
AcDbSymbolTableRecord
100
AcDbLinetypeTableRecord
  2
ByBlock
 70
     0
  3

 72
    65
 73
     0
 40
0.0
  0
LTYPE
  5
15
330
5
100
AcDbSymbolTableRecord
100
AcDbLinetypeTableRecord
  2
ByLayer
 70
     0
  3

 72
    65
 73
     0
 40
0.0
  0
LTYPE
  5
16
330
5
100
AcDbSymbolTableRecord
100
AcDbLinetypeTableRecord
  2
Continuous
 70
     0
  3
Solid line
 72
    65
 73
     0
 40
0.0
  0
LTYPE
  5
5E
330
5
100
AcDbSymbolTableRecord
100
AcDbLinetypeTableRecord
  2
HIDDEN
 70
     0
  3
Hidden __ __ __ __ __ __ __ __ __ __ __ __ __ __
 72
    65
 73
     2
 40
0.075
 49
0.05
 74
     0
 49
-0.025
 74
     0
  0
LTYPE
  5
5F
330
5
100
AcDbSymbolTableRecord
100
AcDbLinetypeTableRecord
  2
PHANTOM
 70
     0
  3
Phantom ______  __  __  ______  __  __  ______
 72
    65
 73
     6
 40
0.5
 49
0.25
 74
     0
 49
-0.05
 74
     0
 49
0.05
 74
     0
 49
-0.05
 74
     0
 49
0.05
 74
     0
 49
-0.05
 74
     0
  0
LTYPE
  5
60
330
5
100
AcDbSymbolTableRecord
100
AcDbLinetypeTableRecord
  2
CENTER
 70
     0
  3
Center ____ _ ____ _ ____ _ ____ _ ____ _ ____
 72
    65
 73
     4
 40
0.4
 49
0.25
 74
     0
 49
-0.05
 74
     0
 49
0.05
 74
     0
 49
-0.05
 74
     0
  0
LTYPE
  5
61
330
5
100
AcDbSymbolTableRecord
100
AcDbLinetypeTableRecord
  2
CENTERX2
 70
     0
  3
Center (2x) ________  __  ________  __  _____
 72
    65
 73
     4
 40
0.8
 49
0.5
 74
     0
 49
-0.1
 74
     0
 49
0.1
 74
     0
 49
-0.1
 74
     0
  0
LTYPE
  5
62
330
5
100
AcDbSymbolTableRecord
100
AcDbLinetypeTableRecord
  2
DOT2
 70
     0
  3
Dot (.5x) ........................................
 72
    65
 73
     2
 40
0.025
 49
0.0
 74
     0
 49
-0.025
 74
     0
  0
ENDTAB
  0
TABLE
  2
LAYER
  5
2
330
0
100
AcDbSymbolTable
 70
     8
  0
LAYER
  5
10
330
2
100
AcDbSymbolTableRecord
100
AcDbLayerTableRecord
  2
0
 70
     0
 62
     7
  6
Continuous
370
    -3
390
F
  0
LAYER
  5
63
330
2
100
AcDbSymbolTableRecord
100
AcDbLayerTableRecord
  2
SLD-0
 70
     0
 62
   179
  6
Continuous
370
    -3
390
F
  0
LAYER
  5
64
330
2
100
AcDbSymbolTableRecord
100
AcDbLayerTableRecord
  2
OBJECTS
 70
     0
 62
     5
  6
Continuous
370
    -3
390
F
  0
LAYER
  5
65
330
2
100
AcDbSymbolTableRecord
100
AcDbLayerTableRecord
  2
DIMS
 70
     0
 62
     1
  6
Continuous
370
    -3
390
F
  0
LAYER
  5
66
330
2
100
AcDbSymbolTableRecord
100
AcDbLayerTableRecord
  2
NOTES
 70
     0
 62
     7
  6
Continuous
370
    -3
390
F
  0
LAYER
  5
67
330
2
100
AcDbSymbolTableRecord
100
AcDbLayerTableRecord
  2
IMAGES
 70
     0
 62
     7
  6
Continuous
370
    -3
390
F
  0
LAYER
  5
68
330
2
100
AcDbSymbolTableRecord
100
AcDbLayerTableRecord
  2
CENTERLINES
 70
     0
 62
     7
  6
HIDDEN
370
    -3
390
F
  0
LAYER
  5
69
330
2
100
AcDbSymbolTableRecord
100
AcDbLayerTableRecord
  2
BLOCKS
 70
     0
 62
    17
  6
Continuous
370
    -3
390
F
  0
ENDTAB
  0
TABLE
  2
STYLE
  5
3
330
0
100
AcDbSymbolTable
 70
     2
  0
STYLE
  5
11
330
3
100
AcDbSymbolTableRecord
100
AcDbTextStyleTableRecord
  2
Standard
 70
     0
 40
0.0
 41
1.0
 50
0.0
 71
     0
 42
0.2777777778
  3
txt
  4

  0
STYLE
  5
AB
330
3
100
AcDbSymbolTableRecord
100
AcDbTextStyleTableRecord
  2
SLDTEXTSTYLE0
 70
     0
 40
0.0
 41
0.605
 50
0.0
 71
     0
 42
0.2777777778
  3
TXT
  4

  0
ENDTAB
  0
TABLE
  2
VIEW
  5
6
330
0
100
AcDbSymbolTable
 70
     0
  0
ENDTAB
  0
TABLE
  2
UCS
  5
7
330
0
100
AcDbSymbolTable
 70
     0
  0
ENDTAB
  0
TABLE
  2
APPID
  5
9
330
0
100
AcDbSymbolTable
 70
     1
  0
APPID
  5
12
330
9
100
AcDbSymbolTableRecord
100
AcDbRegAppTableRecord
  2
ACAD
 70
     0
  0
ENDTAB
  0
TABLE
  2
DIMSTYLE
  5
A
330
0
100
AcDbSymbolTable
 70
     5
100
AcDbDimStyleTable
  0
DIMSTYLE
105
27
330
A
100
AcDbSymbolTableRecord
100
AcDbDimStyleTableRecord
  2
Standard
 70
     0
178
     0
340
11
  0
DIMSTYLE
105
D6
102
{ACAD_REACTORS
330
D5
330
E9
102
}
330
A
100
AcDbSymbolTableRecord
100
AcDbDimStyleTableRecord
  2
SLDDIMSTYLE0
 70
     0
 41
0.262898763
 44
0.0
 45
0.000000001
 78
    12
 79
     3
140
0.262898763
141
0.0
147
0.0657246908
148
0.000000001
170
     1
173
     1
178
     0
271
     3
272
     3
276
     2
277
     5
279
     1
284
    12
340
AB
  0
DIMSTYLE
105
FD
102
{ACAD_REACTORS
330
FC
330
112
330
127
330
13C
102
}
330
A
100
AcDbSymbolTableRecord
100
AcDbDimStyleTableRecord
  2
SLDDIMSTYLE1
 70
     0
 41
0.262898763
 44
0.0
 45
0.000000001
 78
    12
 79
     3
140
0.262898763
147
0.0657246908
148
0.000000001
170
     1
173
     1
178
     0
271
     6
272
     3
276
     2
277
     5
284
    12
340
AB
  0
DIMSTYLE
105
152
102
{ACAD_REACTORS
330
151
102
}
330
A
100
AcDbSymbolTableRecord
100
AcDbDimStyleTableRecord
  2
SLDDIMSTYLE2
 70
     0
 41
0.262898763
 44
0.0
 45
0.000000001
 78
    12
 79
     3
140
0.262898763
141
0.0
147
0.0657246908
148
0.000000001
170
     1
173
     1
178
     0
271
     3
272
     3
276
     2
277
     5
284
    12
340
AB
  0
DIMSTYLE
105
16A
330
A
100
AcDbSymbolTableRecord
100
AcDbDimStyleTableRecord
  2
SLDDIMSTYLE3
 70
     0
 41
0.262898763
 44
0.0
 45
0.000000001
146
0.262898763
147
0.0
173
     1
178
     0
271
     0
272
     0
276
     2
277
     5
340
11
  0
ENDTAB
  0
TABLE
  2
BLOCK_RECORD
  5
1
330
0
100
AcDbSymbolTable
 70
    14
  0
BLOCK_RECORD
  5
1F
330
1
100
AcDbSymbolTableRecord
100
AcDbBlockTableRecord
  2
*Model_Space
340
22
  0
BLOCK_RECORD
  5
1B
330
1
100
AcDbSymbolTableRecord
100
AcDbBlockTableRecord
  2
*Paper_Space
340
1E
  0
BLOCK_RECORD
  5
23
330
1
100
AcDbSymbolTableRecord
100
AcDbBlockTableRecord
  2
*Paper_Space0
340
26
  0
BLOCK_RECORD
  5
6A
330
1
100
AcDbSymbolTableRecord
100
AcDbBlockTableRecord
  2
Block1
340
0
102
{BLKREFS
331
B4
102
}
  0
BLOCK_RECORD
  5
9B
330
1
100
AcDbSymbolTableRecord
100
AcDbBlockTableRecord
  2
SW_BLOCK_DIMENSION_0
340
0
102
{BLKREFS
331
B0
102
}
  0
BLOCK_RECORD
  5
B1
330
1
100
AcDbSymbolTableRecord
100
AcDbBlockTableRecord
  2
reveal- .750 with .750 bowl radius
340
0
102
{BLKREFS
331
D4
102
}
  0
BLOCK_RECORD
  5
D7
330
1
100
AcDbSymbolTableRecord
100
AcDbBlockTableRecord
  2
_D
340
0
  0
BLOCK_RECORD
  5
EA
330
1
100
AcDbSymbolTableRecord
100
AcDbBlockTableRecord
  2
_D_1
340
0
  0
BLOCK_RECORD
  5
FE
330
1
100
AcDbSymbolTableRecord
100
AcDbBlockTableRecord
  2
_D_2
340
0
  0
BLOCK_RECORD
  5
113
330
1
100
AcDbSymbolTableRecord
100
AcDbBlockTableRecord
  2
_D_3
340
0
  0
BLOCK_RECORD
  5
128
330
1
100
AcDbSymbolTableRecord
100
AcDbBlockTableRecord
  2
_D_4
340
0
  0
BLOCK_RECORD
  5
13D
330
1
100
AcDbSymbolTableRecord
100
AcDbBlockTableRecord
  2
_D_5
340
0
  0
BLOCK_RECORD
  5
153
330
1
100
AcDbSymbolTableRecord
100
AcDbBlockTableRecord
  2
_D_6
340
0
  0
BLOCK_RECORD
  5
19C
330
1
100
AcDbSymbolTableRecord
100
AcDbBlockTableRecord
  2
SW_CENTERMARKSYMBOL_0
340
0
102
{BLKREFS
331
1A7
102
}
  0
BLOCK_RECORD
  5
1A8
330
1
100
AcDbSymbolTableRecord
100
AcDbBlockTableRecord
  2
SW_CENTERMARKSYMBOL_1
340
0
102
{BLKREFS
331
1B3
102
}
  0
BLOCK_RECORD
  5
1B4
330
1
100
AcDbSymbolTableRecord
100
AcDbBlockTableRecord
  2
SW_CENTERMARKSYMBOL_2
340
0
102
{BLKREFS
331
1BF
102
}
  0
ENDTAB
  0
ENDSEC
  0
SECTION
  2
BLOCKS
  0
BLOCK
  5
20
330
1F
100
AcDbEntity
  8
0
100
AcDbBlockBegin
  2
*Model_Space
 70
     0
 10
0.0
 20
0.0
 30
0.0
  3
*Model_Space
  1

  0
ENDBLK
  5
21
330
1F
100
AcDbEntity
  8
0
100
AcDbBlockEnd
  0
BLOCK
  5
1C
330
1B
100
AcDbEntity
 67
     1
  8
0
100
AcDbBlockBegin
  2
*Paper_Space
 70
     0
 10
0.0
 20
0.0
 30
0.0
  3
*Paper_Space
  1

  0
ENDBLK
  5
1D
330
1B
100
AcDbEntity
 67
     1
  8
0
100
AcDbBlockEnd
  0
BLOCK
  5
24
330
23
100
AcDbEntity
  8
0
100
AcDbBlockBegin
  2
*Paper_Space0
 70
     0
 10
0.0
 20
0.0
 30
0.0
  3
*Paper_Space0
  1

  0
ENDBLK
  5
25
330
23
100
AcDbEntity
  8
0
100
AcDbBlockEnd
  0
BLOCK
  5
6B
330
6A
100
AcDbEntity
  8
0
100
AcDbBlockBegin
  2
Block1
 70
     0
 10
0.0
 20
0.0
 30
0.0
  3
Block1
  1

  0
ARC
  5
6D
330
6A
100
AcDbEntity
  8
0
  6
Continuous
 62
    16
370
    18
100
AcDbCircle
 10
17.5203636632
 20
17.992500954
 30
0.0
 40
0.7040000000000006
100
AcDbArc
 50
0.0
 51
90.0
  0
ARC
  5
6E
330
6A
100
AcDbEntity
  8
SLD-0
100
AcDbCircle
 10
17.4543841104
 20
19.0934376287
 30
0.0
 40
0.0659795528056684
100
AcDbArc
 50
0.0
 51
90.0
  0
ARC
  5
6F
330
6A
100
AcDbEntity
  8
SLD-0
100
AcDbCircle
 10
16.6733507588
 20
18.6116395102
 30
0.0
 40
0.0881257319589185
100
AcDbArc
 50
200.9822712638
 51
339.0177287362
  0
ARC
  5
70
330
6A
100
AcDbEntity
  8
0
  6
Continuous
 62
    16
370
    18
100
AcDbCircle
 10
17.5203636632
 20
17.9925323379
 30
0.0
 40
0.75
100
AcDbArc
 50
0.0
 51
90.0
  0
LINE
  5
71
330
6A
100
AcDbEntity
  8
SLD-0
100
AcDbLine
 10
17.4543841104
 20
19.1594171815
 30
0.0
 11
15.8772481427
 21
19.1594171815
 31
0.0
  0
LINE
  5
72
330
6A
100
AcDbEntity
  8
SLD-0
100
AcDbLine
 10
15.9069317964
 20
18.7642335005
 30
0.0
 11
17.5203636632
 21
18.7642335005
 31
0.0
  0
LINE
  5
73
330
6A
100
AcDbEntity
  8
SLD-0
100
AcDbLine
 10
16.9733435349
 20
18.7425323379
 30
0.0
 11
17.5203636632
 21
18.7425323379
 31
0.0
  0
LINE
  5
74
330
6A
100
AcDbEntity
  8
0
  6
Continuous
 62
    17
370
    18
100
AcDbLine
 10
18.2243636632
 20
17.3905442983
 30
0.0
 11
18.2703636632
 21
17.3905442983
 31
0.0
  0
LINE
  5
75
330
6A
100
AcDbEntity
  8
0
  6
Continuous
 62
    16
370
    18
100
AcDbLine
 10
18.2703636632
 20
17.9925323379
 30
0.0
 11
18.2703636632
 21
17.3905442983
 31
0.0
  0
LINE
  5
76
330
6A
100
AcDbEntity
  8
SLD-0
100
AcDbLine
 10
17.5203636632
 20
18.696500954
 30
0.0
 11
16.9733435349
 21
18.696500954
 31
0.0
  0
LINE
  5
77
330
6A
100
AcDbEntity
  8
SLD-0
100
AcDbLine
 10
16.9733435349
 20
18.696500954
 30
0.0
 11
16.9733435349
 21
18.7425323379
 31
0.0
  0
LINE
  5
78
330
6A
100
AcDbEntity
  8
SLD-0
100
AcDbLine
 10
17.3055736692
 20
18.6431396707
 30
0.0
 11
17.3582334594
 21
18.6938066702
 31
0.0
  0
LINE
  5
79
330
6A
100
AcDbEntity
  8
SLD-0
100
AcDbLine
 10
17.3582334594
 20
18.6938066702
 30
0.0
 11
17.400869956
 21
18.6494932317
 31
0.0
  0
LINE
  5
7A
330
6A
100
AcDbEntity
  8
SLD-0
100
AcDbLine
 10
17.400869956
 20
18.6494932317
 30
0.0
 11
17.3319626002
 21
18.5831935188
 31
0.0
  0
LINE
  5
7B
330
6A
100
AcDbEntity
  8
SLD-0
100
AcDbLine
 10
16.0644161667
 20
18.7096137814
 30
0.0
 11
16.0118634072
 21
18.7642335005
 31
0.0
  0
LINE
  5
7C
330
6A
100
AcDbEntity
  8
SLD-0
100
AcDbLine
 10
16.0118634072
 20
18.7642335005
 30
0.0
 11
15.9694570474
 21
18.7234319135
 31
0.0
  0
LINE
  5
7D
330
6A
100
AcDbEntity
  8
SLD-0
100
AcDbLine
 10
15.9694570474
 20
18.7234319135
 30
0.0
 11
16.0315683569
 21
18.6588776957
 31
0.0
  0
LINE
  5
7E
330
6A
100
AcDbEntity
  8
SLD-0
100
AcDbLine
 10
16.0644161667
 20
18.7096137814
 30
0.0
 11
17.3055736692
 21
18.6431396707
 31
0.0
  0
LINE
  5
7F
330
6A
100
AcDbEntity
  8
SLD-0
100
AcDbLine
 10
17.3319626002
 20
18.5831935188
 30
0.0
 11
16.0315683569
 21
18.6588776957
 31
0.0
  0
LINE
  5
80
330
6A
100
AcDbEntity
  8
SLD-0
100
AcDbLine
 10
16.754680329
 20
18.6726445037
 30
0.0
 11
16.754680329
 21
18.6167918939
 31
0.0
  0
LINE
  5
81
330
6A
100
AcDbEntity
  8
SLD-0
100
AcDbLine
 10
16.6000606505
 20
18.680925649
 30
0.0
 11
16.6000606505
 21
18.6257909057
 31
0.0
  0
LINE
  5
82
330
6A
100
AcDbEntity
  8
SLD-0
100
AcDbLine
 10
16.5910685323
 20
18.580083531
 30
0.0
 11
16.7556329854
 21
18.580083531
 31
0.0
  0
LINE
  5
83
330
6A
100
AcDbEntity
  8
SLD-0
100
AcDbLine
 10
16.6358401521
 20
18.9703832676
 30
0.0
 11
16.6358401521
 21
18.580083531
 31
0.0
  0
LINE
  5
84
330
6A
100
AcDbEntity
  8
SLD-0
100
AcDbLine
 10
16.7127320239
 20
18.9703832676
 30
0.0
 11
16.7127320239
 21
18.580083531
 31
0.0
  0
LINE
  5
85
330
6A
100
AcDbEntity
  8
SLD-0
100
AcDbLine
 10
16.5730650738
 20
18.6241085984
 30
0.0
 11
16.7854810653
 21
18.6117457865
 31
0.0
  0
LINE
  5
86
330
6A
100
AcDbEntity
  8
SLD-0
100
AcDbLine
 10
16.6358401521
 20
18.9703832676
 30
0.0
 11
16.6738051319
 21
19.0255726486
 31
0.0
  0
LINE
  5
87
330
6A
100
AcDbEntity
  8
SLD-0
100
AcDbLine
 10
16.6738051319
 20
19.0255726486
 30
0.0
 11
16.7127320239
 21
18.9703832676
 31
0.0
  0
LINE
  5
88
330
6A
100
AcDbEntity
  8
SLD-0
100
AcDbLine
 10
16.7836112516
 20
18.5796189256
 30
0.0
 11
16.5711952601
 21
18.5919817375
 31
0.0
  0
LINE
  5
89
330
6A
100
AcDbEntity
  8
SLD-0
100
AcDbLine
 10
16.7854810653
 20
18.6117457865
 30
0.0
 11
16.7836112516
 21
18.5796189256
 31
0.0
  0
LINE
  5
8A
330
6A
100
AcDbEntity
  8
SLD-0
100
AcDbLine
 10
16.5730650738
 20
18.6241085984
 30
0.0
 11
16.5711952601
 21
18.5919817375
 31
0.0
  0
LINE
  5
8B
330
6A
100
AcDbEntity
  8
SLD-0
100
AcDbLine
 10
16.7405965504
 20
18.7642335005
 30
0.0
 11
16.7405965504
 21
19.0445957377
 31
0.0
  0
LINE
  5
8C
330
6A
100
AcDbEntity
  8
SLD-0
100
AcDbLine
 10
16.7405965504
 20
19.0445957377
 30
0.0
 11
16.6140595585
 21
19.0445957377
 31
0.0
  0
LINE
  5
8D
330
6A
100
AcDbEntity
  8
SLD-0
100
AcDbLine
 10
16.6140595585
 20
19.0445957377
 30
0.0
 11
16.6140595585
 21
18.7642335005
 31
0.0
  0
LINE
  5
8E
330
6A
100
AcDbEntity
  8
SLD-0
  6
Continuous
100
AcDbLine
 10
17.5203636632
 20
18.7642335005
 30
0.0
 11
17.5203636632
 21
19.0934376287
 31
0.0
  0
LINE
  5
8F
330
6A
100
AcDbEntity
  8
SLD-0
100
AcDbLine
 10
16.9283358225
 20
18.7642335005
 30
0.0
 11
16.9733435349
 21
18.719516646
 31
0.0
  0
LINE
  5
90
330
6A
100
AcDbEntity
  8
SLD-0
100
AcDbLine
 10
17.5203636632
 20
18.7642335005
 30
0.0
 11
17.5331189484
 21
18.7425323379
 31
0.0
  0
LINE
  5
91
330
6A
100
AcDbEntity
  8
0
  6
Continuous
 62
    16
370
    18
100
AcDbLine
 10
18.2243636632
 20
17.992500954
 30
0.0
 11
18.2243636632
 21
17.3905442983
 31
0.0
  0
SPLINE
  5
92
330
6A
100
AcDbEntity
  8
SLD-0
100
AcDbSpline
210
0.0
220
0.0
230
1.0
 70
     8
 71
     3
 72
     9
 73
     5
 74
     0
 42
0.00000001
 43
0.00000001
 40
0.0
 40
0.0
 40
0.0
 40
0.0
 40
0.5928291688347104
 40
1.0
 40
1.0
 40
1.0
 40
1.0
 10
15.90693179637769
 20
18.76423350053237
 30
0.0
 10
15.8623561441644
 20
18.85006794170533
 30
0.0
 10
15.94183910648792
 20
18.96929145564197
 30
0.0
 10
15.92372628503838
 20
19.12353970087429
 30
0.0
 10
15.87724814272782
 20
19.15941718145596
 30
0.0
  0
HATCH
  5
93
330
6A
100
AcDbEntity
  8
0
  6
Continuous
 62
    16
100
AcDbHatch
 10
0.0
 20
0.0
 30
0.0
210
0.0
220
0.0
230
1.0
  2
ANSI36
 70
     0
 71
     0
 91
        1
 92
        0
 93
        9
 72
     4
 94
        3
 73
     1
 74
     0
 95
        9
 96
        5
 40
0.0
 40
0.0
 40
0.0
 40
0.0
 40
0.4071708311652896
 40
1.0
 40
1.0
 40
1.0
 40
1.0
 10
15.87724814272782
 20
19.15941718145596
 42
1.0
 10
15.92372628503838
 20
19.12353970087429
 42
1.0
 10
15.94183910648792
 20
18.96929145564197
 42
1.0
 10
15.8623561441644
 20
18.85006794170533
 42
1.0
 10
15.90693179637769
 20
18.76423350053237
 42
1.0
 72
     1
 10
15.90693179637769
 20
18.76423350053237
 11
16.61405955851018
 21
18.76423350053237
 72
     1
 10
16.61405955851018
 20
18.76423350053237
 11
16.61405955851018
 21
19.04459573772635
 72
     1
 10
16.61405955851018
 20
19.04459573772635
 11
16.74059655044467
 21
19.04459573772635
 72
     1
 10
16.74059655044467
 20
19.04459573772635
 11
16.74059655044467
 21
18.76423350053237
 72
     1
 10
16.74059655044467
 20
18.76423350053237
 11
17.52036366322891
 21
18.76423350053237
 72
     1
 10
17.52036366322891
 20
18.76423350053237
 11
17.52036366322891
 21
19.09343762865029
 72
     2
 10
17.45438411042324
 20
19.09343762865029
 40
0.0659795528056695
 50
0.0
 51
90.0
 73
     1
 72
     1
 10
17.45438411042324
 20
19.15941718145596
 11
15.87724814272782
 21
19.15941718145596
 97
        0
 75
     0
 76
     1
 52
0.0
 41
0.5
 77
     0
 78
     1
 53
45.0
 43
0.0
 44
0.0
 45
0.0331456303681194
 46
0.1215339780164379
 79
     4
 49
0.15625
 49
-0.03125
 49
0.0
 49
-0.03125
 98
        1
 10
0.0
 20
0.0
  0
HATCH
  5
94
330
6A
100
AcDbEntity
  8
0
  6
Continuous
 62
    16
100
AcDbHatch
 10
0.0
 20
0.0
 30
0.0
210
0.0
220
0.0
230
1.0
  2
ANSI32
 70
     0
 71
     0
 91
        1
 92
        0
 93
        5
 72
     1
 10
16.71273202393873
 20
18.97038326755307
 11
16.67380513194917
 21
19.02557264856546
 72
     1
 10
16.67380513194917
 20
19.02557264856546
 11
16.63584015213619
 21
18.97038326755307
 72
     1
 10
16.63584015213619
 20
18.97038326755307
 11
16.63584015213619
 21
18.76423350053237
 72
     1
 10
16.63584015213619
 20
18.76423350053237
 11
16.71273202393873
 21
18.76423350053237
 72
     1
 10
16.71273202393873
 20
18.76423350053237
 11
16.71273202393873
 21
18.97038326755307
 97
        0
 75
     0
 76
     1
 52
0.0
 41
0.1666666667
 77
     0
 78
     2
 53
45.0
 43
0.0
 44
0.0
 45
-0.0441941738241592
 46
0.0441941738241592
 79
     0
 53
45.0
 43
0.0294627825
 44
0.0
 45
-0.0441941738241592
 46
0.0441941738241592
 79
     0
 98
        1
 10
0.0
 20
0.0
  0
HATCH
  5
95
330
6A
100
AcDbEntity
  8
0
  6
Continuous
 62
    16
100
AcDbHatch
 10
0.0
 20
0.0
 30
0.0
210
0.0
220
0.0
230
1.0
  2
ANSI32
 70
     0
 71
     0
 91
        1
 92
        0
 93
        4
 72
     1
 10
16.71273202393873
 20
18.67489117768856
 11
16.71273202393873
 21
18.76423350053237
 72
     1
 10
16.71273202393873
 20
18.76423350053237
 11
16.63584015213619
 21
18.76423350053237
 72
     1
 10
16.63584015213619
 20
18.76423350053237
 11
16.63584015213619
 21
18.6790093647728
 72
     1
 10
16.63584015213619
 20
18.6790093647728
 11
16.71273202393873
 21
18.67489117768856
 97
        0
 75
     0
 76
     1
 52
0.0
 41
0.1666666667
 77
     0
 78
     2
 53
45.0
 43
0.0
 44
0.0
 45
-0.0441941738241592
 46
0.0441941738241592
 79
     0
 53
45.0
 43
0.0294627825
 44
0.0
 45
-0.0441941738241592
 46
0.0441941738241592
 79
     0
 98
        1
 10
0.0
 20
0.0
  0
HATCH
  5
96
330
6A
100
AcDbEntity
  8
0
  6
Continuous
 62
    16
100
AcDbHatch
 10
0.0
 20
0.0
 30
0.0
210
0.0
220
0.0
230
1.0
  2
ANSI32
 70
     0
 71
     0
 91
        1
 92
        0
 93
        4
 72
     1
 10
16.71273202393873
 20
18.61923332498916
 11
16.71273202393873
 21
18.67489117768856
 72
     1
 10
16.71273202393873
 20
18.67489117768856
 11
16.63584015213619
 21
18.6790093647728
 72
     1
 10
16.63584015213619
 20
18.6790093647728
 11
16.63584015213619
 21
18.62370850476859
 72
     1
 10
16.63584015213619
 20
18.62370850476859
 11
16.71273202393873
 21
18.61923332498916
 97
        0
 75
     0
 76
     1
 52
0.0
 41
0.1666666667
 77
     0
 78
     2
 53
45.0
 43
0.0
 44
0.0
 45
-0.0441941738241592
 46
0.0441941738241592
 79
     0
 53
45.0
 43
0.0294627825
 44
0.0
 45
-0.0441941738241592
 46
0.0441941738241592
 79
     0
 98
        1
 10
0.0
 20
0.0
  0
HATCH
  5
97
330
6A
100
AcDbEntity
  8
0
  6
Continuous
 62
    16
100
AcDbHatch
 10
0.0
 20
0.0
 30
0.0
210
0.0
220
0.0
230
1.0
  2
ANSI32
 70
     0
 71
     0
 91
        1
 92
        0
 93
        4
 72
     1
 10
16.63584015213619
 20
18.58821934352561
 11
16.71273202393873
 21
18.58374416374618
 72
     1
 10
16.71273202393873
 20
18.58374416374618
 11
16.71273202393873
 21
18.61597984957685
 72
     1
 10
16.71273202393873
 20
18.61597984957685
 11
16.63584015213619
 21
18.62045502935628
 72
     1
 10
16.63584015213619
 20
18.62045502935628
 11
16.63584015213619
 21
18.58821934352561
 97
        0
 75
     0
 76
     1
 52
0.0
 41
0.1666666667
 77
     0
 78
     2
 53
45.0
 43
0.0
 44
0.0
 45
-0.0441941738241592
 46
0.0441941738241592
 79
     0
 53
45.0
 43
0.0294627825
 44
0.0
 45
-0.0441941738241592
 46
0.0441941738241592
 79
     0
 98
        1
 10
0.0
 20
0.0
  0
HATCH
  5
98
330
6A
100
AcDbEntity
  8
0
  6
Continuous
 62
    16
100
AcDbHatch
 10
0.0
 20
0.0
 30
0.0
210
0.0
220
0.0
230
1.0
  2
ANSI32
 70
     0
 71
     0
 91
        1
 92
        0
 93
        4
 72
     1
 10
16.63584015213619
 20
18.62045502935628
 11
16.57306507380034
 21
18.62410859838295
 72
     1
 10
16.57306507380034
 20
18.62410859838295
 11
16.57119526006184
 21
18.59198173748316
 72
     1
 10
16.57119526006184
 20
18.59198173748316
 11
16.63584015213619
 21
18.58821934352561
 72
     1
 10
16.63584015213619
 20
18.58821934352561
 11
16.63584015213619
 21
18.62045502935628
 97
        0
 75
     0
 76
     1
 52
0.0
 41
0.1666666667
 77
     0
 78
     2
 53
45.0
 43
0.0
 44
0.0
 45
-0.0441941738241592
 46
0.0441941738241592
 79
     0
 53
45.0
 43
0.0294627825
 44
0.0
 45
-0.0441941738241592
 46
0.0441941738241592
 79
     0
 98
        1
 10
0.0
 20
0.0
  0
HATCH
  5
99
330
6A
100
AcDbEntity
  8
0
  6
Continuous
 62
    16
100
AcDbHatch
 10
0.0
 20
0.0
 30
0.0
210
0.0
220
0.0
230
1.0
  2
ANSI32
 70
     0
 71
     0
 91
        1
 92
        0
 93
        4
 72
     1
 10
16.78361125159684
 20
18.5796189255518
 11
16.78548106533534
 21
18.61174578645159
 72
     1
 10
16.78548106533534
 20
18.61174578645159
 11
16.71273202393873
 21
18.61597984957685
 72
     1
 10
16.71273202393873
 20
18.61597984957685
 11
16.71273202393873
 21
18.58374416374618
 72
     1
 10
16.71273202393873
 20
18.58374416374618
 11
16.78361125159684
 21
18.5796189255518
 97
        0
 75
     0
 76
     1
 52
0.0
 41
0.1666666667
 77
     0
 78
     2
 53
45.0
 43
0.0
 44
0.0
 45
-0.0441941738241592
 46
0.0441941738241592
 79
     0
 53
45.0
 43
0.0294627825
 44
0.0
 45
-0.0441941738241592
 46
0.0441941738241592
 79
     0
 98
        1
 10
0.0
 20
0.0
  0
HATCH
  5
9A
330
6A
100
AcDbEntity
  8
0
  6
Continuous
 62
    16
100
AcDbHatch
 10
0.0
 20
0.0
 30
0.0
210
0.0
220
0.0
230
1.0
  2
ANSI32
 70
     0
 71
     0
 91
        1
 92
        0
 93
        4
 72
     1
 10
16.63584015213619
 20
18.58008353100542
 11
16.59106853225008
 21
18.58008353100542
 72
     2
 10
16.67335075881967
 20
18.6116395102177
 40
0.0881257319589163
 50
200.9822712637957
 51
339.0177287362068
 73
     1
 72
     1
 10
16.75563298538926
 20
18.58008353100542
 11
16.71273202393873
 21
18.58008353100542
 72
     1
 10
16.71273202393873
 20
18.58008353100542
 11
16.63584015213619
 21
18.58008353100542
 97
        0
 75
     0
 76
     1
 52
0.0
 41
0.1666666667
 77
     0
 78
     2
 53
45.0
 43
0.0
 44
0.0
 45
-0.0441941738241592
 46
0.0441941738241592
 79
     0
 53
45.0
 43
0.0294627825
 44
0.0
 45
-0.0441941738241592
 46
0.0441941738241592
 79
     0
 98
        1
 10
0.0
 20
0.0
  0
INSERT
  5
B0
330
6A
100
AcDbEntity
  8
0
  6
Continuous
 62
     7
370
    18
100
AcDbBlockReference
  2
SW_BLOCK_DIMENSION_0
 10
19.1440019374
 20
19.5699513498
 30
0.0
  0
ENDBLK
  5
6C
330
6A
100
AcDbEntity
  8
0
100
AcDbBlockEnd
  0
BLOCK
  5
9C
330
9B
100
AcDbEntity
  8
0
100
AcDbBlockBegin
  2
SW_BLOCK_DIMENSION_0
 70
     0
 10
0.0
 20
0.0
 30
0.0
  3
SW_BLOCK_DIMENSION_0
  1

  0
SOLID
  5
9E
330
9B
100
AcDbEntity
  8
0
  6
Continuous
 62
     0
370
    18
100
AcDbTrace
 10
-1.6236382741
 20
-0.2658930809
 30
0.0
 11
-1.3607395111
 21
-0.3063390444
 31
0.0
 12
-1.3607395111
 22
-0.2254471173
 32
0.0
 13
-1.3607395111
 23
-0.2254471173
 33
0.0
  0
SOLID
  5
9F
330
9B
100
AcDbEntity
  8
0
  6
Continuous
 62
     0
370
    18
100
AcDbTrace
 10
-0.8736382741
 20
-0.2658930809
 30
0.0
 11
-1.1365370371
 21
-0.2254471173
 31
0.0
 12
-1.1365370371
 22
-0.3063390444
 32
0.0
 13
-1.1365370371
 23
-0.3063390444
 33
0.0
  0
LINE
  5
A0
330
9B
100
AcDbEntity
  8
0
  6
Continuous
 62
     0
370
     0
100
AcDbLine
 10
-0.0383680518
 20
0.0230208274
 30
0.0
 11
0.2389853292
 21
0.0230208274
 31
0.0
  0
LINE
  5
A1
330
9B
100
AcDbEntity
  8
0
  6
Continuous
 62
     0
370
     0
100
AcDbLine
 10
-0.2868827267
 20
-0.4289699003
 30
0.0
 11
-0.377160508
 21
-0.4289699003
 31
0.0
  0
LINE
  5
A2
330
9B
100
AcDbEntity
  8
0
  6
Continuous
 62
     0
370
     0
100
AcDbLine
 10
-0.377160508
 20
-0.4289699003
 30
0.0
 11
-0.377160508
 21
-0.8327121696
 31
0.0
  0
LINE
  5
A3
330
9B
100
AcDbEntity
  8
0
  6
Continuous
 62
     0
370
     0
100
AcDbLine
 10
-0.377160508
 20
-0.8327121696
 30
0.0
 11
-0.2868827267
 21
-0.8327121696
 31
0.0
  0
LINE
  5
A4
330
9B
100
AcDbEntity
  8
0
  6
Continuous
 62
     0
370
     0
100
AcDbLine
 10
0.615895031
 20
-0.4289699003
 30
0.0
 11
0.7061728122
 21
-0.4289699003
 31
0.0
  0
LINE
  5
A5
330
9B
100
AcDbEntity
  8
0
  6
Continuous
 62
     0
370
     0
100
AcDbLine
 10
0.7061728122
 20
-0.4289699003
 30
0.0
 11
0.7061728122
 21
-0.8327121696
 31
0.0
  0
LINE
  5
A6
330
9B
100
AcDbEntity
  8
0
  6
Continuous
 62
     0
370
     0
100
AcDbLine
 10
0.7061728122
 20
-0.8327121696
 30
0.0
 11
0.615895031
 21
-0.8327121696
 31
0.0
  0
LINE
  5
A7
330
9B
100
AcDbEntity
  8
0
  6
Continuous
 62
     0
370
     0
100
AcDbLine
 10
-1.6236382741
 20
-0.4265137211
 30
0.0
 11
-1.6236382741
 21
-0.1408930809
 31
0.0
  0
LINE
  5
A8
330
9B
100
AcDbEntity
  8
0
  6
Continuous
 62
     0
370
     0
100
AcDbLine
 10
-0.8736382741
 20
-1.5274190118
 30
0.0
 11
-0.8736382741
 21
-0.1408930809
 31
0.0
  0
LINE
  5
A9
330
9B
100
AcDbEntity
  8
0
  6
Continuous
 62
     0
370
     0
100
AcDbLine
 10
-1.6236382741
 20
-0.2658930809
 30
0.0
 11
-0.8736382741
 21
-0.2658930809
 31
0.0
  0
LINE
  5
AA
330
9B
100
AcDbEntity
  8
0
  6
Continuous
 62
     0
370
     0
100
AcDbLine
 10
-0.8736382741
 20
-0.2658930809
 30
0.0
 11
-0.5276541906
 21
-0.2658930809
 31
0.0
  0
MTEXT
  5
AC
330
9B
100
AcDbEntity
  8
0
  6
Continuous
 62
     0
370
    18
100
AcDbMText
 10
0.0
 20
0.3491225129
 30
0.0
 40
0.2708333333
 41
0.0
 71
     1
 72
     1
  1
3
  7
SLDTEXTSTYLE0
 73
     1
 44
1.0
  0
MTEXT
  5
AD
330
9B
100
AcDbEntity
  8
0
  6
Continuous
 62
     0
370
    18
100
AcDbMText
 10
0.0
 20
-0.0196622244
 30
0.0
 40
0.2708333333
 41
0.0
 71
     1
 72
     1
  1
4
  7
SLDTEXTSTYLE0
 73
     1
 44
1.0
  0
MTEXT
  5
AE
330
9B
100
AcDbEntity
  8
0
  6
Continuous
 62
     0
370
    18
100
AcDbMText
 10
0.2773533902
 20
0.1646109927
 30
0.0
 40
0.2708333333
 41
0.0
 71
     1
 72
     1
  1
"
  7
SLDTEXTSTYLE0
 73
     1
 44
1.0
  0
MTEXT
  5
AF
330
9B
100
AcDbEntity
  8
0
  6
Continuous
 62
     0
370
    18
100
AcDbMText
 10
-0.2868827267
 20
-0.4835896659
 30
0.0
 40
0.2708333333
 41
0.0
 71
     1
 72
     1
  1
19.05
  7
SLDTEXTSTYLE0
 73
     1
 44
1.0
  0
ENDBLK
  5
9D
330
9B
100
AcDbEntity
  8
0
100
AcDbBlockEnd
  0
BLOCK
  5
B2
330
B1
100
AcDbEntity
  8
0
100
AcDbBlockBegin
  2
reveal- .750 with .750 bowl radius
 70
     0
 10
0.0
 20
0.0
 30
0.0
  3
reveal- .750 with .750 bowl radius
  1

  0
INSERT
  5
B4
330
B1
100
AcDbEntity
  8
0
  6
Continuous
 62
     7
100
AcDbBlockReference
  2
Block1
 10
1.073173242
 20
0.715448828
 30
0.0
  0
ENDBLK
  5
B3
330
B1
100
AcDbEntity
  8
0
100
AcDbBlockEnd
  0
BLOCK
  5
D8
330
D7
100
AcDbEntity
  8
0
100
AcDbBlockBegin
  2
_D
 70
     0
 10
0.0
 20
0.0
 30
0.0
  3
_D
  1

  0
SOLID
  5
DA
330
D7
100
AcDbEntity
  8
SLD-0
 62
     1
100
AcDbTrace
 10
29.6478866332
 20
19.0603366473
 30
0.0
 11
29.4111681707
 21
18.939027105
 31
0.0
 12
29.458577673
 22
18.8734844246
 32
0.0
 13
29.458577673
 23
18.8734844246
 33
0.0
  0
LINE
  5
DB
330
D7
100
AcDbEntity
  8
SLD-0
 62
     1
100
AcDbLine
 10
27.3175851753
 20
18.281464525
 30
0.0
 11
27.5949385563
 21
18.281464525
 31
0.0
  0
LINE
  5
DC
330
D7
100
AcDbEntity
  8
SLD-0
 62
     1
100
AcDbLine
 10
26.8383606322
 20
17.8294737973
 30
0.0
 11
26.7480828509
 21
17.8294737973
 31
0.0
  0
LINE
  5
DD
330
D7
100
AcDbEntity
  8
SLD-0
 62
     1
100
AcDbLine
 10
26.7480828509
 20
17.8294737973
 30
0.0
 11
26.7480828509
 21
17.425731528
 31
0.0
  0
LINE
  5
DE
330
D7
100
AcDbEntity
  8
SLD-0
 62
     1
100
AcDbLine
 10
26.7480828509
 20
17.425731528
 30
0.0
 11
26.8383606322
 21
17.425731528
 31
0.0
  0
LINE
  5
DF
330
D7
100
AcDbEntity
  8
SLD-0
 62
     1
100
AcDbLine
 10
27.7411383899
 20
17.8294737973
 30
0.0
 11
27.8314161712
 21
17.8294737973
 31
0.0
  0
LINE
  5
E0
330
D7
100
AcDbEntity
  8
SLD-0
 62
     1
100
AcDbLine
 10
27.8314161712
 20
17.8294737973
 30
0.0
 11
27.8314161712
 21
17.425731528
 31
0.0
  0
LINE
  5
E1
330
D7
100
AcDbEntity
  8
SLD-0
 62
     1
100
AcDbLine
 10
27.8314161712
 20
17.425731528
 30
0.0
 11
27.7411383899
 21
17.425731528
 31
0.0
  0
LINE
  5
E2
330
D7
100
AcDbEntity
  8
SLD-0
 62
     1
100
AcDbLine
 10
29.6478866332
 20
19.0603366473
 30
0.0
 11
28.1716939891
 21
17.9925506167
 31
0.0
  0
LINE
  5
E3
330
D7
100
AcDbEntity
  8
SLD-0
 62
     1
100
AcDbLine
 10
28.1716939891
 20
17.9925506167
 30
0.0
 11
27.9216939891
 21
17.9925506167
 31
0.0
  0
MTEXT
  5
E4
330
D7
100
AcDbEntity
  8
SLD-0
 62
     1
100
AcDbMText
 10
26.8177973781
 20
18.4230546903
 30
0.0
 40
0.2708333333
 41
0.0
 71
     1
 72
     1
  1
R1
  7
SLDTEXTSTYLE0
 73
     1
 44
1.0
  0
MTEXT
  5
E5
330
D7
100
AcDbEntity
  8
SLD-0
 62
     1
100
AcDbMText
 10
27.3559532271
 20
18.6075662105
 30
0.0
 40
0.2708333333
 41
0.0
 71
     1
 72
     1
  1
1
  7
SLDTEXTSTYLE0
 73
     1
 44
1.0
  0
MTEXT
  5
E6
330
D7
100
AcDbEntity
  8
SLD-0
 62
     1
100
AcDbMText
 10
27.3559532271
 20
18.2387814732
 30
0.0
 40
0.2708333333
 41
0.0
 71
     1
 72
     1
  1
2
  7
SLDTEXTSTYLE0
 73
     1
 44
1.0
  0
MTEXT
  5
E7
330
D7
100
AcDbEntity
  8
SLD-0
 62
     1
100
AcDbMText
 10
27.6333066172
 20
18.4230546903
 30
0.0
 40
0.2708333333
 41
0.0
 71
     1
 72
     1
  1
"
  7
SLDTEXTSTYLE0
 73
     1
 44
1.0
  0
MTEXT
  5
E8
330
D7
100
AcDbEntity
  8
SLD-0
 62
     1
100
AcDbMText
 10
26.8383606322
 20
17.7748540317
 30
0.0
 40
0.2708333333
 41
0.0
 71
     1
 72
     1
  1
38.10
  7
SLDTEXTSTYLE0
 73
     1
 44
1.0
  0
ENDBLK
  5
D9
330
D7
100
AcDbEntity
  8
0
100
AcDbBlockEnd
  0
BLOCK
  5
EB
330
EA
100
AcDbEntity
  8
0
100
AcDbBlockBegin
  2
_D_1
 70
     0
 10
0.0
 20
0.0
 30
0.0
  3
_D_1
  1

  0
SOLID
  5
ED
330
EA
100
AcDbEntity
  8
SLD-0
 62
   150
100
AcDbTrace
 10
30.7638817067
 20
22.8091892236
 30
0.0
 11
30.5695414304
 21
22.6275756432
 31
0.0
 12
30.6331173171
 22
22.5775595407
 32
0.0
 13
30.6331173171
 23
22.5775595407
 33
0.0
  0
LINE
  5
EE
330
EA
100
AcDbEntity
  8
SLD-0
 62
   150
100
AcDbLine
 10
29.0469328213
 20
22.0013398447
 30
0.0
 11
29.3242862023
 21
22.0013398447
 31
0.0
  0
LINE
  5
EF
330
EA
100
AcDbEntity
  8
SLD-0
 62
   150
100
AcDbLine
 10
28.7683256106
 20
21.549349117
 30
0.0
 11
28.6780478294
 21
21.549349117
 31
0.0
  0
LINE
  5
F0
330
EA
100
AcDbEntity
  8
SLD-0
 62
   150
100
AcDbLine
 10
28.6780478294
 20
21.549349117
 30
0.0
 11
28.6780478294
 21
21.1456068477
 31
0.0
  0
LINE
  5
F1
330
EA
100
AcDbEntity
  8
SLD-0
 62
   150
100
AcDbLine
 10
28.6780478294
 20
21.1456068477
 30
0.0
 11
28.7683256106
 21
21.1456068477
 31
0.0
  0
LINE
  5
F2
330
EA
100
AcDbEntity
  8
SLD-0
 62
   150
100
AcDbLine
 10
29.4704860725
 20
21.549349117
 30
0.0
 11
29.5607638538
 21
21.549349117
 31
0.0
  0
LINE
  5
F3
330
EA
100
AcDbEntity
  8
SLD-0
 62
   150
100
AcDbLine
 10
29.5607638538
 20
21.549349117
 30
0.0
 11
29.5607638538
 21
21.1456068477
 31
0.0
  0
LINE
  5
F4
330
EA
100
AcDbEntity
  8
SLD-0
 62
   150
100
AcDbLine
 10
29.5607638538
 20
21.1456068477
 30
0.0
 11
29.4704860725
 21
21.1456068477
 31
0.0
  0
LINE
  5
F5
330
EA
100
AcDbEntity
  8
SLD-0
 62
   150
100
AcDbLine
 10
30.7638817067
 20
22.8091892236
 30
0.0
 11
29.9010415984
 21
21.7124259365
 31
0.0
  0
LINE
  5
F6
330
EA
100
AcDbEntity
  8
SLD-0
 62
   150
100
AcDbLine
 10
29.9010415984
 20
21.7124259365
 30
0.0
 11
29.6510415984
 21
21.7124259365
 31
0.0
  0
MTEXT
  5
F7
330
EA
100
AcDbEntity
  8
SLD-0
 62
   150
100
AcDbMText
 10
28.7477622832
 20
22.14293001
 30
0.0
 40
0.2708333333
 41
0.0
 71
     1
 72
     1
  1
R
  7
SLDTEXTSTYLE0
 73
     1
 44
1.0
  0
MTEXT
  5
F8
330
EA
100
AcDbEntity
  8
SLD-0
 62
   150
100
AcDbMText
 10
29.0853008731
 20
22.3274415302
 30
0.0
 40
0.2708333333
 41
0.0
 71
     1
 72
     1
  1
1
  7
SLDTEXTSTYLE0
 73
     1
 44
1.0
  0
MTEXT
  5
F9
330
EA
100
AcDbEntity
  8
SLD-0
 62
   150
100
AcDbMText
 10
29.0853008731
 20
21.9586567929
 30
0.0
 40
0.2708333333
 41
0.0
 71
     1
 72
     1
  1
4
  7
SLDTEXTSTYLE0
 73
     1
 44
1.0
  0
MTEXT
  5
FA
330
EA
100
AcDbEntity
  8
SLD-0
 62
   150
100
AcDbMText
 10
29.3626542632
 20
22.14293001
 30
0.0
 40
0.2708333333
 41
0.0
 71
     1
 72
     1
  1
"
  7
SLDTEXTSTYLE0
 73
     1
 44
1.0
  0
MTEXT
  5
FB
330
EA
100
AcDbEntity
  8
SLD-0
 62
   150
100
AcDbMText
 10
28.7683256106
 20
21.4947293514
 30
0.0
 40
0.2708333333
 41
0.0
 71
     1
 72
     1
  1
7.06
  7
SLDTEXTSTYLE0
 73
     1
 44
1.0
  0
ENDBLK
  5
EC
330
EA
100
AcDbEntity
  8
0
100
AcDbBlockEnd
  0
BLOCK
  5
FF
330
FE
100
AcDbEntity
  8
0
100
AcDbBlockBegin
  2
_D_2
 70
     0
 10
0.0
 20
0.0
 30
0.0
  3
_D_2
  1

  0
SOLID
  5
101
330
FE
100
AcDbEntity
  8
SLD-0
 62
     1
100
AcDbTrace
 10
7.4325116979
 20
7.079540844
 30
0.0
 11
7.6954104609
 21
7.0390948805
 31
0.0
 12
7.6954104609
 22
7.1199868076
 32
0.0
 13
7.6954104609
 23
7.1199868076
 33
0.0
  0
SOLID
  5
102
330
FE
100
AcDbEntity
  8
SLD-0
 62
     1
100
AcDbTrace
 10
29.9325116979
 20
7.079540844
 30
0.0
 11
29.6696129349
 21
7.1199868076
 31
0.0
 12
29.6696129349
 22
7.0390948805
 32
0.0
 13
29.6696129349
 23
7.0390948805
 33
0.0
  0
LINE
  5
103
330
FE
100
AcDbEntity
  8
SLD-0
 62
     1
100
AcDbLine
 10
10.88120187
 20
7.570325887
 30
0.0
 11
11.158555251
 21
7.570325887
 31
0.0
  0
LINE
  5
104
330
FE
100
AcDbEntity
  8
SLD-0
 62
     1
100
AcDbLine
 10
10.3317612514
 20
7.1183351592
 30
0.0
 11
10.2414834701
 21
7.1183351592
 31
0.0
  0
LINE
  5
105
330
FE
100
AcDbEntity
  8
SLD-0
 62
     1
100
AcDbLine
 10
10.2414834701
 20
7.1183351592
 30
0.0
 11
10.2414834701
 21
6.71459289
 31
0.0
  0
LINE
  5
106
330
FE
100
AcDbEntity
  8
SLD-0
 62
     1
100
AcDbLine
 10
10.2414834701
 20
6.71459289
 30
0.0
 11
10.3317612514
 21
6.71459289
 31
0.0
  0
LINE
  5
107
330
FE
100
AcDbEntity
  8
SLD-0
 62
     1
100
AcDbLine
 10
11.4351563049
 20
7.1183351592
 30
0.0
 11
11.5254340861
 21
7.1183351592
 31
0.0
  0
LINE
  5
108
330
FE
100
AcDbEntity
  8
SLD-0
 62
     1
100
AcDbLine
 10
11.5254340861
 20
7.1183351592
 30
0.0
 11
11.5254340861
 21
6.71459289
 31
0.0
  0
LINE
  5
109
330
FE
100
AcDbEntity
  8
SLD-0
 62
     1
100
AcDbLine
 10
11.5254340861
 20
6.71459289
 30
0.0
 11
11.4351563049
 21
6.71459289
 31
0.0
  0
LINE
  5
10A
330
FE
100
AcDbEntity
  8
SLD-0
 62
     1
100
AcDbLine
 10
7.4325116979
 20
7.079540844
 30
0.0
 11
9.5192305459
 21
7.079540844
 31
0.0
  0
LINE
  5
10B
330
FE
100
AcDbEntity
  8
SLD-0
 62
     1
100
AcDbLine
 10
29.9325116979
 20
7.079540844
 30
0.0
 11
12.247687047
 21
7.079540844
 31
0.0
  0
MTEXT
  5
10C
330
FE
100
AcDbEntity
  8
SLD-0
 62
     1
100
AcDbMText
 10
10.4415992542
 20
7.7119160522
 30
0.0
 40
0.2708333333
 41
0.0
 71
     1
 72
     1
  1
22
  7
SLDTEXTSTYLE0
 73
     1
 44
1.0
  0
MTEXT
  5
10D
330
FE
100
AcDbEntity
  8
SLD-0
 62
     1
100
AcDbMText
 10
10.9195699218
 20
7.8964275724
 30
0.0
 40
0.2708333333
 41
0.0
 71
     1
 72
     1
  1
1
  7
SLDTEXTSTYLE0
 73
     1
 44
1.0
  0
MTEXT
  5
10E
330
FE
100
AcDbEntity
  8
SLD-0
 62
     1
100
AcDbMText
 10
10.9195699218
 20
7.5276428352
 30
0.0
 40
0.2708333333
 41
0.0
 71
     1
 72
     1
  1
2
  7
SLDTEXTSTYLE0
 73
     1
 44
1.0
  0
MTEXT
  5
10F
330
FE
100
AcDbEntity
  8
SLD-0
 62
     1
100
AcDbMText
 10
11.1969232753
 20
7.7119160522
 30
0.0
 40
0.2708333333
 41
0.0
 71
     1
 72
     1
  1
"
  7
SLDTEXTSTYLE0
 73
     1
 44
1.0
  0
MTEXT
  5
110
330
FE
100
AcDbEntity
  8
SLD-0
 62
     1
100
AcDbMText
 10
10.3317612514
 20
7.0637153936
 30
0.0
 40
0.2708333333
 41
0.0
 71
     1
 72
     1
  1
571.50
  7
SLDTEXTSTYLE0
 73
     1
 44
1.0
  0
MTEXT
  5
111
330
FE
100
AcDbEntity
  8
SLD-0
 62
     1
100
AcDbMText
 10
9.5794464472
 20
6.5997880163
 30
0.0
 40
0.2708333333
 41
0.0
 71
     1
 72
     1
  1
UNDERMOUNT
  7
SLDTEXTSTYLE0
 73
     1
 44
1.0
  0
ENDBLK
  5
100
330
FE
100
AcDbEntity
  8
0
100
AcDbBlockEnd
  0
BLOCK
  5
114
330
113
100
AcDbEntity
  8
0
100
AcDbBlockBegin
  2
_D_3
 70
     0
 10
0.0
 20
0.0
 30
0.0
  3
_D_3
  1

  0
SOLID
  5
116
330
113
100
AcDbEntity
  8
SLD-0
 62
     1
100
AcDbTrace
 10
8.9831675074
 20
19.6812099405
 30
0.0
 11
8.9427215438
 21
19.4183111775
 31
0.0
 12
9.0236134709
 22
19.4183111775
 32
0.0
 13
9.0236134709
 23
19.4183111775
 33
0.0
  0
SOLID
  5
117
330
113
100
AcDbEntity
  8
SLD-0
 62
     1
100
AcDbTrace
 10
8.9831675074
 20
2.4312099405
 30
0.0
 11
9.0236134709
 21
2.6941087035
 31
0.0
 12
8.9427215438
 22
2.6941087035
 32
0.0
 13
8.9427215438
 23
2.6941087035
 33
0.0
  0
LINE
  5
118
330
113
100
AcDbEntity
  8
SLD-0
 62
     1
100
AcDbLine
 10
8.980910581
 20
9.119915559
 30
0.0
 11
9.2582639619
 21
9.119915559
 31
0.0
  0
LINE
  5
119
330
113
100
AcDbEntity
  8
SLD-0
 62
     1
100
AcDbLine
 10
8.4314699623
 20
8.6679248313
 30
0.0
 11
8.341192181
 21
8.6679248313
 31
0.0
  0
LINE
  5
11A
330
113
100
AcDbEntity
  8
SLD-0
 62
     1
100
AcDbLine
 10
8.341192181
 20
8.6679248313
 30
0.0
 11
8.341192181
 21
8.264182562
 31
0.0
  0
LINE
  5
11B
330
113
100
AcDbEntity
  8
SLD-0
 62
     1
100
AcDbLine
 10
8.341192181
 20
8.264182562
 30
0.0
 11
8.4314699623
 21
8.264182562
 31
0.0
  0
LINE
  5
11C
330
113
100
AcDbEntity
  8
SLD-0
 62
     1
100
AcDbLine
 10
9.5348650158
 20
8.6679248313
 30
0.0
 11
9.6251427971
 21
8.6679248313
 31
0.0
  0
LINE
  5
11D
330
113
100
AcDbEntity
  8
SLD-0
 62
     1
100
AcDbLine
 10
9.6251427971
 20
8.6679248313
 30
0.0
 11
9.6251427971
 21
8.264182562
 31
0.0
  0
LINE
  5
11E
330
113
100
AcDbEntity
  8
SLD-0
 62
     1
100
AcDbLine
 10
9.6251427971
 20
8.264182562
 30
0.0
 11
9.5348650158
 21
8.264182562
 31
0.0
  0
LINE
  5
11F
330
113
100
AcDbEntity
  8
SLD-0
 62
     1
100
AcDbLine
 10
8.9831675074
 20
19.6812099405
 30
0.0
 11
8.9831675074
 21
9.4580058475
 31
0.0
  0
LINE
  5
120
330
113
100
AcDbEntity
  8
SLD-0
 62
     1
100
AcDbLine
 10
8.9831675074
 20
2.4312099405
 30
0.0
 11
8.9831675074
 21
7.8002551847
 31
0.0
  0
MTEXT
  5
121
330
113
100
AcDbEntity
  8
SLD-0
 62
     1
100
AcDbMText
 10
8.5413079651
 20
9.2615057243
 30
0.0
 40
0.2708333333
 41
0.0
 71
     1
 72
     1
  1
17
  7
SLDTEXTSTYLE0
 73
     1
 44
1.0
  0
MTEXT
  5
122
330
113
100
AcDbEntity
  8
SLD-0
 62
     1
100
AcDbMText
 10
9.0192786327
 20
9.4460172445
 30
0.0
 40
0.2708333333
 41
0.0
 71
     1
 72
     1
  1
1
  7
SLDTEXTSTYLE0
 73
     1
 44
1.0
  0
MTEXT
  5
123
330
113
100
AcDbEntity
  8
SLD-0
 62
     1
100
AcDbMText
 10
9.0192786327
 20
9.0772325072
 30
0.0
 40
0.2708333333
 41
0.0
 71
     1
 72
     1
  1
4
  7
SLDTEXTSTYLE0
 73
     1
 44
1.0
  0
MTEXT
  5
124
330
113
100
AcDbEntity
  8
SLD-0
 62
     1
100
AcDbMText
 10
9.2966319862
 20
9.2615057243
 30
0.0
 40
0.2708333333
 41
0.0
 71
     1
 72
     1
  1
"
  7
SLDTEXTSTYLE0
 73
     1
 44
1.0
  0
MTEXT
  5
125
330
113
100
AcDbEntity
  8
SLD-0
 62
     1
100
AcDbMText
 10
8.4314699623
 20
8.6133050657
 30
0.0
 40
0.2708333333
 41
0.0
 71
     1
 72
     1
  1
438.15
  7
SLDTEXTSTYLE0
 73
     1
 44
1.0
  0
MTEXT
  5
126
330
113
100
AcDbEntity
  8
SLD-0
 62
     1
100
AcDbMText
 10
7.6791551581
 20
8.1493776884
 30
0.0
 40
0.2708333333
 41
0.0
 71
     1
 72
     1
  1
UNDERMOUNT
  7
SLDTEXTSTYLE0
 73
     1
 44
1.0
  0
ENDBLK
  5
115
330
113
100
AcDbEntity
  8
0
100
AcDbBlockEnd
  0
BLOCK
  5
129
330
128
100
AcDbEntity
  8
0
100
AcDbBlockBegin
  2
_D_4
 70
     0
 10
0.0
 20
0.0
 30
0.0
  3
_D_4
  1

  0
SOLID
  5
12B
330
128
100
AcDbEntity
  8
SLD-0
 62
   150
100
AcDbTrace
 10
26.6287294773
 20
22.8687099405
 30
0.0
 11
26.5882835137
 21
22.6058111775
 31
0.0
 12
26.6691754408
 22
22.6058111775
 32
0.0
 13
26.6691754408
 23
22.6058111775
 33
0.0
  0
SOLID
  5
12C
330
128
100
AcDbEntity
  8
SLD-0
 62
   150
100
AcDbTrace
 10
26.6287294773
 20
1.4937099405
 30
0.0
 11
26.6691754408
 21
1.7566087035
 31
0.0
 12
26.5882835137
 22
1.7566087035
 32
0.0
 13
26.5882835137
 23
1.7566087035
 33
0.0
  0
LINE
  5
12D
330
128
100
AcDbEntity
  8
SLD-0
 62
   150
100
AcDbLine
 10
26.6264725508
 20
16.1405411085
 30
0.0
 11
26.9038259318
 21
16.1405411085
 31
0.0
  0
LINE
  5
12E
330
128
100
AcDbEntity
  8
SLD-0
 62
   150
100
AcDbLine
 10
26.0770319322
 20
15.6885503808
 30
0.0
 11
25.9867541509
 21
15.6885503808
 31
0.0
  0
LINE
  5
12F
330
128
100
AcDbEntity
  8
SLD-0
 62
   150
100
AcDbLine
 10
25.9867541509
 20
15.6885503808
 30
0.0
 11
25.9867541509
 21
15.2848081115
 31
0.0
  0
LINE
  5
130
330
128
100
AcDbEntity
  8
SLD-0
 62
   150
100
AcDbLine
 10
25.9867541509
 20
15.2848081115
 30
0.0
 11
26.0770319322
 21
15.2848081115
 31
0.0
  0
LINE
  5
131
330
128
100
AcDbEntity
  8
SLD-0
 62
   150
100
AcDbLine
 10
27.1804269857
 20
15.6885503808
 30
0.0
 11
27.270704767
 21
15.6885503808
 31
0.0
  0
LINE
  5
132
330
128
100
AcDbEntity
  8
SLD-0
 62
   150
100
AcDbLine
 10
27.270704767
 20
15.6885503808
 30
0.0
 11
27.270704767
 21
15.2848081115
 31
0.0
  0
LINE
  5
133
330
128
100
AcDbEntity
  8
SLD-0
 62
   150
100
AcDbLine
 10
27.270704767
 20
15.2848081115
 30
0.0
 11
27.1804269857
 21
15.2848081115
 31
0.0
  0
LINE
  5
134
330
128
100
AcDbEntity
  8
SLD-0
 62
   150
100
AcDbLine
 10
26.6287294773
 20
22.8687099405
 30
0.0
 11
26.6287294773
 21
16.478631397
 31
0.0
  0
LINE
  5
135
330
128
100
AcDbEntity
  8
SLD-0
 62
   150
100
AcDbLine
 10
26.6287294773
 20
1.4937099405
 30
0.0
 11
26.6287294773
 21
14.8208807342
 31
0.0
  0
MTEXT
  5
136
330
128
100
AcDbEntity
  8
SLD-0
 62
   150
100
AcDbMText
 10
26.186869935
 20
16.2821312738
 30
0.0
 40
0.2708333333
 41
0.0
 71
     1
 72
     1
  1
21
  7
SLDTEXTSTYLE0
 73
     1
 44
1.0
  0
MTEXT
  5
137
330
128
100
AcDbEntity
  8
SLD-0
 62
   150
100
AcDbMText
 10
26.6648406026
 20
16.466642794
 30
0.0
 40
0.2708333333
 41
0.0
 71
     1
 72
     1
  1
3
  7
SLDTEXTSTYLE0
 73
     1
 44
1.0
  0
MTEXT
  5
138
330
128
100
AcDbEntity
  8
SLD-0
 62
   150
100
AcDbMText
 10
26.6648406026
 20
16.0978580567
 30
0.0
 40
0.2708333333
 41
0.0
 71
     1
 72
     1
  1
8
  7
SLDTEXTSTYLE0
 73
     1
 44
1.0
  0
MTEXT
  5
139
330
128
100
AcDbEntity
  8
SLD-0
 62
   150
100
AcDbMText
 10
26.9421939561
 20
16.2821312738
 30
0.0
 40
0.2708333333
 41
0.0
 71
     1
 72
     1
  1
"
  7
SLDTEXTSTYLE0
 73
     1
 44
1.0
  0
MTEXT
  5
13A
330
128
100
AcDbEntity
  8
SLD-0
 62
   150
100
AcDbMText
 10
26.0770319322
 20
15.6339306152
 30
0.0
 40
0.2708333333
 41
0.0
 71
     1
 72
     1
  1
542.93
  7
SLDTEXTSTYLE0
 73
     1
 44
1.0
  0
MTEXT
  5
13B
330
128
100
AcDbEntity
  8
SLD-0
 62
   150
100
AcDbMText
 10
25.5955504993
 20
15.1700032379
 30
0.0
 40
0.2708333333
 41
0.0
 71
     1
 72
     1
  1
TOPMOUNT
  7
SLDTEXTSTYLE0
 73
     1
 44
1.0
  0
ENDBLK
  5
12A
330
128
100
AcDbEntity
  8
0
100
AcDbBlockEnd
  0
BLOCK
  5
13E
330
13D
100
AcDbEntity
  8
0
100
AcDbBlockBegin
  2
_D_5
 70
     0
 10
0.0
 20
0.0
 30
0.0
  3
_D_5
  1

  0
SOLID
  5
140
330
13D
100
AcDbEntity
  8
SLD-0
 62
   150
100
AcDbTrace
 10
6.4950116979
 20
14.0640167675
 30
0.0
 11
6.7579104609
 21
14.023570804
 31
0.0
 12
6.7579104609
 22
14.1044627311
 32
0.0
 13
6.7579104609
 23
14.1044627311
 33
0.0
  0
SOLID
  5
141
330
13D
100
AcDbEntity
  8
SLD-0
 62
   150
100
AcDbTrace
 10
30.8700116979
 20
14.0640167675
 30
0.0
 11
30.6071129349
 21
14.1044627311
 31
0.0
 12
30.6071129349
 22
14.023570804
 32
0.0
 13
30.6071129349
 23
14.023570804
 33
0.0
  0
LINE
  5
142
330
13D
100
AcDbEntity
  8
SLD-0
 62
   150
100
AcDbLine
 10
28.0093911807
 20
14.5548018105
 30
0.0
 11
28.2867445617
 21
14.5548018105
 31
0.0
  0
LINE
  5
143
330
13D
100
AcDbEntity
  8
SLD-0
 62
   150
100
AcDbLine
 10
27.4599505621
 20
14.1028110827
 30
0.0
 11
27.3696727808
 21
14.1028110827
 31
0.0
  0
LINE
  5
144
330
13D
100
AcDbEntity
  8
SLD-0
 62
   150
100
AcDbLine
 10
27.3696727808
 20
14.1028110827
 30
0.0
 11
27.3696727808
 21
13.6990688135
 31
0.0
  0
LINE
  5
145
330
13D
100
AcDbEntity
  8
SLD-0
 62
   150
100
AcDbLine
 10
27.3696727808
 20
13.6990688135
 30
0.0
 11
27.4599505621
 21
13.6990688135
 31
0.0
  0
LINE
  5
146
330
13D
100
AcDbEntity
  8
SLD-0
 62
   150
100
AcDbLine
 10
28.5633456156
 20
14.1028110827
 30
0.0
 11
28.6536233968
 21
14.1028110827
 31
0.0
  0
LINE
  5
147
330
13D
100
AcDbEntity
  8
SLD-0
 62
   150
100
AcDbLine
 10
28.6536233968
 20
14.1028110827
 30
0.0
 11
28.6536233968
 21
13.6990688135
 31
0.0
  0
LINE
  5
148
330
13D
100
AcDbEntity
  8
SLD-0
 62
   150
100
AcDbLine
 10
28.6536233968
 20
13.6990688135
 30
0.0
 11
28.5633456156
 21
13.6990688135
 31
0.0
  0
LINE
  5
149
330
13D
100
AcDbEntity
  8
SLD-0
 62
   150
100
AcDbLine
 10
6.4950116979
 20
14.0640167675
 30
0.0
 11
26.9182532279
 21
14.0640167675
 31
0.0
  0
LINE
  5
14A
330
13D
100
AcDbEntity
  8
SLD-0
 62
   150
100
AcDbLine
 10
30.8700116979
 20
14.0640167675
 30
0.0
 11
29.1050429864
 21
14.0640167675
 31
0.0
  0
MTEXT
  5
14B
330
13D
100
AcDbEntity
  8
SLD-0
 62
   150
100
AcDbMText
 10
27.5697885649
 20
14.6963919757
 30
0.0
 40
0.2708333333
 41
0.0
 71
     1
 72
     1
  1
24
  7
SLDTEXTSTYLE0
 73
     1
 44
1.0
  0
MTEXT
  5
14C
330
13D
100
AcDbEntity
  8
SLD-0
 62
   150
100
AcDbMText
 10
28.0477592325
 20
14.8809034959
 30
0.0
 40
0.2708333333
 41
0.0
 71
     1
 72
     1
  1
3
  7
SLDTEXTSTYLE0
 73
     1
 44
1.0
  0
MTEXT
  5
14D
330
13D
100
AcDbEntity
  8
SLD-0
 62
   150
100
AcDbMText
 10
28.0477592325
 20
14.5121187586
 30
0.0
 40
0.2708333333
 41
0.0
 71
     1
 72
     1
  1
8
  7
SLDTEXTSTYLE0
 73
     1
 44
1.0
  0
MTEXT
  5
14E
330
13D
100
AcDbEntity
  8
SLD-0
 62
   150
100
AcDbMText
 10
28.325112586
 20
14.6963919757
 30
0.0
 40
0.2708333333
 41
0.0
 71
     1
 72
     1
  1
"
  7
SLDTEXTSTYLE0
 73
     1
 44
1.0
  0
MTEXT
  5
14F
330
13D
100
AcDbEntity
  8
SLD-0
 62
   150
100
AcDbMText
 10
27.4599505621
 20
14.0481913171
 30
0.0
 40
0.2708333333
 41
0.0
 71
     1
 72
     1
  1
619.13
  7
SLDTEXTSTYLE0
 73
     1
 44
1.0
  0
MTEXT
  5
150
330
13D
100
AcDbEntity
  8
SLD-0
 62
   150
100
AcDbMText
 10
26.9784691292
 20
13.5842639398
 30
0.0
 40
0.2708333333
 41
0.0
 71
     1
 72
     1
  1
TOPMOUNT
  7
SLDTEXTSTYLE0
 73
     1
 44
1.0
  0
ENDBLK
  5
13F
330
13D
100
AcDbEntity
  8
0
100
AcDbBlockEnd
  0
BLOCK
  5
154
330
153
100
AcDbEntity
  8
0
100
AcDbBlockBegin
  2
_D_6
 70
     0
 10
0.0
 20
0.0
 30
0.0
  3
_D_6
  1

  0
SOLID
  5
156
330
153
100
AcDbEntity
  8
SLD-0
 62
     7
100
AcDbTrace
 10
15.2526933797
 20
21.4184397114
 30
0.0
 11
15.4788354283
 21
21.5584804535
 31
0.0
 12
15.4262848215
 22
21.6199779136
 32
0.0
 13
15.4262848215
 23
21.6199779136
 33
0.0
  0
LINE
  5
157
330
153
100
AcDbEntity
  8
SLD-0
 62
     7
100
AcDbLine
 10
17.0487739588
 20
22.4122650554
 30
0.0
 11
17.3261273398
 21
22.4122650554
 31
0.0
  0
LINE
  5
158
330
153
100
AcDbEntity
  8
SLD-0
 62
     7
100
AcDbLine
 10
16.5081730581
 20
21.9602743277
 30
0.0
 11
16.4178952768
 21
21.9602743277
 31
0.0
  0
LINE
  5
159
330
153
100
AcDbEntity
  8
SLD-0
 62
     7
100
AcDbLine
 10
16.4178952768
 20
21.9602743277
 30
0.0
 11
16.4178952768
 21
21.5565320584
 31
0.0
  0
LINE
  5
15A
330
153
100
AcDbEntity
  8
SLD-0
 62
     7
100
AcDbLine
 10
16.4178952768
 20
21.5565320584
 30
0.0
 11
16.5081730581
 21
21.5565320584
 31
0.0
  0
LINE
  5
15B
330
153
100
AcDbEntity
  8
SLD-0
 62
     7
100
AcDbLine
 10
17.4109508158
 20
21.9602743277
 30
0.0
 11
17.501228597
 21
21.9602743277
 31
0.0
  0
LINE
  5
15C
330
153
100
AcDbEntity
  8
SLD-0
 62
     7
100
AcDbLine
 10
17.501228597
 20
21.9602743277
 30
0.0
 11
17.501228597
 21
21.5565320584
 31
0.0
  0
LINE
  5
15D
330
153
100
AcDbEntity
  8
SLD-0
 62
     7
100
AcDbLine
 10
17.501228597
 20
21.5565320584
 30
0.0
 11
17.4109508158
 21
21.5565320584
 31
0.0
  0
LINE
  5
15E
330
153
100
AcDbEntity
  8
SLD-0
 62
     7
100
AcDbLine
 10
15.2526933797
 20
21.4184397114
 30
0.0
 11
16.0776174955
 21
22.1233511472
 31
0.0
  0
LINE
  5
15F
330
153
100
AcDbEntity
  8
SLD-0
 62
     7
100
AcDbLine
 10
16.0776174955
 20
22.1233511472
 30
0.0
 11
16.3276174955
 21
22.1233511472
 31
0.0
  0
MTEXT
  5
160
330
153
100
AcDbEntity
  8
SLD-0
 62
     7
100
AcDbMText
 10
16.4262334463
 20
22.5538552207
 30
0.0
 40
0.2708333333
 41
0.0
 71
     1
 72
     1
  1
%%c
  7
SLDTEXTSTYLE0
 73
     1
 44
1.0
  0
MTEXT
  5
161
330
153
100
AcDbEntity
  8
SLD-0
 62
     7
100
AcDbMText
 10
16.8097886021
 20
22.5538552207
 30
0.0
 40
0.2708333333
 41
0.0
 71
     1
 72
     1
  1
1
  7
SLDTEXTSTYLE0
 73
     1
 44
1.0
  0
MTEXT
  5
162
330
153
100
AcDbEntity
  8
SLD-0
 62
     7
100
AcDbMText
 10
17.0871420106
 20
22.7383667409
 30
0.0
 40
0.2708333333
 41
0.0
 71
     1
 72
     1
  1
1
  7
SLDTEXTSTYLE0
 73
     1
 44
1.0
  0
MTEXT
  5
163
330
153
100
AcDbEntity
  8
SLD-0
 62
     7
100
AcDbMText
 10
17.0871420106
 20
22.3695820036
 30
0.0
 40
0.2708333333
 41
0.0
 71
     1
 72
     1
  1
2
  7
SLDTEXTSTYLE0
 73
     1
 44
1.0
  0
MTEXT
  5
164
330
153
100
AcDbEntity
  8
SLD-0
 62
     7
100
AcDbMText
 10
17.3644954007
 20
22.5538552207
 30
0.0
 40
0.2708333333
 41
0.0
 71
     1
 72
     1
  1
"
  7
SLDTEXTSTYLE0
 73
     1
 44
1.0
  0
MTEXT
  5
165
330
153
100
AcDbEntity
  8
SLD-0
 62
     7
100
AcDbMText
 10
16.5081730581
 20
21.9056545621
 30
0.0
 40
0.2708333333
 41
0.0
 71
     1
 72
     1
  1
38.10
  7
SLDTEXTSTYLE0
 73
     1
 44
1.0
  0
ENDBLK
  5
155
330
153
100
AcDbEntity
  8
0
100
AcDbBlockEnd
  0
BLOCK
  5
19D
330
19C
100
AcDbEntity
  8
0
100
AcDbBlockBegin
  2
SW_CENTERMARKSYMBOL_0
 70
     0
 10
0.0
 20
0.0
 30
0.0
  3
SW_CENTERMARKSYMBOL_0
  1

  0
LINE
  5
19F
330
19C
100
AcDbEntity
  8
SLD-0
 62
     0
100
AcDbLine
 10
0.0
 20
0.0
 30
0.0
 11
0.0
 21
0.1
 31
0.0
  0
LINE
  5
1A0
330
19C
100
AcDbEntity
  8
SLD-0
 62
     0
100
AcDbLine
 10
0.0
 20
0.0
 30
0.0
 11
-0.1
 21
0.0
 31
0.0
  0
LINE
  5
1A1
330
19C
100
AcDbEntity
  8
SLD-0
 62
     0
100
AcDbLine
 10
0.0
 20
0.0
 30
0.0
 11
0.0
 21
-0.1
 31
0.0
  0
LINE
  5
1A2
330
19C
100
AcDbEntity
  8
SLD-0
 62
     0
100
AcDbLine
 10
0.0
 20
0.0
 30
0.0
 11
0.1
 21
0.0
 31
0.0
  0
LINE
  5
1A3
330
19C
100
AcDbEntity
  8
SLD-0
 62
     0
100
AcDbLine
 10
0.0
 20
0.2
 30
0.0
 11
0.0
 21
0.85
 31
0.0
  0
LINE
  5
1A4
330
19C
100
AcDbEntity
  8
SLD-0
 62
     0
100
AcDbLine
 10
-0.2
 20
0.0
 30
0.0
 11
-0.85
 21
0.0
 31
0.0
  0
LINE
  5
1A5
330
19C
100
AcDbEntity
  8
SLD-0
 62
     0
100
AcDbLine
 10
0.0
 20
-0.2
 30
0.0
 11
0.0
 21
-0.85
 31
0.0
  0
LINE
  5
1A6
330
19C
100
AcDbEntity
  8
SLD-0
 62
     0
100
AcDbLine
 10
0.2
 20
0.0
 30
0.0
 11
0.85
 21
0.0
 31
0.0
  0
ENDBLK
  5
19E
330
19C
100
AcDbEntity
  8
0
100
AcDbBlockEnd
  0
BLOCK
  5
1A9
330
1A8
100
AcDbEntity
  8
0
100
AcDbBlockBegin
  2
SW_CENTERMARKSYMBOL_1
 70
     0
 10
0.0
 20
0.0
 30
0.0
  3
SW_CENTERMARKSYMBOL_1
  1

  0
LINE
  5
1AB
330
1A8
100
AcDbEntity
  8
SLD-0
 62
     0
100
AcDbLine
 10
0.0
 20
0.0
 30
0.0
 11
0.0
 21
0.1
 31
0.0
  0
LINE
  5
1AC
330
1A8
100
AcDbEntity
  8
SLD-0
 62
     0
100
AcDbLine
 10
0.0
 20
0.0
 30
0.0
 11
-0.1
 21
0.0
 31
0.0
  0
LINE
  5
1AD
330
1A8
100
AcDbEntity
  8
SLD-0
 62
     0
100
AcDbLine
 10
0.0
 20
0.0
 30
0.0
 11
0.0
 21
-0.1
 31
0.0
  0
LINE
  5
1AE
330
1A8
100
AcDbEntity
  8
SLD-0
 62
     0
100
AcDbLine
 10
0.0
 20
0.0
 30
0.0
 11
0.1
 21
0.0
 31
0.0
  0
LINE
  5
1AF
330
1A8
100
AcDbEntity
  8
SLD-0
 62
     0
100
AcDbLine
 10
0.0
 20
0.2
 30
0.0
 11
0.0
 21
0.85
 31
0.0
  0
LINE
  5
1B0
330
1A8
100
AcDbEntity
  8
SLD-0
 62
     0
100
AcDbLine
 10
-0.2
 20
0.0
 30
0.0
 11
-0.85
 21
0.0
 31
0.0
  0
LINE
  5
1B1
330
1A8
100
AcDbEntity
  8
SLD-0
 62
     0
100
AcDbLine
 10
0.0
 20
-0.2
 30
0.0
 11
0.0
 21
-0.85
 31
0.0
  0
LINE
  5
1B2
330
1A8
100
AcDbEntity
  8
SLD-0
 62
     0
100
AcDbLine
 10
0.2
 20
0.0
 30
0.0
 11
0.85
 21
0.0
 31
0.0
  0
ENDBLK
  5
1AA
330
1A8
100
AcDbEntity
  8
0
100
AcDbBlockEnd
  0
BLOCK
  5
1B5
330
1B4
100
AcDbEntity
  8
0
100
AcDbBlockBegin
  2
SW_CENTERMARKSYMBOL_2
 70
     0
 10
0.0
 20
0.0
 30
0.0
  3
SW_CENTERMARKSYMBOL_2
  1

  0
LINE
  5
1B7
330
1B4
100
AcDbEntity
  8
SLD-0
 62
     0
100
AcDbLine
 10
0.0
 20
0.0
 30
0.0
 11
0.0
 21
0.1
 31
0.0
  0
LINE
  5
1B8
330
1B4
100
AcDbEntity
  8
SLD-0
 62
     0
100
AcDbLine
 10
0.0
 20
0.0
 30
0.0
 11
-0.1
 21
0.0
 31
0.0
  0
LINE
  5
1B9
330
1B4
100
AcDbEntity
  8
SLD-0
 62
     0
100
AcDbLine
 10
0.0
 20
0.0
 30
0.0
 11
0.0
 21
-0.1
 31
0.0
  0
LINE
  5
1BA
330
1B4
100
AcDbEntity
  8
SLD-0
 62
     0
100
AcDbLine
 10
0.0
 20
0.0
 30
0.0
 11
0.1
 21
0.0
 31
0.0
  0
LINE
  5
1BB
330
1B4
100
AcDbEntity
  8
SLD-0
 62
     0
100
AcDbLine
 10
0.0
 20
0.2
 30
0.0
 11
0.0
 21
0.85
 31
0.0
  0
LINE
  5
1BC
330
1B4
100
AcDbEntity
  8
SLD-0
 62
     0
100
AcDbLine
 10
-0.2
 20
0.0
 30
0.0
 11
-0.85
 21
0.0
 31
0.0
  0
LINE
  5
1BD
330
1B4
100
AcDbEntity
  8
SLD-0
 62
     0
100
AcDbLine
 10
0.0
 20
-0.2
 30
0.0
 11
0.0
 21
-0.85
 31
0.0
  0
LINE
  5
1BE
330
1B4
100
AcDbEntity
  8
SLD-0
 62
     0
100
AcDbLine
 10
0.2
 20
0.0
 30
0.0
 11
0.85
 21
0.0
 31
0.0
  0
ENDBLK
  5
1B6
330
1B4
100
AcDbEntity
  8
0
100
AcDbBlockEnd
  0
ENDSEC
  0
SECTION
  2
ENTITIES
  0
CIRCLE
  5
B5
330
1F
100
AcDbEntity
  8
0
  6
Continuous
 62
     7
100
AcDbCircle
 10
14.6825116979
 20
20.9312099405
 30
0.0
 40
0.7500000000000006
  0
CIRCLE
  5
B6
330
1F
100
AcDbEntity
  8
0
  6
Continuous
 62
     7
100
AcDbCircle
 10
18.6825116979
 20
20.9312099405
 30
0.0
 40
0.7499999999999972
  0
ARC
  5
B7
330
1F
100
AcDbEntity
  8
0
  6
Continuous
 62
     7
100
AcDbCircle
 10
28.4325116979
 20
18.1812099405
 30
0.0
 40
1.5
100
AcDbArc
 50
0.0
 51
90.0
  0
ARC
  5
B8
330
1F
100
AcDbEntity
  8
0
  6
Continuous
 62
     7
100
AcDbCircle
 10
28.4325116979
 20
3.9312099405
 30
0.0
 40
1.5
100
AcDbArc
 50
270.0
 51
0.0
  0
ARC
  5
B9
330
1F
100
AcDbEntity
  8
0
  6
Continuous
 62
     7
100
AcDbCircle
 10
8.9325116979
 20
3.9312099405
 30
0.0
 40
1.499999999999999
100
AcDbArc
 50
180.0
 51
270.0
  0
ARC
  5
BA
330
1F
100
AcDbEntity
  8
0
  6
Continuous
 62
     7
100
AcDbCircle
 10
8.9325116979
 20
18.1812099405
 30
0.0
 40
1.5
100
AcDbArc
 50
90.0
 51
180.0
  0
ARC
  5
BB
330
1F
100
AcDbEntity
  8
0
  6
Continuous
 62
     7
100
AcDbCircle
 10
6.773062879
 20
1.7717611216
 30
0.0
 40
0.5905511811023647
100
AcDbArc
 50
180.0
 51
270.0
  0
ARC
  5
BC
330
1F
100
AcDbEntity
  8
0
  6
Continuous
 62
     7
100
AcDbCircle
 10
30.5919605168
 20
1.7717611216
 30
0.0
 40
0.5905511811023629
100
AcDbArc
 50
270.0
 51
0.0
  0
ARC
  5
BD
330
1F
100
AcDbEntity
  8
0
  6
Continuous
 62
     7
100
AcDbCircle
 10
30.5919605168
 20
22.5906587594
 30
0.0
 40
0.5905511811023629
100
AcDbArc
 50
0.0
 51
90.0
  0
ARC
  5
BE
330
1F
100
AcDbEntity
  8
0
  6
Continuous
 62
     7
100
AcDbCircle
 10
6.773062879
 20
22.5906587594
 30
0.0
 40
0.5905511811023647
100
AcDbArc
 50
90.0
 51
180.0
  0
ARC
  5
BF
330
1F
100
AcDbEntity
  8
0
  6
Continuous
 62
     7
100
AcDbCircle
 10
6.773062879
 20
22.5906587594
 30
0.0
 40
0.2780511811023629
100
AcDbArc
 50
90.0
 51
180.0
  0
ARC
  5
C0
330
1F
100
AcDbEntity
  8
0
  6
Continuous
 62
     7
100
AcDbCircle
 10
6.773062879
 20
1.7717611216
 30
0.0
 40
0.2780511811023674
100
AcDbArc
 50
180.0
 51
270.0
  0
ARC
  5
C1
330
1F
100
AcDbEntity
  8
0
  6
Continuous
 62
     7
100
AcDbCircle
 10
30.5919605168
 20
1.7717611216
 30
0.0
 40
0.2780511811023612
100
AcDbArc
 50
270.0
 51
0.0
  0
ARC
  5
C2
330
1F
100
AcDbEntity
  8
0
  6
Continuous
 62
     7
100
AcDbCircle
 10
30.5919605168
 20
22.5906587594
 30
0.0
 40
0.2780511811023629
100
AcDbArc
 50
0.0
 51
90.0
  0
CIRCLE
  5
C3
330
1F
100
AcDbEntity
  8
0
  6
Continuous
 62
     7
100
AcDbCircle
 10
22.6825116979
 20
20.9312099405
 30
0.0
 40
0.7500000000000006
  0
LINE
  5
C4
330
1F
100
AcDbEntity
  8
0
  6
Continuous
 62
     7
100
AcDbLine
 10
28.4325116979
 20
19.6812099405
 30
0.0
 11
8.9325116979
 21
19.6812099405
 31
0.0
  0
LINE
  5
C5
330
1F
100
AcDbEntity
  8
0
  6
Continuous
 62
     7
100
AcDbLine
 10
29.9325116979
 20
3.9312099405
 30
0.0
 11
29.9325116979
 21
18.1812099405
 31
0.0
  0
LINE
  5
C6
330
1F
100
AcDbEntity
  8
0
  6
Continuous
 62
     7
100
AcDbLine
 10
8.9325116979
 20
2.4312099405
 30
0.0
 11
28.4325116979
 21
2.4312099405
 31
0.0
  0
LINE
  5
C7
330
1F
100
AcDbEntity
  8
0
  6
Continuous
 62
     7
100
AcDbLine
 10
7.4325116979
 20
18.1812099405
 30
0.0
 11
7.4325116979
 21
3.9312099405
 31
0.0
  0
LINE
  5
C8
330
1F
100
AcDbEntity
  8
0
  6
Continuous
 62
     7
100
AcDbLine
 10
6.1825116979
 20
22.5906587594
 30
0.0
 11
6.1825116979
 21
1.7717611216
 31
0.0
  0
LINE
  5
C9
330
1F
100
AcDbEntity
  8
0
  6
Continuous
 62
     7
100
AcDbLine
 10
6.773062879
 20
1.1812099405
 30
0.0
 11
30.5919605168
 21
1.1812099405
 31
0.0
  0
LINE
  5
CA
330
1F
100
AcDbEntity
  8
0
  6
Continuous
 62
     7
100
AcDbLine
 10
31.1825116979
 20
1.7717611216
 30
0.0
 11
31.1825116979
 21
22.5906587594
 31
0.0
  0
LINE
  5
CB
330
1F
100
AcDbEntity
  8
0
  6
Continuous
 62
     7
100
AcDbLine
 10
30.5919605168
 20
23.1812099405
 30
0.0
 11
6.773062879
 21
23.1812099405
 31
0.0
  0
LINE
  5
CC
330
1F
100
AcDbEntity
  8
0
  6
Continuous
 62
     7
100
AcDbLine
 10
30.5919605168
 20
22.8687099405
 30
0.0
 11
6.773062879
 21
22.8687099405
 31
0.0
  0
LINE
  5
CD
330
1F
100
AcDbEntity
  8
0
  6
Continuous
 62
     7
100
AcDbLine
 10
6.4950116979
 20
22.5906587594
 30
0.0
 11
6.4950116979
 21
1.7717611216
 31
0.0
  0
LINE
  5
CE
330
1F
100
AcDbEntity
  8
0
  6
Continuous
 62
     7
100
AcDbLine
 10
6.773062879
 20
1.4937099405
 30
0.0
 11
30.5919605168
 21
1.4937099405
 31
0.0
  0
LINE
  5
CF
330
1F
100
AcDbEntity
  8
0
  6
Continuous
 62
     7
100
AcDbLine
 10
30.8700116979
 20
1.7717611216
 30
0.0
 11
30.8700116979
 21
22.5906587594
 31
0.0
  0
LINE
  5
D0
330
1F
100
AcDbEntity
  8
0
  6
CENTERX2
 62
     5
370
    18
100
AcDbLine
 10
18.7327768887
 20
19.6812099307
 30
0.0
 11
18.7327768887
 21
17.8476058807
 31
0.0
  0
LINE
  5
D1
330
1F
100
AcDbEntity
  8
0
  6
CENTERX2
 62
     5
370
    18
100
AcDbLine
 10
7.4325116979
 20
11.0562099405
 30
0.0
 11
9.2661157479
 21
11.0562099405
 31
0.0
  0
LINE
  5
D2
330
1F
100
AcDbEntity
  8
0
  6
CENTERX2
 62
     5
370
    18
100
AcDbLine
 10
18.6825116979
 20
2.4312099405
 30
0.0
 11
18.6825116979
 21
4.2648139905
 31
0.0
  0
LINE
  5
D3
330
1F
100
AcDbEntity
  8
0
  6
CENTERX2
 62
     5
370
    18
100
AcDbLine
 10
29.9325116979
 20
11.0562099405
 30
0.0
 11
28.0989076479
 21
11.0562099405
 31
0.0
  0
INSERT
  5
D4
330
1F
100
AcDbEntity
  8
0
  6
Continuous
 62
     7
100
AcDbBlockReference
  2
reveal- .750 with .750 bowl radius
 10
3.0639498879
 20
-15.4952305752
 30
0.0
  0
DIMENSION
  5
D5
330
1F
100
AcDbEntity
  8
SLD-0
 62
     1
100
AcDbDimension
  2
_D
 10
28.4325116979
 20
18.1812099405
 30
0.0
 11
27.2897495294
 21
17.9925506167
 31
0.0
 70
   164
  1
<>
 71
     1
 42
-1.0
  3
SLDDIMSTYLE0
100
AcDbRadialDimension
 15
29.6478866332
 25
19.0603366473
 35
0.0
 40
0.0
  0
DIMENSION
  5
E9
330
1F
100
AcDbEntity
  8
SLD-0
 62
   150
100
AcDbDimension
  2
_D_1
 10
30.5919605168
 20
22.5906587594
 30
0.0
 11
29.1194058233
 21
21.7124259365
 31
0.0
 70
   164
  1
<>
 71
     1
 42
-1.0
  3
SLDDIMSTYLE0
100
AcDbRadialDimension
 15
30.7638817067
 25
22.8091892236
 35
0.0
 40
0.0
  0
DIMENSION
  5
FC
330
1F
100
AcDbEntity
  8
SLD-0
 62
     1
100
AcDbDimension
  2
_D_2
 10
29.9325116979
 20
7.079540844
 30
0.0
 11
10.8834587964
 21
7.079540844
 31
0.0
 70
   160
  1
<>\PUNDERMOUNT
 71
     2
 42
-1.0
  3
SLDDIMSTYLE1
100
AcDbAlignedDimension
 13
7.4325116979
 23
3.9312099405
 33
0.0
 14
29.9325116979
 24
3.9312099405
 34
0.0
 50
0.0
100
AcDbRotatedDimension
  0
DIMENSION
  5
112
330
1F
100
AcDbEntity
  8
SLD-0
 62
     1
100
AcDbDimension
  2
_D_3
 10
8.9831675074
 20
2.4312099405
 30
0.0
 11
8.9831675074
 21
8.6291305161
 31
0.0
 70
   160
  1
<>\PUNDERMOUNT
 71
     2
 42
-1.0
  3
SLDDIMSTYLE1
100
AcDbAlignedDimension
 13
8.9325116979
 23
19.6812099405
 33
0.0
 14
8.9325116979
 24
2.4312099405
 34
0.0
 50
90.0
100
AcDbRotatedDimension
  0
DIMENSION
  5
127
330
1F
100
AcDbEntity
  8
SLD-0
 62
   150
100
AcDbDimension
  2
_D_4
 10
26.6287294773
 20
1.4937099405
 30
0.0
 11
26.6287294773
 21
15.6497560656
 31
0.0
 70
   160
  1
<>\PTOPMOUNT
 71
     2
 42
-1.0
  3
SLDDIMSTYLE1
100
AcDbAlignedDimension
 13
30.5919605168
 23
22.8687099405
 33
0.0
 14
30.5919605168
 24
1.4937099405
 34
0.0
 50
90.0
100
AcDbRotatedDimension
  0
DIMENSION
  5
13C
330
1F
100
AcDbEntity
  8
SLD-0
 62
   150
100
AcDbDimension
  2
_D_5
 10
30.8700116979
 20
14.0640167675
 30
0.0
 11
28.0116481072
 21
14.0640167675
 31
0.0
 70
   160
  1
<>\PTOPMOUNT
 71
     2
 42
-1.0
  3
SLDDIMSTYLE1
100
AcDbAlignedDimension
 13
6.4950116979
 23
22.5906587594
 33
0.0
 14
30.8700116979
 24
22.5906587594
 34
0.0
 50
0.0
100
AcDbRotatedDimension
  0
DIMENSION
  5
151
330
1F
100
AcDbEntity
  8
SLD-0
 62
     7
100
AcDbDimension
  2
_D_6
 10
14.1123300161
 20
20.4439801695
 30
0.0
 11
16.9595619552
 21
22.1233511472
 31
0.0
 70
   163
  1
<>
 71
     1
 42
-1.0
  3
SLDDIMSTYLE2
100
AcDbDiametricDimension
 15
15.2526933797
 25
21.4184397114
 35
0.0
 40
0.0
  0
MTEXT
  5
166
330
1F
100
AcDbEntity
  8
0
  6
Continuous
 62
     7
370
    18
100
AcDbMText
 10
21.9573193591
 20
18.6605947819
 30
0.0
 40
0.25
 41
0.0
 71
     2
 72
     1
  1
TEMPLATE
  7
SLDTEXTSTYLE0
 73
     1
 44
1.0
  0
MTEXT
  5
167
330
1F
100
AcDbEntity
  8
0
  6
Continuous
 62
     7
370
    18
100
AcDbMText
 10
21.961080978
 20
18.2878913674
 30
0.0
 40
0.25
 41
0.0
 71
     2
 72
     1
  1
CENTERLINE
  7
SLDTEXTSTYLE0
 73
     1
 44
1.0
  0
MTEXT
  5
168
330
1F
100
AcDbEntity
  8
0
  6
Continuous
 62
     7
370
    18
100
AcDbMText
 10
21.9612256091
 20
17.5424845385
 30
0.0
 40
0.25
 41
0.0
 71
     2
 72
     1
  1
PLANTILLA
  7
SLDTEXTSTYLE0
 73
     1
 44
1.0
  0
MTEXT
  5
169
330
1F
100
AcDbEntity
  8
0
  6
Continuous
 62
     7
370
    18
100
AcDbMText
 10
21.9576087158
 20
17.169781124
 30
0.0
 40
0.25
 41
0.0
 71
     2
 72
     1
  1
CENTRAL
  7
SLDTEXTSTYLE0
 73
     1
 44
1.0
  0
LEADER
  5
16B
330
1F
100
AcDbEntity
  8
0
  6
Continuous
 62
     7
370
    18
100
AcDbLeader
  3
SLDDIMSTYLE3
 76
     3
 10
18.7327768887
 20
18.5153331325
 30
0.0
 10
20.6225020134
 20
17.8128170555
 30
0.0
 10
21.9280575195
 20
17.8128170555
 30
0.0
  0
LEADER
  5
16C
330
1F
100
AcDbEntity
  8
0
  6
Continuous
 62
     7
370
    18
100
AcDbLeader
  3
SLDDIMSTYLE3
 76
     3
 10
28.7761062398
 20
11.0562099405
 30
0.0
 10
23.2729831044
 20
17.8128170555
 30
0.0
 10
21.9674275983
 20
17.8128170555
 30
0.0
  0
MTEXT
  5
16D
330
1F
100
AcDbEntity
  8
0
  6
Continuous
 62
     7
370
    18
100
AcDbMText
 10
10.0845466469
 20
19.0307626615
 30
0.0
 40
0.2083333333
 41
0.0
 71
     1
 72
     1
  1
NOTES:
  7
SLDTEXTSTYLE0
 73
     1
 44
1.0
  0
MTEXT
  5
16E
330
1F
100
AcDbEntity
  8
0
  6
Continuous
 62
     7
370
    18
100
AcDbMText
 10
10.4782474255
 20
18.3964669423
 30
0.0
 40
0.2083333333
 41
0.0
 71
     1
 72
     1
  1
THOROUGHLY READ ALL  INSTALLATION INSTRUCTIONS
  7
SLDTEXTSTYLE0
 73
     1
 44
1.0
  0
MTEXT
  5
16F
330
1F
100
AcDbEntity
  8
0
  6
Continuous
 62
     7
370
    18
100
AcDbMText
 10
9.6908458595
 20
18.3964669423
 30
0.0
 40
0.2083333333
 41
0.0
 71
     1
 72
     1
  1
1.
  7
SLDTEXTSTYLE0
 73
     1
 44
1.0
  0
MTEXT
  5
170
330
1F
100
AcDbEntity
  8
0
  6
Continuous
 62
     7
370
    18
100
AcDbMText
 10
10.0845466469
 20
18.0793190827
 30
0.0
 40
0.2083333333
 41
0.0
 71
     1
 72
     1
  1
BEFORE CUTTING COUNTERTOP.
  7
SLDTEXTSTYLE0
 73
     1
 44
1.0
  0
MTEXT
  5
171
330
1F
100
AcDbEntity
  8
0
  6
Continuous
 62
     7
370
    18
100
AcDbMText
 10
10.0845466469
 20
17.4450233634
 30
0.0
 40
0.2083333333
 41
0.0
 71
     1
 72
     1
  1
2.  DIMENSIONS ARE IN INCHES [MM].
  7
SLDTEXTSTYLE0
 73
     1
 44
1.0
  0
MTEXT
  5
172
330
1F
100
AcDbEntity
  8
0
  6
Continuous
 62
     7
370
    18
100
AcDbMText
 10
10.0845466469
 20
16.4935797846
 30
0.0
 40
0.2083333333
 41
0.0
 71
     1
 72
     1
  1
PLEASE CHECK TEMPLATE AGAINST PHYSICAL SINK FOR MOST ACCURATE CUT.
  7
SLDTEXTSTYLE0
 73
     1
 44
1.0
  0
MTEXT
  5
173
330
1F
100
AcDbEntity
  8
0
  6
Continuous
 62
     7
370
    18
100
AcDbMText
 10
10.0845466469
 20
15.2249883462
 30
0.0
 40
0.2083333333
 41
0.0
 71
     1
 72
     1
  1
NOTAS:
  7
SLDTEXTSTYLE0
 73
     1
 44
1.0
  0
MTEXT
  5
174
330
1F
100
AcDbEntity
  8
0
  6
Continuous
 62
     7
370
    18
100
AcDbMText
 10
10.0845466469
 20
14.5906926269
 30
0.0
 40
0.2083333333
 41
0.0
 71
     1
 72
     1
  1
1.  LEA ATENTAMENTE LAS INSTRUCCIONES DE INSTALACIÓN ANTES DE CORTAR LA ENCIMERA.
  7
SLDTEXTSTYLE0
 73
     1
 44
1.0
  0
MTEXT
  5
175
330
1F
100
AcDbEntity
  8
0
  6
Continuous
 62
     7
370
    18
100
AcDbMText
 10
10.0845466469
 20
13.9563969077
 30
0.0
 40
0.2083333333
 41
0.0
 71
     1
 72
     1
  1
2.  DIMENSIONES EN PULGADAS [MM].
  7
SLDTEXTSTYLE0
 73
     1
 44
1.0
  0
MTEXT
  5
176
330
1F
100
AcDbEntity
  8
0
  6
Continuous
 62
     7
370
    18
100
AcDbMText
 10
10.0845466469
 20
13.0049533289
 30
0.0
 40
0.2083333333
 41
0.0
 71
     1
 72
     1
  1
POR FAVOR COMPRUEBE PLANTILLA CONTRA FREGADERO FÍSICO PARA CORTE MÁS EXACTO.
  7
SLDTEXTSTYLE0
 73
     1
 44
1.0
  0
MTEXT
  5
177
330
1F
100
AcDbEntity
  8
SLD-0
100
AcDbMText
 10
20.0874187393
 20
5.6249494611
 30
0.0
 40
0.2083333333
 41
0.0
 71
     1
 72
     1
  1
3/4" REVEAL
  7
SLDTEXTSTYLE0
 73
     1
 44
1.0
  0
MTEXT
  5
178
330
1F
100
AcDbEntity
  8
SLD-0
100
AcDbMText
 10
20.0874187393
 20
5.3078016015
 30
0.0
 40
0.2083333333
 41
0.0
 71
     1
 72
     1
  1
[19.05 REVELADO]
  7
SLDTEXTSTYLE0
 73
     1
 44
1.0
  0
LEADER
  5
179
330
1F
100
AcDbEntity
  8
SLD-0
100
AcDbLeader
  3
SLDDIMSTYLE3
 76
     3
 10
18.8374891029
 20
2.4312099405
 30
0.0
 10
19.8147955913
 20
5.3858670467
 30
0.0
 10
20.0647955913
 20
5.3858670467
 30
0.0
  0
MTEXT
  5
17A
330
1F
100
AcDbEntity
  8
NOTES
100
AcDbMText
 10
18.8978333276
 20
12.2165317251
 30
0.0
 40
0.8333333333
 41
0.0
 71
     2
 72
     1
  1
TEMPLATE #: 2000000634
  7
SLDTEXTSTYLE0
 73
     1
 44
1.0
  0
MTEXT
  5
17B
330
1F
100
AcDbEntity
  8
NOTES
100
AcDbMText
 10
18.8918564492
 20
10.5813777432
 30
0.0
 40
0.4166666667
 41
0.0
 71
     2
 72
     1
  1
DUAL MOUNT TEMPLATE 25" X 22" X W/ 3/4" RADIUS
  7
SLDTEXTSTYLE0
 73
     1
 44
1.0
  0
MTEXT
  5
17C
330
1F
100
AcDbEntity
  8
NOTES
100
AcDbMText
 10
15.3798009778
 20
3.1366331614
 30
0.0
 40
0.2083333333
 41
0.0
 71
     1
 72
     1
  1
REV_B  3/22
  7
SLDTEXTSTYLE0
 73
     1
 44
1.0
  0
MTEXT
  5
17D
330
1F
100
AcDbEntity
  8
SLD-0
100
AcDbMText
 10
7.4069811153
 20
22.5525658545
 30
0.0
 40
0.1666666667
 41
0.0
 71
     1
 72
     1
  1
REFER TO SINK BEING INSTALLED FOR
  7
SLDTEXTSTYLE0
 73
     1
 44
1.0
  0
MTEXT
  5
17E
330
1F
100
AcDbEntity
  8
SLD-0
100
AcDbMText
 10
7.4069811153
 20
22.2909735497
 30
0.0
 40
0.1666666667
 41
0.0
 71
     1
 72
     1
  1
CORRECT HOLE NUMBER AND LOCATIONS,
  7
SLDTEXTSTYLE0
 73
     1
 44
1.0
  0
MTEXT
  5
17F
330
1F
100
AcDbEntity
  8
SLD-0
100
AcDbMText
 10
7.4069811153
 20
22.029381245
 30
0.0
 40
0.1666666667
 41
0.0
 71
     1
 72
     1
  1
THEN USE THIS DIAGRAM TO DETERMINE
  7
SLDTEXTSTYLE0
 73
     1
 44
1.0
  0
MTEXT
  5
180
330
1F
100
AcDbEntity
  8
SLD-0
100
AcDbMText
 10
7.4069811153
 20
21.7677889403
 30
0.0
 40
0.1666666667
 41
0.0
 71
     1
 72
     1
  1
WHERE TO DRILL 1-7/16" HOLES.
  7
SLDTEXTSTYLE0
 73
     1
 44
1.0
  0
MTEXT
  5
181
330
1F
100
AcDbEntity
  8
SLD-0
100
AcDbMText
 10
7.4069811153
 20
21.2446043308
 30
0.0
 40
0.1666666667
 41
0.0
 71
     1
 72
     1
  1
CONSULTE EL FREGADERO QUE ESTÁ
  7
SLDTEXTSTYLE0
 73
     1
 44
1.0
  0
MTEXT
  5
182
330
1F
100
AcDbEntity
  8
SLD-0
100
AcDbMText
 10
7.4069811153
 20
20.9830120261
 30
0.0
 40
0.1666666667
 41
0.0
 71
     1
 72
     1
  1
INSTALADO PARA EL NÚMEROS CORRECTO DE
  7
SLDTEXTSTYLE0
 73
     1
 44
1.0
  0
MTEXT
  5
183
330
1F
100
AcDbEntity
  8
SLD-0
100
AcDbMText
 10
7.4069811153
 20
20.7214197214
 30
0.0
 40
0.1666666667
 41
0.0
 71
     1
 72
     1
  1
AGUJEROS Y UBICACIONES CORRESPONDIENTES,
  7
SLDTEXTSTYLE0
 73
     1
 44
1.0
  0
MTEXT
  5
184
330
1F
100
AcDbEntity
  8
SLD-0
100
AcDbMText
 10
7.4069811153
 20
20.4598274166
 30
0.0
 40
0.1666666667
 41
0.0
 71
     1
 72
     1
  1
ENTONCES UTILICE ESTE DIAGRAMA PARA DETERMINAR
  7
SLDTEXTSTYLE0
 73
     1
 44
1.0
  0
MTEXT
  5
185
330
1F
100
AcDbEntity
  8
SLD-0
100
AcDbMText
 10
7.4069811153
 20
20.1982351119
 30
0.0
 40
0.1666666667
 41
0.0
 71
     1
 72
     1
  1
DONDE HACER LAS PERFORACIONES DE 36.51mm.
  7
SLDTEXTSTYLE0
 73
     1
 44
1.0
  0
MTEXT
  5
186
330
1F
100
AcDbEntity
  8
NOTES
100
AcDbMText
 10
12.1624780302
 20
9.7901020947
 30
0.0
 40
0.2083333333
 41
0.0
 71
     1
 72
     1
  1
EDGE OF SINK,
  7
SLDTEXTSTYLE0
 73
     1
 44
1.0
  0
MTEXT
  5
187
330
1F
100
AcDbEntity
  8
NOTES
100
AcDbMText
 10
12.1624780302
 20
9.4729542351
 30
0.0
 40
0.2083333333
 41
0.0
 71
     1
 72
     1
  1
REFERENCE ONLY
  7
SLDTEXTSTYLE0
 73
     1
 44
1.0
  0
MTEXT
  5
188
330
1F
100
AcDbEntity
  8
NOTES
100
AcDbMText
 10
12.1624780302
 20
9.1558063755
 30
0.0
 40
0.2083333333
 41
0.0
 71
     1
 72
     1
  1
DO NOT CUT
  7
SLDTEXTSTYLE0
 73
     1
 44
1.0
  0
MTEXT
  5
189
330
1F
100
AcDbEntity
  8
NOTES
100
AcDbMText
 10
12.1624780302
 20
8.5215106563
 30
0.0
 40
0.2083333333
 41
0.0
 71
     1
 72
     1
  1
BORDE DEL FREGADERO,
  7
SLDTEXTSTYLE0
 73
     1
 44
1.0
  0
MTEXT
  5
18A
330
1F
100
AcDbEntity
  8
NOTES
100
AcDbMText
 10
12.1624780302
 20
8.2043627966
 30
0.0
 40
0.2083333333
 41
0.0
 71
     1
 72
     1
  1
SÓLO REFERENCIA
  7
SLDTEXTSTYLE0
 73
     1
 44
1.0
  0
MTEXT
  5
18B
330
1F
100
AcDbEntity
  8
NOTES
100
AcDbMText
 10
12.1624780302
 20
7.887214937
 30
0.0
 40
0.2083333333
 41
0.0
 71
     1
 72
     1
  1
NO CORTE
  7
SLDTEXTSTYLE0
 73
     1
 44
1.0
  0
LEADER
  5
18C
330
1F
100
AcDbEntity
  8
NOTES
100
AcDbLeader
  3
SLDDIMSTYLE3
 76
     3
 10
6.1825116979
 20
14.0810001834
 30
0.0
 10
11.8884682309
 20
8.7548404723
 30
0.0
 10
12.1381588389
 20
8.7548404723
 30
0.0
  0
MTEXT
  5
18D
330
1F
100
AcDbEntity
  8
NOTES
100
AcDbMText
 10
25.8552042049
 20
10.1072500643
 30
0.0
 40
0.2083333333
 41
0.0
 71
     3
 72
     1
  1
FOR TOP MOUNT
  7
SLDTEXTSTYLE0
 73
     1
 44
1.0
  0
MTEXT
  5
18E
330
1F
100
AcDbEntity
  8
NOTES
100
AcDbMText
 10
25.9516548208
 20
9.7901022047
 30
0.0
 40
0.2083333333
 41
0.0
 71
     3
 72
     1
  1
INSTALLATION CUT
  7
SLDTEXTSTYLE0
 73
     1
 44
1.0
  0
MTEXT
  5
18F
330
1F
100
AcDbEntity
  8
NOTES
100
AcDbMText
 10
25.9511725484
 20
9.4729543451
 30
0.0
 40
0.2083333333
 41
0.0
 71
     3
 72
     1
  1
ALONG THIS LINE
  7
SLDTEXTSTYLE0
 73
     1
 44
1.0
  0
MTEXT
  5
190
330
1F
100
AcDbEntity
  8
NOTES
100
AcDbMText
 10
25.9738390954
 20
8.8386586259
 30
0.0
 40
0.2083333333
 41
0.0
 71
     3
 72
     1
  1
PARA LA INSTALACIÓN DE
  7
SLDTEXTSTYLE0
 73
     1
 44
1.0
  0
MTEXT
  5
191
330
1F
100
AcDbEntity
  8
NOTES
100
AcDbMText
 10
25.9545484949
 20
8.5215107663
 30
0.0
 40
0.2083333333
 41
0.0
 71
     3
 72
     1
  1
MONTAJE SUPERIOR
  7
SLDTEXTSTYLE0
 73
     1
 44
1.0
  0
MTEXT
  5
192
330
1F
100
AcDbEntity
  8
NOTES
100
AcDbMText
 10
25.9477968687
 20
8.2043629066
 30
0.0
 40
0.2083333333
 41
0.0
 71
     3
 72
     1
  1
CORTE A LO LARGO
  7
SLDTEXTSTYLE0
 73
     1
 44
1.0
  0
MTEXT
  5
193
330
1F
100
AcDbEntity
  8
NOTES
100
AcDbMText
 10
25.9603352963
 20
7.887215047
 30
0.0
 40
0.2083333333
 41
0.0
 71
     3
 72
     1
  1
DE ESTA LÍNEA
  7
SLDTEXTSTYLE0
 73
     1
 44
1.0
  0
LEADER
  5
194
330
1F
100
AcDbEntity
  8
NOTES
100
AcDbLeader
  3
SLDDIMSTYLE3
 76
     3
 10
30.8700116979
 20
6.9987595537
 30
0.0
 10
26.1998808852
 20
8.9119925688
 30
0.0
 10
25.9498808852
 20
8.9119925688
 30
0.0
  0
MTEXT
  5
195
330
1F
100
AcDbEntity
  8
NOTES
100
AcDbMText
 10
26.7557655802
 20
6.3467162379
 30
0.0
 40
0.2083333333
 41
0.0
 71
     1
 72
     1
  1
FOR UNDERMOUNT
  7
SLDTEXTSTYLE0
 73
     1
 44
1.0
  0
MTEXT
  5
196
330
1F
100
AcDbEntity
  8
NOTES
100
AcDbMText
 10
26.7557655802
 20
6.0295683782
 30
0.0
 40
0.2083333333
 41
0.0
 71
     1
 72
     1
  1
INSTALLATION CUT
  7
SLDTEXTSTYLE0
 73
     1
 44
1.0
  0
MTEXT
  5
197
330
1F
100
AcDbEntity
  8
NOTES
100
AcDbMText
 10
26.7557655802
 20
5.7124205186
 30
0.0
 40
0.2083333333
 41
0.0
 71
     1
 72
     1
  1
ALONG THIS LINE
  7
SLDTEXTSTYLE0
 73
     1
 44
1.0
  0
MTEXT
  5
198
330
1F
100
AcDbEntity
  8
NOTES
100
AcDbMText
 10
26.7557655802
 20
5.0781247994
 30
0.0
 40
0.2083333333
 41
0.0
 71
     1
 72
     1
  1
PARA LA INSTALACIÓN
  7
SLDTEXTSTYLE0
 73
     1
 44
1.0
  0
MTEXT
  5
199
330
1F
100
AcDbEntity
  8
NOTES
100
AcDbMText
 10
26.7557655802
 20
4.7609769398
 30
0.0
 40
0.2083333333
 41
0.0
 71
     1
 72
     1
  1
INFERIOR CORTE A LO
  7
SLDTEXTSTYLE0
 73
     1
 44
1.0
  0
MTEXT
  5
19A
330
1F
100
AcDbEntity
  8
NOTES
100
AcDbMText
 10
26.7557655802
 20
4.4438290802
 30
0.0
 40
0.2083333333
 41
0.0
 71
     1
 72
     1
  1
LARGO DE ESTA LÍNEA
  7
SLDTEXTSTYLE0
 73
     1
 44
1.0
  0
LEADER
  5
19B
330
1F
100
AcDbEntity
  8
NOTES
100
AcDbLeader
  3
SLDDIMSTYLE3
 76
     3
 10
23.1707173012
 20
2.4312099405
 30
0.0
 10
26.4836907368
 20
5.3105565485
 30
0.0
 10
26.733311966
 20
5.3105565485
 30
0.0
  0
INSERT
  5
1A7
330
1F
100
AcDbEntity
  8
SLD-0
 62
     7
100
AcDbBlockReference
  2
SW_CENTERMARKSYMBOL_0
 10
14.6825116979
 20
20.9312099405
 30
0.0
  0
INSERT
  5
1B3
330
1F
100
AcDbEntity
  8
SLD-0
 62
     7
100
AcDbBlockReference
  2
SW_CENTERMARKSYMBOL_1
 10
18.6825116979
 20
20.9312099405
 30
0.0
  0
INSERT
  5
1BF
330
1F
100
AcDbEntity
  8
SLD-0
 62
     7
100
AcDbBlockReference
  2
SW_CENTERMARKSYMBOL_2
 10
22.6825116979
 20
20.9312099405
 30
0.0
  0
ENDSEC
  0
SECTION
  2
OBJECTS
  0
DICTIONARY
  5
C
330
0
100
AcDbDictionary
281
     1
  3
ACAD_GROUP
350
D
  3
ACAD_LAYOUT
350
1A
  3
ACAD_MLINESTYLE
350
17
  3
ACAD_PLOTSETTINGS
350
19
  3
ACAD_PLOTSTYLENAME
350
E
  3
ACAD_SCALELIST
350
47
  3
DWGPROPS
350
1C0
  0
DICTIONARY
  5
D
102
{ACAD_REACTORS
330
C
102
}
330
C
100
AcDbDictionary
281
     1
  0
DICTIONARY
  5
1A
102
{ACAD_REACTORS
330
C
102
}
330
C
100
AcDbDictionary
281
     1
  3
Layout1
350
1E
  3
Layout2
350
26
  3
Model
350
22
  0
DICTIONARY
  5
17
102
{ACAD_REACTORS
330
C
102
}
330
C
100
AcDbDictionary
281
     1
  3
Standard
350
18
  0
DICTIONARY
  5
19
102
{ACAD_REACTORS
330
C
102
}
330
C
100
AcDbDictionary
281
     1
  0
ACDBDICTIONARYWDFLT
  5
E
102
{ACAD_REACTORS
330
C
102
}
330
C
100
AcDbDictionary
281
     1
  3
Normal
350
F
100
AcDbDictionaryWithDefault
340
F
  0
DICTIONARY
  5
47
102
{ACAD_REACTORS
330
C
102
}
330
C
100
AcDbDictionary
281
     1
  3
A0
350
48
  3
A1
350
49
  3
A2
350
4A
  3
A3
350
4B
  3
A4
350
4C
  3
A5
350
4D
  3
A6
350
4E
  3
A7
350
4F
  3
A8
350
50
  3
A9
350
51
  3
B1
350
52
  3
B2
350
53
  3
B3
350
54
  3
B4
350
55
  3
B5
350
56
  3
B6
350
57
  3
B7
350
58
  0
XRECORD
  5
1C0
102
{ACAD_REACTORS
330
C
102
}
330
C
100
AcDbXrecord
280
     1
  1
DWGPROPS COOKIE
  2

  3

  4

  6

  7

  8
kenton.nall
  9

300
=
301
=
302
=
303
=
304
=
305
=
306
=
307
=
308
=
309
=
 40
0.0
 41
2460440.636591678
 42
2460440.636593437
  1

 90
        0
  0
LAYOUT
  5
1E
102
{ACAD_REACTORS
330
1A
102
}
330
1A
100
AcDbPlotSettings
  1

  2
none_device
  4

  6

 40
0.0
 41
0.0
 42
0.0
 43
0.0
 44
0.0
 45
0.0
 46
0.0
 47
0.0
 48
0.0
 49
0.0
140
0.0
141
0.0
142
1.0
143
1.0
 70
   688
 72
     0
 73
     0
 74
     5
  7

 75
    16
147
1.0
148
0.0
149
0.0
100
AcDbLayout
  1
Layout1
 70
     1
 71
     1
 10
0.0
 20
0.0
 11
12.0
 21
9.0
 12
0.0
 22
0.0
 32
0.0
 14
1.0000000000E+20
 24
1.0000000000E+20
 34
1.0000000000E+20
 15
-1.0000000000E+20
 25
-1.0000000000E+20
 35
-1.0000000000E+20
146
0.0
 13
0.0
 23
0.0
 33
0.0
 16
1.0
 26
0.0
 36
0.0
 17
0.0
 27
1.0
 37
0.0
 76
     0
330
1B
  0
LAYOUT
  5
26
102
{ACAD_REACTORS
330
1A
102
}
330
1A
100
AcDbPlotSettings
  1

  2
none_device
  4

  6

 40
0.0
 41
0.0
 42
0.0
 43
0.0
 44
0.0
 45
0.0
 46
0.0
 47
0.0
 48
0.0
 49
0.0
140
0.0
141
0.0
142
1.0
143
1.0
 70
   688
 72
     0
 73
     0
 74
     5
  7

 75
    16
147
1.0
148
0.0
149
0.0
100
AcDbLayout
  1
Layout2
 70
     1
 71
     2
 10
0.0
 20
0.0
 11
0.0
 21
0.0
 12
0.0
 22
0.0
 32
0.0
 14
0.0
 24
0.0
 34
0.0
 15
0.0
 25
0.0
 35
0.0
146
0.0
 13
0.0
 23
0.0
 33
0.0
 16
1.0
 26
0.0
 36
0.0
 17
0.0
 27
1.0
 37
0.0
 76
     0
330
23
  0
LAYOUT
  5
22
102
{ACAD_REACTORS
330
1A
102
}
330
1A
100
AcDbPlotSettings
  1

  2
none_device
  4
Letter_(8.50_x_11.00_Inches)
  6

 40
6.35
 41
6.35
 42
6.35000508
 43
6.35000508
 44
215.9
 45
279.4
 46
0.0
 47
0.0
 48
0.0
 49
0.0
140
0.0
141
0.0
142
1.0
143
1.0
 70
  1712
 72
     0
 73
     0
 74
     0
  7

 75
     0
147
1.0
148
0.0
149
0.0
100
AcDbLayout
  1
Model
 70
     1
 71
     0
 10
0.0
 20
0.0
 11
38.0
 21
25.0
 12
0.0
 22
0.0
 32
0.0
 14
0.0
 24
0.0
 34
0.0
 15
38.0
 25
25.0
 35
0.0
146
0.0
 13
0.0
 23
0.0
 33
0.0
 16
1.0
 26
0.0
 36
0.0
 17
0.0
 27
1.0
 37
0.0
 76
     0
330
1F
331
29
  0
MLINESTYLE
  5
18
102
{ACAD_REACTORS
330
17
102
}
330
17
100
AcDbMlineStyle
  2
Standard
 70
     0
  3

 62
   256
 51
90.0
 52
90.0
 71
     2
 49
0.5
 62
   256
  6
BYLAYER
 49
-0.5
 62
   256
  6
BYLAYER
  0
ACDBPLACEHOLDER
  5
F
102
{ACAD_REACTORS
330
E
102
}
330
E
  0
SCALE
  5
48
102
{ACAD_REACTORS
330
47
102
}
330
47
100
AcDbScale
 70
     0
300
1:1
140
1.0
141
1.0
290
     1
  0
SCALE
  5
49
102
{ACAD_REACTORS
330
47
102
}
330
47
100
AcDbScale
 70
     0
300
1/128" = 1'-0"
140
0.0078125
141
12.0
290
     0
  0
SCALE
  5
4A
102
{ACAD_REACTORS
330
47
102
}
330
47
100
AcDbScale
 70
     0
300
1/64" = 1'-0"
140
0.015625
141
12.0
290
     0
  0
SCALE
  5
4B
102
{ACAD_REACTORS
330
47
102
}
330
47
100
AcDbScale
 70
     0
300
1/32" = 1'-0"
140
0.03125
141
12.0
290
     0
  0
SCALE
  5
4C
102
{ACAD_REACTORS
330
47
102
}
330
47
100
AcDbScale
 70
     0
300
1/16" = 1'-0"
140
0.0625
141
12.0
290
     0
  0
SCALE
  5
4D
102
{ACAD_REACTORS
330
47
102
}
330
47
100
AcDbScale
 70
     0
300
3/32" = 1'-0"
140
0.09375
141
12.0
290
     0
  0
SCALE
  5
4E
102
{ACAD_REACTORS
330
47
102
}
330
47
100
AcDbScale
 70
     0
300
1/8" = 1'-0"
140
0.125
141
12.0
290
     0
  0
SCALE
  5
4F
102
{ACAD_REACTORS
330
47
102
}
330
47
100
AcDbScale
 70
     0
300
3/16" = 1'-0"
140
0.1875
141
12.0
290
     0
  0
SCALE
  5
50
102
{ACAD_REACTORS
330
47
102
}
330
47
100
AcDbScale
 70
     0
300
1/4" = 1'-0"
140
0.25
141
12.0
290
     0
  0
SCALE
  5
51
102
{ACAD_REACTORS
330
47
102
}
330
47
100
AcDbScale
 70
     0
300
3/8" = 1'-0"
140
0.375
141
12.0
290
     0
  0
SCALE
  5
52
102
{ACAD_REACTORS
330
47
102
}
330
47
100
AcDbScale
 70
     0
300
1/2" = 1'-0"
140
0.5
141
12.0
290
     0
  0
SCALE
  5
53
102
{ACAD_REACTORS
330
47
102
}
330
47
100
AcDbScale
 70
     0
300
3/4" = 1'-0"
140
0.75
141
12.0
290
     0
  0
SCALE
  5
54
102
{ACAD_REACTORS
330
47
102
}
330
47
100
AcDbScale
 70
     0
300
1" = 1'-0"
140
1.0
141
12.0
290
     0
  0
SCALE
  5
55
102
{ACAD_REACTORS
330
47
102
}
330
47
100
AcDbScale
 70
     0
300
1-1/2" = 1'-0"
140
1.5
141
12.0
290
     0
  0
SCALE
  5
56
102
{ACAD_REACTORS
330
47
102
}
330
47
100
AcDbScale
 70
     0
300
3" = 1'-0"
140
3.0
141
12.0
290
     0
  0
SCALE
  5
57
102
{ACAD_REACTORS
330
47
102
}
330
47
100
AcDbScale
 70
     0
300
6" = 1'-0"
140
6.0
141
12.0
290
     0
  0
SCALE
  5
58
102
{ACAD_REACTORS
330
47
102
}
330
47
100
AcDbScale
 70
     0
300
1'-0" = 1'-0"
140
12.0
141
12.0
290
     0
  0
ENDSEC
  0
EOF
