  0
SECTION
  2
HEADER
  9
$ACADVER
  1
AC1015
  9
$ACADMAINTVER
 70
     6
  9
$DWGCODEPAGE
  3
ANSI_1252
  9
$INSBASE
 10
0.0
 20
0.0
 30
0.0
  9
$EXTMIN
 10
0.0
 20
0.0
 30
0.0
  9
$EXTMAX
 10
34.0
 20
22.0
 30
0.0
  9
$LIMMIN
 10
0.0
 20
0.0
  9
$LIMMAX
 10
34.0
 20
22.0
  9
$ORTHOMODE
 70
     0
  9
$REGENMODE
 70
     1
  9
$FILLMODE
 70
     1
  9
$QTEXTMODE
 70
     0
  9
$MIRRTEXT
 70
     1
  9
$LTSCALE
 40
1.0
  9
$ATTMODE
 70
     1
  9
$TEXTSIZE
 40
0.1666666667
  9
$TRACEWID
 40
0.05
  9
$TEXTSTYLE
  7
STANDARD
  9
$CLAYER
  8
0
  9
$CELTYPE
  6
ByLayer
  9
$CECOLOR
 62
   256
  9
$CELTSCALE
 40
1.0
  9
$DISPSILH
 70
     0
  9
$DIMSCALE
 40
1.0
  9
$DIMASZ
 40
0.2022298177
  9
$DIMEXO
 40
0.05
  9
$DIMDLI
 40
0.38
  9
$DIMRND
 40
0.0
  9
$DIMDLE
 40
0.0
  9
$DIMEXE
 40
0.125
  9
$DIMTP
 40
0.0
  9
$DIMTM
 40
0.0
  9
$DIMTXT
 40
0.1944444444
  9
$DIMCEN
 40
0.09
  9
$DIMTSZ
 40
0.0
  9
$DIMTOL
 70
     0
  9
$DIMLIM
 70
     0
  9
$DIMTIH
 70
     1
  9
$DIMTOH
 70
     1
  9
$DIMSE1
 70
     0
  9
$DIMSE2
 70
     0
  9
$DIMTAD
 70
     0
  9
$DIMZIN
 70
     0
  9
$DIMBLK
  1

  9
$DIMASO
 70
     1
  9
$DIMSHO
 70
     1
  9
$DIMPOST
  1

  9
$DIMAPOST
  1

  9
$DIMALT
 70
     0
  9
$DIMALTD
 70
     2
  9
$DIMALTF
 40
25.4
  9
$DIMLFAC
 40
1.0
  9
$DIMTOFL
 70
     0
  9
$DIMTVP
 40
0.0
  9
$DIMTIX
 70
     0
  9
$DIMSOXD
 70
     0
  9
$DIMSAH
 70
     0
  9
$DIMBLK1
  1

  9
$DIMBLK2
  1

  9
$DIMSTYLE
  2
Standard
  9
$DIMCLRD
 70
     0
  9
$DIMCLRE
 70
     0
  9
$DIMCLRT
 70
     0
  9
$DIMTFAC
 40
1.0
  9
$DIMGAP
 40
0.06
  9
$DIMJUST
 70
     0
  9
$DIMSD1
 70
     0
  9
$DIMSD2
 70
     0
  9
$DIMTOLJ
 70
     1
  9
$DIMTZIN
 70
     0
  9
$DIMALTZ
 70
     0
  9
$DIMALTTZ
 70
     0
  9
$DIMUPT
 70
     0
  9
$DIMDEC
 70
     2
  9
$DIMTDEC
 70
     2
  9
$DIMALTU
 70
     2
  9
$DIMALTTD
 70
     2
  9
$DIMTXSTY
  7
STANDARD
  9
$DIMAUNIT
 70
     0
  9
$DIMADEC
 70
     0
  9
$DIMALTRND
 40
0.0
  9
$DIMAZIN
 70
     0
  9
$DIMDSEP
 70
    46
  9
$DIMATFIT
 70
     3
  9
$DIMFRAC
 70
     0
  9
$DIMLDRBLK
  1

  9
$DIMLUNIT
 70
     2
  9
$DIMLWD
 70
    -2
  9
$DIMLWE
 70
    -2
  9
$DIMTMOVE
 70
     0
  9
$LUNITS
 70
     2
  9
$LUPREC
 70
     2
  9
$SKETCHINC
 40
0.1
  9
$FILLETRAD
 40
0.5
  9
$AUNITS
 70
     0
  9
$AUPREC
 70
     0
  9
$MENU
  1
.
  9
$ELEVATION
 40
0.0
  9
$PELEVATION
 40
0.0
  9
$THICKNESS
 40
0.0
  9
$LIMCHECK
 70
     0
  9
$CHAMFERA
 40
0.0
  9
$CHAMFERB
 40
0.0
  9
$CHAMFERC
 40
0.0
  9
$CHAMFERD
 40
0.0
  9
$SKPOLY
 70
     0
  9
$TDCREATE
 40
2458914.425991366
  9
$TDUCREATE
 40
2458914.675991366
  9
$TDUPDATE
 40
2458914.425993599
  9
$TDUUPDATE
 40
2458914.675993599
  9
$TDINDWG
 40
0.0000000116
  9
$TDUSRTIMER
 40
0.0000000116
  9
$USRTIMER
 70
     1
  9
$ANGBASE
 50
0.0
  9
$ANGDIR
 70
     0
  9
$PDMODE
 70
     0
  9
$PDSIZE
 40
-1.0
  9
$PLINEWID
 40
0.0
  9
$SPLFRAME
 70
     0
  9
$SPLINETYPE
 70
     6
  9
$SPLINESEGS
 70
     8
  9
$HANDSEED
  5
277
  9
$SURFTAB1
 70
     6
  9
$SURFTAB2
 70
     6
  9
$SURFTYPE
 70
     6
  9
$SURFU
 70
     6
  9
$SURFV
 70
     6
  9
$UCSBASE
  2

  9
$UCSNAME
  2

  9
$UCSORG
 10
0.0
 20
0.0
 30
0.0
  9
$UCSXDIR
 10
1.0
 20
0.0
 30
0.0
  9
$UCSYDIR
 10
0.0
 20
1.0
 30
0.0
  9
$UCSORTHOREF
  2

  9
$UCSORTHOVIEW
 70
     0
  9
$UCSORGTOP
 10
0.0
 20
0.0
 30
0.0
  9
$UCSORGBOTTOM
 10
0.0
 20
0.0
 30
0.0
  9
$UCSORGLEFT
 10
0.0
 20
0.0
 30
0.0
  9
$UCSORGRIGHT
 10
0.0
 20
0.0
 30
0.0
  9
$UCSORGFRONT
 10
0.0
 20
0.0
 30
0.0
  9
$UCSORGBACK
 10
0.0
 20
0.0
 30
0.0
  9
$PUCSBASE
  2

  9
$PUCSNAME
  2

  9
$PUCSORG
 10
0.0
 20
0.0
 30
0.0
  9
$PUCSXDIR
 10
1.0
 20
0.0
 30
0.0
  9
$PUCSYDIR
 10
0.0
 20
1.0
 30
0.0
  9
$PUCSORTHOREF
  2

  9
$PUCSORTHOVIEW
 70
     0
  9
$PUCSORGTOP
 10
0.0
 20
0.0
 30
0.0
  9
$PUCSORGBOTTOM
 10
0.0
 20
0.0
 30
0.0
  9
$PUCSORGLEFT
 10
0.0
 20
0.0
 30
0.0
  9
$PUCSORGRIGHT
 10
0.0
 20
0.0
 30
0.0
  9
$PUCSORGFRONT
 10
0.0
 20
0.0
 30
0.0
  9
$PUCSORGBACK
 10
0.0
 20
0.0
 30
0.0
  9
$USERI1
 70
     0
  9
$USERI2
 70
     0
  9
$USERI3
 70
     0
  9
$USERI4
 70
     0
  9
$USERI5
 70
     0
  9
$USERR1
 40
0.0
  9
$USERR2
 40
0.0
  9
$USERR3
 40
0.0
  9
$USERR4
 40
0.0
  9
$USERR5
 40
0.0
  9
$WORLDVIEW
 70
     1
  9
$SHADEDGE
 70
     3
  9
$SHADEDIF
 70
    70
  9
$TILEMODE
 70
     1
  9
$MAXACTVP
 70
    64
  9
$PINSBASE
 10
0.0
 20
0.0
 30
0.0
  9
$PLIMCHECK
 70
     0
  9
$PEXTMIN
 10
1.0000000000E+20
 20
1.0000000000E+20
 30
1.0000000000E+20
  9
$PEXTMAX
 10
-1.0000000000E+20
 20
-1.0000000000E+20
 30
-1.0000000000E+20
  9
$PLIMMIN
 10
0.0
 20
0.0
  9
$PLIMMAX
 10
12.0
 20
9.0
  9
$UNITMODE
 70
     0
  9
$VISRETAIN
 70
     1
  9
$PLINEGEN
 70
     0
  9
$PSLTSCALE
 70
     1
  9
$TREEDEPTH
 70
  3020
  9
$CMLSTYLE
  2
Standard
  9
$CMLJUST
 70
     0
  9
$CMLSCALE
 40
1.0
  9
$PROXYGRAPHICS
 70
     1
  9
$MEASUREMENT
 70
     0
  9
$CELWEIGHT
370
    -1
  9
$ENDCAPS
280
     0
  9
$JOINSTYLE
280
     0
  9
$LWDISPLAY
290
     1
  9
$INSUNITS
 70
     1
  9
$HYPERLINKBASE
  1

  9
$STYLESHEET
  1

  9
$XEDIT
290
     1
  9
$CEPSNTYPE
380
     0
  9
$PSTYLEMODE
290
     1
  9
$FINGERPRINTGUID
  2
{A67AD68C-E66C-49C2-93EC-5462D5B42EFE}
  9
$VERSIONGUID
  2
{FAEB1C32-E019-11D5-929B-00C0DF256EC4}
  9
$EXTNAMES
290
     1
  9
$PSVPSCALE
 40
0.0
  9
$OLESTARTUP
290
     0
  0
ENDSEC
  0
SECTION
  2
CLASSES
  0
CLASS
  1
ACDBDICTIONARYWDFLT
  2
AcDbDictionaryWithDefault
  3
ObjectDBX Classes
 90
        0
280
     0
281
     0
  0
CLASS
  1
VISUALSTYLE
  2
AcDbVisualStyle
  3
ObjectDBX Classes
 90
     4095
280
     0
281
     0
  0
CLASS
  1
MATERIAL
  2
AcDbMaterial
  3
ObjectDBX Classes
 90
     1153
280
     0
281
     0
  0
CLASS
  1
SCALE
  2
AcDbScale
  3
ObjectDBX Classes
 90
     1153
280
     0
281
     0
  0
CLASS
  1
TABLESTYLE
  2
AcDbTableStyle
  3
ObjectDBX Classes
 90
     4095
280
     0
281
     0
  0
CLASS
  1
MLEADERSTYLE
  2
AcDbMLeaderStyle
  3
ACDB_MLEADERSTYLE_CLASS
 90
     4095
280
     0
281
     0
  0
CLASS
  1
SUN
  2
AcDbSun
  3
SCENEOE
 90
     1153
280
     0
281
     0
  0
CLASS
  1
ACDBPLACEHOLDER
  2
AcDbPlaceHolder
  3
ObjectDBX Classes
 90
        0
280
     0
281
     0
  0
CLASS
  1
LAYOUT
  2
AcDbLayout
  3
ObjectDBX Classes
 90
        0
280
     0
281
     0
  0
ENDSEC
  0
SECTION
  2
TABLES
  0
TABLE
  2
VPORT
  5
8
330
0
100
AcDbSymbolTable
 70
     1
  0
VPORT
  5
29
330
8
100
AcDbSymbolTableRecord
100
AcDbViewportTableRecord
  2
*Active
 70
     0
 10
0.0
 20
0.0
 11
1.0
 21
1.0
 12
17.0
 22
11.0
 13
0.0
 23
0.0
 14
0.5
 24
0.5
 15
0.5
 25
0.5
 16
0.0
 26
0.0
 36
1.0
 17
0.0
 27
0.0
 37
0.0
 40
22.0
 41
1.5454545455
 42
50.0
 43
0.0
 44
0.0
 50
0.0
 51
0.0
 71
     0
 72
  2000
 73
     1
 74
     3
 75
     0
 76
     0
 77
     0
 78
     0
281
     0
 65
     1
110
0.0
120
0.0
130
0.0
111
1.0
121
0.0
131
0.0
112
0.0
122
1.0
132
0.0
 79
     0
146
0.0
  0
ENDTAB
  0
TABLE
  2
LTYPE
  5
5
330
0
100
AcDbSymbolTable
 70
     6
  0
LTYPE
  5
14
330
5
100
AcDbSymbolTableRecord
100
AcDbLinetypeTableRecord
  2
ByBlock
 70
     0
  3

 72
    65
 73
     0
 40
0.0
  0
LTYPE
  5
15
330
5
100
AcDbSymbolTableRecord
100
AcDbLinetypeTableRecord
  2
ByLayer
 70
     0
  3

 72
    65
 73
     0
 40
0.0
  0
LTYPE
  5
16
330
5
100
AcDbSymbolTableRecord
100
AcDbLinetypeTableRecord
  2
Continuous
 70
     0
  3
Solid line
 72
    65
 73
     0
 40
0.0
  0
LTYPE
  5
6E
330
5
100
AcDbSymbolTableRecord
100
AcDbLinetypeTableRecord
  2
HIDDEN
 70
     0
  3
Hidden __ __ __ __ __ __ __ __ __ __ __ __ __ __
 72
    65
 73
     2
 40
0.075
 49
0.05
 74
     0
 49
-0.025
 74
     0
  0
LTYPE
  5
6F
330
5
100
AcDbSymbolTableRecord
100
AcDbLinetypeTableRecord
  2
PHANTOM
 70
     0
  3
Phantom ______  __  __  ______  __  __  ______
 72
    65
 73
     6
 40
0.5
 49
0.25
 74
     0
 49
-0.05
 74
     0
 49
0.05
 74
     0
 49
-0.05
 74
     0
 49
0.05
 74
     0
 49
-0.05
 74
     0
  0
LTYPE
  5
70
330
5
100
AcDbSymbolTableRecord
100
AcDbLinetypeTableRecord
  2
CENTER
 70
     0
  3
Center ____ _ ____ _ ____ _ ____ _ ____ _ ____
 72
    65
 73
     4
 40
0.4
 49
0.25
 74
     0
 49
-0.05
 74
     0
 49
0.05
 74
     0
 49
-0.05
 74
     0
  0
LTYPE
  5
71
330
5
100
AcDbSymbolTableRecord
100
AcDbLinetypeTableRecord
  2
CENTERX2
 70
     0
  3
Center (2x) ________  __  ________  __  _____
 72
    65
 73
     4
 40
0.8
 49
0.5
 74
     0
 49
-0.1
 74
     0
 49
0.1
 74
     0
 49
-0.1
 74
     0
  0
LTYPE
  5
72
330
5
100
AcDbSymbolTableRecord
100
AcDbLinetypeTableRecord
  2
DOT2
 70
     0
  3
Dot (.5x) ........................................
 72
    65
 73
     2
 40
0.025
 49
0.0
 74
     0
 49
-0.025
 74
     0
  0
ENDTAB
  0
TABLE
  2
LAYER
  5
2
330
0
100
AcDbSymbolTable
 70
     6
  0
LAYER
  5
10
330
2
100
AcDbSymbolTableRecord
100
AcDbLayerTableRecord
  2
0
 70
     0
 62
     7
  6
Continuous
370
    -3
390
F
  0
LAYER
  5
73
330
2
100
AcDbSymbolTableRecord
100
AcDbLayerTableRecord
  2
DIM
 70
     0
 62
     1
  6
Continuous
370
    -3
390
F
  0
LAYER
  5
74
330
2
100
AcDbSymbolTableRecord
100
AcDbLayerTableRecord
  2
NOTES
 70
     0
 62
     7
  6
Continuous
370
    -3
390
F
  0
LAYER
  5
75
330
2
100
AcDbSymbolTableRecord
100
AcDbLayerTableRecord
  2
SLD-0
 70
     0
 62
     7
  6
Continuous
370
    -3
390
F
  0
LAYER
  5
76
330
2
100
AcDbSymbolTableRecord
100
AcDbLayerTableRecord
  2
BLOCKS
 70
     0
 62
    16
  6
Continuous
370
    -3
390
F
  0
LAYER
  5
77
330
2
100
AcDbSymbolTableRecord
100
AcDbLayerTableRecord
  2
OBJECTS
 70
     0
 62
    56
  6
CENTERX2
370
    -3
390
F
  0
ENDTAB
  0
TABLE
  2
STYLE
  5
3
330
0
100
AcDbSymbolTable
 70
     3
  0
STYLE
  5
11
330
3
100
AcDbSymbolTableRecord
100
AcDbTextStyleTableRecord
  2
STANDARD
 70
     0
 40
0.0
 41
1.0
 50
0.0
 71
     0
 42
0.1666666667
  3
ARIAL.TTF
  4

1001
ACAD
1000
ARIAL
1071
       34
  0
STYLE
  5
BA
330
3
100
AcDbSymbolTableRecord
100
AcDbTextStyleTableRecord
  2
SLDTEXTSTYLE0
 70
     0
 40
0.0
 41
0.948
 50
0.0
 71
     0
 42
0.1666666667
  3
ARIAL.TTF
  4

1001
ACAD
1000
Arial
1071
      290
  0
STYLE
  5
253
330
3
100
AcDbSymbolTableRecord
100
AcDbTextStyleTableRecord
  2
SLDTEXTSTYLE1
 70
     0
 40
0.0
 41
0.948
 50
0.0
 71
     0
 42
0.1666666667
  3
ARIALBD.TTF
  4

1001
ACAD
1000
Arial
1071
 33554722
  0
ENDTAB
  0
TABLE
  2
VIEW
  5
6
330
0
100
AcDbSymbolTable
 70
     0
  0
ENDTAB
  0
TABLE
  2
UCS
  5
7
330
0
100
AcDbSymbolTable
 70
     0
  0
ENDTAB
  0
TABLE
  2
APPID
  5
9
330
0
100
AcDbSymbolTable
 70
     1
  0
APPID
  5
12
330
9
100
AcDbSymbolTableRecord
100
AcDbRegAppTableRecord
  2
ACAD
 70
     0
  0
ENDTAB
  0
TABLE
  2
DIMSTYLE
  5
A
330
0
100
AcDbSymbolTable
 70
     7
100
AcDbDimStyleTable
  0
DIMSTYLE
105
27
330
A
100
AcDbSymbolTableRecord
100
AcDbDimStyleTableRecord
  2
Standard
 70
     0
178
     0
340
11
  0
DIMSTYLE
105
15F
102
{ACAD_REACTORS
330
15E
330
1FD
102
}
330
A
100
AcDbSymbolTableRecord
100
AcDbDimStyleTableRecord
  2
SLDDIMSTYLE0
 70
     0
 41
0.2022298177
 44
0.0
 45
0.000000001
 78
    12
 79
     3
140
0.1415608724
141
0.0
147
0.0353902181
148
0.000000001
170
     1
171
     1
173
     1
178
     0
271
     2
272
     2
274
     1
276
     2
277
     5
279
     1
284
    12
340
BA
  0
DIMSTYLE
105
174
102
{ACAD_REACTORS
330
173
330
186
330
1D9
330
1EB
102
}
330
A
100
AcDbSymbolTableRecord
100
AcDbDimStyleTableRecord
  2
SLDDIMSTYLE1
 70
     0
 41
0.2022298177
 44
0.0
 45
0.000000001
 78
    12
 79
     3
140
0.1415608724
147
0.0353902181
148
0.000000001
170
     1
171
     1
173
     1
178
     0
271
     2
272
     2
274
     1
276
     2
277
     5
284
    12
340
BA
  0
DIMSTYLE
105
199
102
{ACAD_REACTORS
330
198
330
1AF
330
210
102
}
330
A
100
AcDbSymbolTableRecord
100
AcDbDimStyleTableRecord
  2
SLDDIMSTYLE2
 70
     0
 41
0.2022298177
 44
0.0
 45
0.000000001
 78
    12
 79
     3
140
0.1415608724
147
0.0353902181
148
0.000000001
170
     1
171
     1
173
     1
178
     0
271
     6
272
     2
274
     1
276
     2
277
     5
284
    12
340
BA
  0
DIMSTYLE
105
1C6
102
{ACAD_REACTORS
330
1C5
102
}
330
A
100
AcDbSymbolTableRecord
100
AcDbDimStyleTableRecord
  2
SLDDIMSTYLE3
 70
     0
 41
0.2022298177
 44
0.0
 45
0.000000001
 78
    12
 79
     3
140
0.1415608724
141
0.0
147
0.0353902181
148
0.000000001
170
     1
171
     1
173
     1
178
     0
271
     2
272
     2
274
     1
276
     2
277
     5
279
     1
284
    12
340
BA
  0
DIMSTYLE
105
227
102
{ACAD_REACTORS
330
226
102
}
330
A
100
AcDbSymbolTableRecord
100
AcDbDimStyleTableRecord
  2
SLDDIMSTYLE4
 70
     0
 41
0.2022298177
 44
0.0
 45
0.000000001
 78
    12
 79
     3
140
0.1415608724
147
0.0353902181
148
0.000000001
170
     1
171
     1
172
     1
173
     1
178
     0
271
     6
272
     2
274
     1
276
     2
277
     5
284
    12
289
     0
340
BA
  0
DIMSTYLE
105
242
330
A
100
AcDbSymbolTableRecord
100
AcDbDimStyleTableRecord
  2
SLDDIMSTYLE5
 70
     0
 41
0.2022298177
 44
0.0
 45
0.000000001
146
0.2022298177
147
0.0
173
     1
178
     0
271
     0
272
     0
276
     2
277
     5
340
11
  0
ENDTAB
  0
TABLE
  2
BLOCK_RECORD
  5
1
330
0
100
AcDbSymbolTable
 70
    23
  0
BLOCK_RECORD
  5
1F
330
1
100
AcDbSymbolTableRecord
100
AcDbBlockTableRecord
  2
*Model_Space
340
22
  0
BLOCK_RECORD
  5
1B
330
1
100
AcDbSymbolTableRecord
100
AcDbBlockTableRecord
  2
*Paper_Space
340
1E
  0
BLOCK_RECORD
  5
23
330
1
100
AcDbSymbolTableRecord
100
AcDbBlockTableRecord
  2
*Paper_Space0
340
26
  0
BLOCK_RECORD
  5
78
330
1
100
AcDbSymbolTableRecord
100
AcDbBlockTableRecord
  2
REVEAL- .500
340
0
102
{BLKREFS
331
15B
102
}
  0
BLOCK_RECORD
  5
AA
330
1
100
AcDbSymbolTableRecord
100
AcDbBlockTableRecord
  2
SW_BLOCK_DIMENSION_0
340
0
102
{BLKREFS
331
C1
102
}
  0
BLOCK_RECORD
  5
C2
330
1
100
AcDbSymbolTableRecord
100
AcDbBlockTableRecord
  2
OVERHANG - .125
340
0
102
{BLKREFS
331
15C
102
}
  0
BLOCK_RECORD
  5
F4
330
1
100
AcDbSymbolTableRecord
100
AcDbBlockTableRecord
  2
SW_BLOCK_DIMENSION_1
340
0
102
{BLKREFS
331
10A
102
}
  0
BLOCK_RECORD
  5
10B
330
1
100
AcDbSymbolTableRecord
100
AcDbBlockTableRecord
  2
REVEAL - 0 (FLUSH)
340
0
102
{BLKREFS
331
15D
102
}
  0
BLOCK_RECORD
  5
160
330
1
100
AcDbSymbolTableRecord
100
AcDbBlockTableRecord
  2
_D
340
0
  0
BLOCK_RECORD
  5
175
330
1
100
AcDbSymbolTableRecord
100
AcDbBlockTableRecord
  2
_D_1
340
0
  0
BLOCK_RECORD
  5
187
330
1
100
AcDbSymbolTableRecord
100
AcDbBlockTableRecord
  2
_D_2
340
0
  0
BLOCK_RECORD
  5
19A
330
1
100
AcDbSymbolTableRecord
100
AcDbBlockTableRecord
  2
_D_3
340
0
  0
BLOCK_RECORD
  5
1B0
330
1
100
AcDbSymbolTableRecord
100
AcDbBlockTableRecord
  2
_D_4
340
0
  0
BLOCK_RECORD
  5
1C7
330
1
100
AcDbSymbolTableRecord
100
AcDbBlockTableRecord
  2
_D_5
340
0
  0
BLOCK_RECORD
  5
1DA
330
1
100
AcDbSymbolTableRecord
100
AcDbBlockTableRecord
  2
_D_6
340
0
  0
BLOCK_RECORD
  5
1EC
330
1
100
AcDbSymbolTableRecord
100
AcDbBlockTableRecord
  2
_D_7
340
0
  0
BLOCK_RECORD
  5
1FE
330
1
100
AcDbSymbolTableRecord
100
AcDbBlockTableRecord
  2
_D_8
340
0
  0
BLOCK_RECORD
  5
211
330
1
100
AcDbSymbolTableRecord
100
AcDbBlockTableRecord
  2
_D_9
340
0
  0
BLOCK_RECORD
  5
228
330
1
100
AcDbSymbolTableRecord
100
AcDbBlockTableRecord
  2
_D_10
340
0
  0
BLOCK_RECORD
  5
23C
330
1
100
AcDbSymbolTableRecord
100
AcDbBlockTableRecord
  2
SW_NOTE_0
340
0
102
{BLKREFS
331
241
102
}
  0
BLOCK_RECORD
  5
244
330
1
100
AcDbSymbolTableRecord
100
AcDbBlockTableRecord
  2
SW_NOTE_1
340
0
102
{BLKREFS
331
249
102
}
  0
BLOCK_RECORD
  5
24B
330
1
100
AcDbSymbolTableRecord
100
AcDbBlockTableRecord
  2
SW_NOTE_2
340
0
102
{BLKREFS
331
250
102
}
  0
BLOCK_RECORD
  5
255
330
1
100
AcDbSymbolTableRecord
100
AcDbBlockTableRecord
  2
SW_NOTE_3
340
0
102
{BLKREFS
331
25C
102
}
  0
BLOCK_RECORD
  5
25F
330
1
100
AcDbSymbolTableRecord
100
AcDbBlockTableRecord
  2
SW_NOTE_4
340
0
102
{BLKREFS
331
270
102
}
  0
BLOCK_RECORD
  5
271
330
1
100
AcDbSymbolTableRecord
100
AcDbBlockTableRecord
  2
SW_NOTE_5
340
0
102
{BLKREFS
331
276
102
}
  0
ENDTAB
  0
ENDSEC
  0
SECTION
  2
BLOCKS
  0
BLOCK
  5
20
330
1F
100
AcDbEntity
  8
0
100
AcDbBlockBegin
  2
*Model_Space
 70
     0
 10
0.0
 20
0.0
 30
0.0
  3
*Model_Space
  1

  0
ENDBLK
  5
21
330
1F
100
AcDbEntity
  8
0
100
AcDbBlockEnd
  0
BLOCK
  5
1C
330
1B
100
AcDbEntity
 67
     1
  8
0
100
AcDbBlockBegin
  2
*Paper_Space
 70
     0
 10
0.0
 20
0.0
 30
0.0
  3
*Paper_Space
  1

  0
ENDBLK
  5
1D
330
1B
100
AcDbEntity
 67
     1
  8
0
100
AcDbBlockEnd
  0
BLOCK
  5
24
330
23
100
AcDbEntity
  8
0
100
AcDbBlockBegin
  2
*Paper_Space0
 70
     0
 10
0.0
 20
0.0
 30
0.0
  3
*Paper_Space0
  1

  0
ENDBLK
  5
25
330
23
100
AcDbEntity
  8
0
100
AcDbBlockEnd
  0
BLOCK
  5
79
330
78
100
AcDbEntity
  8
0
100
AcDbBlockBegin
  2
REVEAL- .500
 70
     0
 10
0.0
 20
0.0
 30
0.0
  3
REVEAL- .500
  1

  0
ARC
  5
7B
330
78
100
AcDbEntity
  8
BLOCKS
100
AcDbCircle
 10
20.1601934329
 20
28.8878838846
 30
0.0
 40
0.2338576391325233
100
AcDbArc
 50
0.0
 51
90.0
  0
ARC
  5
7C
330
78
100
AcDbEntity
  8
BLOCKS
100
AcDbCircle
 10
19.8280715192
 20
29.4726468145
 30
0.0
 40
0.0659795528056719
100
AcDbArc
 50
0.0
 51
90.0
  0
ARC
  5
7D
330
78
100
AcDbEntity
  8
BLOCKS
100
AcDbCircle
 10
19.0470381676
 20
28.990848696
 30
0.0
 40
0.0881257319589152
100
AcDbArc
 50
200.9822712638
 51
339.0177287362
  0
ARC
  5
7E
330
78
100
AcDbEntity
  8
BLOCKS
100
AcDbCircle
 10
20.1601934329
 20
28.8878838846
 30
0.0
 40
0.1878262552218324
100
AcDbArc
 50
0.0
 51
90.0
  0
LINE
  5
7F
330
78
100
AcDbEntity
  8
BLOCKS
100
AcDbLine
 10
19.8280715192
 20
29.5386263673
 30
0.0
 11
18.2509355515
 21
29.5386263673
 31
0.0
  0
LINE
  5
80
330
78
100
AcDbEntity
  8
BLOCKS
100
AcDbLine
 10
18.2806192052
 20
29.1434426864
 30
0.0
 11
19.894051072
 21
29.1434426864
 31
0.0
  0
LINE
  5
81
330
78
100
AcDbEntity
  8
BLOCKS
100
AcDbLine
 10
19.3470309437
 20
29.1217415238
 30
0.0
 11
20.1601934329
 21
29.1217415238
 31
0.0
  0
LINE
  5
82
330
78
100
AcDbEntity
  8
BLOCKS
100
AcDbLine
 10
20.394051072
 20
28.8878838846
 30
0.0
 11
20.394051072
 21
28.4971795949
 31
0.0
  0
LINE
  5
83
330
78
100
AcDbEntity
  8
BLOCKS
100
AcDbLine
 10
20.394051072
 20
28.4971795949
 30
0.0
 11
20.3480196881
 21
28.4971795949
 31
0.0
  0
LINE
  5
84
330
78
100
AcDbEntity
  8
BLOCKS
100
AcDbLine
 10
20.3480196881
 20
28.4971795949
 30
0.0
 11
20.3480196881
 21
28.8878838846
 31
0.0
  0
LINE
  5
85
330
78
100
AcDbEntity
  8
BLOCKS
100
AcDbLine
 10
20.1601934329
 20
29.0757101398
 30
0.0
 11
19.3470309437
 21
29.0757101398
 31
0.0
  0
LINE
  5
86
330
78
100
AcDbEntity
  8
BLOCKS
100
AcDbLine
 10
19.3470309437
 20
29.0757101398
 30
0.0
 11
19.3470309437
 21
29.1217415238
 31
0.0
  0
LINE
  5
87
330
78
100
AcDbEntity
  8
BLOCKS
100
AcDbLine
 10
19.679261078
 20
29.0223488565
 30
0.0
 11
19.7319208682
 21
29.073015856
 31
0.0
  0
LINE
  5
88
330
78
100
AcDbEntity
  8
BLOCKS
100
AcDbLine
 10
19.7319208682
 20
29.073015856
 30
0.0
 11
19.7745573648
 21
29.0287024176
 31
0.0
  0
LINE
  5
89
330
78
100
AcDbEntity
  8
BLOCKS
100
AcDbLine
 10
19.7745573648
 20
29.0287024176
 30
0.0
 11
19.705650009
 21
28.9624027047
 31
0.0
  0
LINE
  5
8A
330
78
100
AcDbEntity
  8
BLOCKS
100
AcDbLine
 10
18.4381035755
 20
29.0888229672
 30
0.0
 11
18.385550816
 21
29.1434426864
 31
0.0
  0
LINE
  5
8B
330
78
100
AcDbEntity
  8
BLOCKS
100
AcDbLine
 10
18.385550816
 20
29.1434426864
 30
0.0
 11
18.3431444562
 21
29.1026410993
 31
0.0
  0
LINE
  5
8C
330
78
100
AcDbEntity
  8
BLOCKS
100
AcDbLine
 10
18.3431444562
 20
29.1026410993
 30
0.0
 11
18.4052557657
 21
29.0380868815
 31
0.0
  0
LINE
  5
8D
330
78
100
AcDbEntity
  8
BLOCKS
100
AcDbLine
 10
18.4381035755
 20
29.0888229672
 30
0.0
 11
19.679261078
 21
29.0223488565
 31
0.0
  0
LINE
  5
8E
330
78
100
AcDbEntity
  8
BLOCKS
100
AcDbLine
 10
19.705650009
 20
28.9624027047
 30
0.0
 11
18.4052557657
 21
29.0380868815
 31
0.0
  0
LINE
  5
8F
330
78
100
AcDbEntity
  8
BLOCKS
100
AcDbLine
 10
19.1283677378
 20
29.0518536895
 30
0.0
 11
19.1283677378
 21
28.9960010797
 31
0.0
  0
LINE
  5
90
330
78
100
AcDbEntity
  8
BLOCKS
100
AcDbLine
 10
18.9737480593
 20
29.0601348348
 30
0.0
 11
18.9737480593
 21
29.0050000915
 31
0.0
  0
LINE
  5
91
330
78
100
AcDbEntity
  8
BLOCKS
100
AcDbLine
 10
18.964755941
 20
28.9592927168
 30
0.0
 11
19.1293203942
 21
28.9592927168
 31
0.0
  0
LINE
  5
92
330
78
100
AcDbEntity
  8
BLOCKS
100
AcDbLine
 10
19.0095275609
 20
29.3495924534
 30
0.0
 11
19.0095275609
 21
28.9592927168
 31
0.0
  0
LINE
  5
93
330
78
100
AcDbEntity
  8
BLOCKS
100
AcDbLine
 10
19.0864194327
 20
29.3495924534
 30
0.0
 11
19.0864194327
 21
28.9592927168
 31
0.0
  0
LINE
  5
94
330
78
100
AcDbEntity
  8
BLOCKS
100
AcDbLine
 10
18.9467524826
 20
29.0033177842
 30
0.0
 11
19.1591684741
 21
28.9909549723
 31
0.0
  0
LINE
  5
95
330
78
100
AcDbEntity
  8
BLOCKS
100
AcDbLine
 10
19.0095275609
 20
29.3495924534
 30
0.0
 11
19.0474925407
 21
29.4047818344
 31
0.0
  0
LINE
  5
96
330
78
100
AcDbEntity
  8
BLOCKS
100
AcDbLine
 10
19.0474925407
 20
29.4047818344
 30
0.0
 11
19.0864194327
 21
29.3495924534
 31
0.0
  0
LINE
  5
97
330
78
100
AcDbEntity
  8
BLOCKS
100
AcDbLine
 10
19.1572986604
 20
28.9588281114
 30
0.0
 11
18.9448826689
 21
28.9711909233
 31
0.0
  0
LINE
  5
98
330
78
100
AcDbEntity
  8
BLOCKS
100
AcDbLine
 10
19.1591684741
 20
28.9909549723
 30
0.0
 11
19.1572986604
 21
28.9588281114
 31
0.0
  0
LINE
  5
99
330
78
100
AcDbEntity
  8
BLOCKS
100
AcDbLine
 10
18.9467524826
 20
29.0033177842
 30
0.0
 11
18.9448826689
 21
28.9711909233
 31
0.0
  0
LINE
  5
9A
330
78
100
AcDbEntity
  8
BLOCKS
100
AcDbLine
 10
19.1142839592
 20
29.1434426864
 30
0.0
 11
19.1142839592
 21
29.4238049236
 31
0.0
  0
LINE
  5
9B
330
78
100
AcDbEntity
  8
BLOCKS
100
AcDbLine
 10
19.1142839592
 20
29.4238049236
 30
0.0
 11
18.9877469673
 21
29.4238049236
 31
0.0
  0
LINE
  5
9C
330
78
100
AcDbEntity
  8
BLOCKS
100
AcDbLine
 10
18.9877469673
 20
29.4238049236
 30
0.0
 11
18.9877469673
 21
29.1434426864
 31
0.0
  0
LINE
  5
9D
330
78
100
AcDbEntity
  8
BLOCKS
  6
Continuous
100
AcDbLine
 10
19.894051072
 20
29.1434426864
 30
0.0
 11
19.894051072
 21
29.4726468145
 31
0.0
  0
LINE
  5
9E
330
78
100
AcDbEntity
  8
BLOCKS
100
AcDbLine
 10
19.3020232313
 20
29.1434426864
 30
0.0
 11
19.3470309437
 21
29.0987258318
 31
0.0
  0
LINE
  5
9F
330
78
100
AcDbEntity
  8
BLOCKS
100
AcDbLine
 10
19.894051072
 20
29.1434426864
 30
0.0
 11
19.9068063572
 21
29.1217415238
 31
0.0
  0
SPLINE
  5
A0
330
78
100
AcDbEntity
  8
BLOCKS
100
AcDbSpline
210
0.0
220
0.0
230
1.0
 70
     8
 71
     3
 72
     9
 73
     5
 74
     0
 42
0.000000001
 43
0.00000001
 40
0.0
 40
0.0
 40
0.0
 40
0.0
 40
0.5928291688347104
 40
1.0
 40
1.0
 40
1.0
 40
1.0
 10
18.28061920517429
 20
29.14344268635683
 30
0.0
 10
18.23604355296101
 20
29.22927712752978
 30
0.0
 10
18.31552651528452
 20
29.34850064146643
 30
0.0
 10
18.29741369383499
 20
29.50274888669875
 30
0.0
 10
18.25093555152442
 20
29.53862636728042
 30
0.0
  0
HATCH
  5
A1
330
78
100
AcDbEntity
  8
BLOCKS
 62
    16
100
AcDbHatch
 10
0.0
 20
0.0
 30
0.0
210
0.0
220
0.0
230
1.0
  2
ANSI36
 70
     0
 71
     0
 91
        1
 92
        0
 93
       10
 72
     4
 94
        3
 73
     1
 74
     0
 95
        9
 96
        5
 40
0.0
 40
0.0
 40
0.0
 40
0.0
 40
0.4071708311652896
 40
1.0
 40
1.0
 40
1.0
 40
1.0
 10
18.25093555152442
 20
29.53862636728042
 42
1.0
 10
18.29741369383499
 20
29.50274888669875
 42
1.0
 10
18.31552651528452
 20
29.34850064146643
 42
1.0
 10
18.23604355296101
 20
29.22927712752978
 42
1.0
 10
18.28061920517429
 20
29.14344268635683
 42
1.0
 72
     1
 10
18.28061920517429
 20
29.14344268635683
 11
18.98774696730679
 21
29.14344268635683
 72
     1
 10
18.98774696730679
 20
29.14344268635683
 11
18.98774696730679
 21
29.42380492355081
 72
     1
 10
18.98774696730679
 20
29.42380492355081
 11
19.11428395924128
 21
29.42380492355081
 72
     1
 10
19.11428395924128
 20
29.42380492355081
 11
19.11428395924128
 21
29.14344268635683
 72
     1
 10
19.11428395924128
 20
29.14344268635683
 11
19.30202323130653
 21
29.14344268635683
 72
     1
 10
19.30202323130653
 20
29.14344268635683
 11
19.89405107202551
 21
29.14344268635683
 72
     1
 10
19.89405107202551
 20
29.14344268635683
 11
19.89405107202551
 21
29.47264681447475
 72
     2
 10
19.82807151921984
 20
29.47264681447475
 40
0.0659795528056717
 50
0.0
 51
90.0
 73
     1
 72
     1
 10
19.82807151921984
 20
29.53862636728042
 11
18.25093555152442
 21
29.53862636728042
 97
        0
 75
     0
 76
     1
 52
0.0
 41
0.5
 77
     0
 78
     1
 53
45.0
 43
0.0
 44
0.0
 45
0.0331456303681194
 46
0.1215339780164378
 79
     4
 49
0.15625
 49
-0.03125
 49
0.0
 49
-0.03125
 98
        1
 10
0.0
 20
0.0
  0
HATCH
  5
A2
330
78
100
AcDbEntity
  8
BLOCKS
 62
    16
100
AcDbHatch
 10
0.0
 20
0.0
 30
0.0
210
0.0
220
0.0
230
1.0
  2
ANSI32
 70
     0
 71
     0
 91
        1
 92
        0
 93
        5
 72
     1
 10
19.08641943273533
 20
29.34959245337754
 11
19.04749254074577
 21
29.40478183438993
 72
     1
 10
19.04749254074577
 20
29.40478183438993
 11
19.00952756093279
 21
29.34959245337754
 72
     1
 10
19.00952756093279
 20
29.34959245337754
 11
19.00952756093279
 21
29.14344268635683
 72
     1
 10
19.00952756093279
 20
29.14344268635683
 11
19.08641943273533
 21
29.14344268635683
 72
     1
 10
19.08641943273533
 20
29.14344268635683
 11
19.08641943273533
 21
29.34959245337754
 97
        0
 75
     0
 76
     1
 52
0.0
 41
0.1666666667
 77
     0
 78
     2
 53
45.0
 43
0.0
 44
0.0
 45
-0.0441941738241592
 46
0.0441941738241592
 79
     0
 53
45.0
 43
0.0294627825
 44
0.0
 45
-0.0441941738241592
 46
0.0441941738241592
 79
     0
 98
        1
 10
0.0
 20
0.0
  0
HATCH
  5
A3
330
78
100
AcDbEntity
  8
BLOCKS
 62
    16
100
AcDbHatch
 10
0.0
 20
0.0
 30
0.0
210
0.0
220
0.0
230
1.0
  2
ANSI32
 70
     0
 71
     0
 91
        1
 92
        0
 93
        4
 72
     1
 10
19.08641943273533
 20
29.05410036351303
 11
19.08641943273533
 21
29.14344268635683
 72
     1
 10
19.08641943273533
 20
29.14344268635683
 11
19.00952756093279
 21
29.14344268635683
 72
     1
 10
19.00952756093279
 20
29.14344268635683
 11
19.00952756093279
 21
29.05821855059726
 72
     1
 10
19.00952756093279
 20
29.05821855059726
 11
19.08641943273533
 21
29.05410036351303
 97
        0
 75
     0
 76
     1
 52
0.0
 41
0.1666666667
 77
     0
 78
     2
 53
45.0
 43
0.0
 44
0.0
 45
-0.0441941738241592
 46
0.0441941738241592
 79
     0
 53
45.0
 43
0.0294627825
 44
0.0
 45
-0.0441941738241592
 46
0.0441941738241592
 79
     0
 98
        1
 10
0.0
 20
0.0
  0
HATCH
  5
A4
330
78
100
AcDbEntity
  8
BLOCKS
 62
    16
100
AcDbHatch
 10
0.0
 20
0.0
 30
0.0
210
0.0
220
0.0
230
1.0
  2
ANSI32
 70
     0
 71
     0
 91
        1
 92
        0
 93
        4
 72
     1
 10
19.08641943273533
 20
28.99844251081363
 11
19.08641943273533
 21
29.05410036351303
 72
     1
 10
19.08641943273533
 20
29.05410036351303
 11
19.00952756093279
 21
29.05821855059726
 72
     1
 10
19.00952756093279
 20
29.05821855059726
 11
19.00952756093279
 21
29.00291769059305
 72
     1
 10
19.00952756093279
 20
29.00291769059305
 11
19.08641943273533
 21
28.99844251081363
 97
        0
 75
     0
 76
     1
 52
0.0
 41
0.1666666667
 77
     0
 78
     2
 53
45.0
 43
0.0
 44
0.0
 45
-0.0441941738241592
 46
0.0441941738241592
 79
     0
 53
45.0
 43
0.0294627825
 44
0.0
 45
-0.0441941738241592
 46
0.0441941738241592
 79
     0
 98
        1
 10
0.0
 20
0.0
  0
HATCH
  5
A5
330
78
100
AcDbEntity
  8
BLOCKS
 62
    16
100
AcDbHatch
 10
0.0
 20
0.0
 30
0.0
210
0.0
220
0.0
230
1.0
  2
ANSI32
 70
     0
 71
     0
 91
        1
 92
        0
 93
        4
 72
     1
 10
19.00952756093279
 20
28.96742852935006
 11
19.08641943273534
 21
28.96295334957064
 72
     1
 10
19.08641943273534
 20
28.96295334957064
 11
19.08641943273534
 21
28.99518903540131
 72
     1
 10
19.08641943273534
 20
28.99518903540131
 11
19.0095275609328
 21
28.99966421518074
 72
     1
 10
19.0095275609328
 20
28.99966421518074
 11
19.00952756093279
 21
28.96742852935006
 97
        0
 75
     0
 76
     1
 52
0.0
 41
0.1666666667
 77
     0
 78
     2
 53
45.0
 43
0.0
 44
0.0
 45
-0.0441941738241592
 46
0.0441941738241592
 79
     0
 53
45.0
 43
0.0294627825
 44
0.0
 45
-0.0441941738241592
 46
0.0441941738241592
 79
     0
 98
        1
 10
0.0
 20
0.0
  0
HATCH
  5
A6
330
78
100
AcDbEntity
  8
BLOCKS
 62
    16
100
AcDbHatch
 10
0.0
 20
0.0
 30
0.0
210
0.0
220
0.0
230
1.0
  2
ANSI32
 70
     0
 71
     0
 91
        1
 92
        0
 93
        4
 72
     1
 10
19.0095275609328
 20
28.99966421518074
 11
18.94675248259694
 21
29.00331778420741
 72
     1
 10
18.94675248259694
 20
29.00331778420741
 11
18.94488266885844
 21
28.97119092330762
 72
     1
 10
18.94488266885844
 20
28.97119092330762
 11
19.00952756093279
 21
28.96742852935006
 72
     1
 10
19.00952756093279
 20
28.96742852935006
 11
19.0095275609328
 21
28.99966421518074
 97
        0
 75
     0
 76
     1
 52
0.0
 41
0.1666666667
 77
     0
 78
     2
 53
45.0
 43
0.0
 44
0.0
 45
-0.0441941738241592
 46
0.0441941738241592
 79
     0
 53
45.0
 43
0.0294627825
 44
0.0
 45
-0.0441941738241592
 46
0.0441941738241592
 79
     0
 98
        1
 10
0.0
 20
0.0
  0
HATCH
  5
A7
330
78
100
AcDbEntity
  8
BLOCKS
 62
    16
100
AcDbHatch
 10
0.0
 20
0.0
 30
0.0
210
0.0
220
0.0
230
1.0
  2
ANSI32
 70
     0
 71
     0
 91
        1
 92
        0
 93
        4
 72
     1
 10
19.15729866039344
 20
28.95882811137627
 11
19.15916847413194
 21
28.99095497227606
 72
     1
 10
19.15916847413194
 20
28.99095497227606
 11
19.08641943273534
 21
28.99518903540131
 72
     1
 10
19.08641943273534
 20
28.99518903540131
 11
19.08641943273534
 21
28.96295334957064
 72
     1
 10
19.08641943273534
 20
28.96295334957064
 11
19.15729866039344
 21
28.95882811137627
 97
        0
 75
     0
 76
     1
 52
0.0
 41
0.1666666667
 77
     0
 78
     2
 53
45.0
 43
0.0
 44
0.0
 45
-0.0441941738241592
 46
0.0441941738241592
 79
     0
 53
45.0
 43
0.0294627825
 44
0.0
 45
-0.0441941738241592
 46
0.0441941738241592
 79
     0
 98
        1
 10
0.0
 20
0.0
  0
HATCH
  5
A8
330
78
100
AcDbEntity
  8
BLOCKS
 62
    16
100
AcDbHatch
 10
0.0
 20
0.0
 30
0.0
210
0.0
220
0.0
230
1.0
  2
ANSI32
 70
     0
 71
     0
 91
        1
 92
        0
 93
        4
 72
     1
 10
19.00952756093279
 20
28.95929271682988
 11
18.96475594104669
 21
28.95929271682988
 72
     2
 10
19.04703816761627
 20
28.99084869604216
 40
0.0881257319589163
 50
200.9822712637957
 51
339.0177287362059
 73
     1
 72
     1
 10
19.12932039418586
 20
28.95929271682988
 11
19.08641943273533
 21
28.95929271682988
 72
     1
 10
19.08641943273533
 20
28.95929271682988
 11
19.00952756093279
 21
28.95929271682988
 97
        0
 75
     0
 76
     1
 52
0.0
 41
0.1666666667
 77
     0
 78
     2
 53
45.0
 43
0.0
 44
0.0
 45
-0.0441941738241592
 46
0.0441941738241592
 79
     0
 53
45.0
 43
0.0294627825
 44
0.0
 45
-0.0441941738241592
 46
0.0441941738241592
 79
     0
 98
        1
 10
0.0
 20
0.0
  0
HATCH
  5
A9
330
78
100
AcDbEntity
  8
BLOCKS
 62
    16
100
AcDbHatch
 10
0.0
 20
0.0
 30
0.0
210
0.0
220
0.0
230
1.0
  2
SOLID
 70
     1
 71
     0
 91
        1
 92
        0
 93
        5
 72
     1
 10
19.90680635715495
 20
29.12174152375217
 11
19.89405107202551
 21
29.14344268635683
 72
     1
 10
19.89405107202551
 20
29.14344268635683
 11
19.30202323130653
 21
29.14344268635683
 72
     1
 10
19.30202323130653
 20
29.14344268635683
 11
19.34703094371573
 21
29.09872583179682
 72
     1
 10
19.34703094371573
 20
29.09872583179682
 11
19.34703094371572
 21
29.12174152375217
 72
     1
 10
19.34703094371572
 20
29.12174152375217
 11
19.90680635715495
 21
29.12174152375217
 97
        0
 75
     0
 76
     1
 98
        1
 10
0.0
 20
0.0
  0
INSERT
  5
C1
330
78
100
AcDbEntity
  8
BLOCKS
100
AcDbBlockReference
  2
SW_BLOCK_DIMENSION_0
 10
19.1480011144
 20
30.1557381121
 30
0.0
  0
ENDBLK
  5
7A
330
78
100
AcDbEntity
  8
0
100
AcDbBlockEnd
  0
BLOCK
  5
AB
330
AA
100
AcDbEntity
  8
0
100
AcDbBlockBegin
  2
SW_BLOCK_DIMENSION_0
 70
     0
 10
0.0
 20
0.0
 30
0.0
  3
SW_BLOCK_DIMENSION_0
  1

  0
SOLID
  5
AD
330
AA
100
AcDbEntity
  8
BLOCKS
 62
     0
100
AcDbTrace
 10
1.2460499576
 20
-0.0438208721
 30
0.0
 11
1.0438201399
 21
-0.0127085925
 31
0.0
 12
1.0438201399
 22
-0.0749331518
 32
0.0
 13
1.0438201399
 23
-0.0749331518
 33
0.0
  0
SOLID
  5
AE
330
AA
100
AcDbEntity
  8
BLOCKS
 62
     0
100
AcDbTrace
 10
0.7460499576
 20
-0.0438208721
 30
0.0
 11
0.9482797753
 21
-0.0749331518
 31
0.0
 12
0.9482797753
 22
-0.0127085925
 32
0.0
 13
0.9482797753
 23
-0.0127085925
 33
0.0
  0
LINE
  5
AF
330
AA
100
AcDbEntity
  8
BLOCKS
 62
     0
100
AcDbLine
 10
0.1500193011
 20
0.1117482087
 30
0.0
 11
0.2993634392
 21
0.1117482087
 31
0.0
  0
LINE
  5
B0
330
AA
100
AcDbEntity
  8
BLOCKS
 62
     0
100
AcDbLine
 10
0.1512345763
 20
-0.1316314277
 30
0.0
 11
0.1026234612
 21
-0.1316314277
 31
0.0
  0
LINE
  5
B1
330
AA
100
AcDbEntity
  8
BLOCKS
 62
     0
100
AcDbLine
 10
0.1026234612
 20
-0.1316314277
 30
0.0
 11
0.1026234612
 21
-0.3490311196
 31
0.0
  0
LINE
  5
B2
330
AA
100
AcDbEntity
  8
BLOCKS
 62
     0
100
AcDbLine
 10
0.1026234612
 20
-0.3490311196
 30
0.0
 11
0.1512345763
 21
-0.3490311196
 31
0.0
  0
LINE
  5
B3
330
AA
100
AcDbEntity
  8
BLOCKS
 62
     0
100
AcDbLine
 10
0.3672839604
 20
-0.1316314277
 30
0.0
 11
0.4158950755
 21
-0.1316314277
 31
0.0
  0
LINE
  5
B4
330
AA
100
AcDbEntity
  8
BLOCKS
 62
     0
100
AcDbLine
 10
0.4158950755
 20
-0.1316314277
 30
0.0
 11
0.4158950755
 21
-0.3490311196
 31
0.0
  0
LINE
  5
B5
330
AA
100
AcDbEntity
  8
BLOCKS
 62
     0
100
AcDbLine
 10
0.4158950755
 20
-0.3490311196
 30
0.0
 11
0.3672839604
 21
-0.3490311196
 31
0.0
  0
LINE
  5
B6
330
AA
100
AcDbEntity
  8
BLOCKS
 62
     0
100
AcDbLine
 10
1.2460499576
 20
-1.2178542275
 30
0.0
 11
1.2460499576
 21
0.0811791279
 31
0.0
  0
LINE
  5
B7
330
AA
100
AcDbEntity
  8
BLOCKS
 62
     0
100
AcDbLine
 10
0.7460499576
 20
-0.6330912977
 30
0.0
 11
0.7460499576
 21
0.0811791279
 31
0.0
  0
LINE
  5
B8
330
AA
100
AcDbEntity
  8
BLOCKS
 62
     0
100
AcDbLine
 10
1.2460499576
 20
-0.0438208721
 30
0.0
 11
0.7460499576
 21
-0.0438208721
 31
0.0
  0
LINE
  5
B9
330
AA
100
AcDbEntity
  8
BLOCKS
 62
     0
100
AcDbLine
 10
0.7460499576
 20
-0.0438208721
 30
0.0
 11
0.550899124
 21
-0.0438208721
 31
0.0
  0
MTEXT
  5
BB
330
AA
100
AcDbEntity
  8
BLOCKS
 62
     0
100
AcDbMText
 10
0.0
 20
0.1879890454
 30
0.0
 40
0.1458333333
 41
0.0
 71
     1
 72
     1
  1
 
  7
SLDTEXTSTYLE0
 73
     1
 44
1.0
  0
MTEXT
  5
BC
330
AA
100
AcDbEntity
  8
BLOCKS
 62
     0
100
AcDbMText
 10
0.1706790241
 20
0.2873414193
 30
0.0
 40
0.1458333333
 41
0.0
 71
     1
 72
     1
  1
1
  7
SLDTEXTSTYLE0
 73
     1
 44
1.0
  0
MTEXT
  5
BD
330
AA
100
AcDbEntity
  8
BLOCKS
 62
     0
100
AcDbMText
 10
0.1706790241
 20
0.0887650325
 30
0.0
 40
0.1458333333
 41
0.0
 71
     1
 72
     1
  1
2
  7
SLDTEXTSTYLE0
 73
     1
 44
1.0
  0
MTEXT
  5
BE
330
AA
100
AcDbEntity
  8
BLOCKS
 62
     0
100
AcDbMText
 10
0.3200231622
 20
0.1879890637
 30
0.0
 40
0.1458333333
 41
0.0
 71
     1
 72
     1
  1
"
  7
SLDTEXTSTYLE0
 73
     1
 44
1.0
  0
MTEXT
  5
BF
330
AA
100
AcDbEntity
  8
BLOCKS
 62
     0
100
AcDbMText
 10
0.1512345763
 20
-0.1610420742
 30
0.0
 40
0.1458333333
 41
0.0
 71
     1
 72
     1
  1
13
  7
SLDTEXTSTYLE0
 73
     1
 44
1.0
  0
MTEXT
  5
C0
330
AA
100
AcDbEntity
  8
BLOCKS
 62
     0
100
AcDbMText
 10
0.4645061907
 20
0.1879890454
 30
0.0
 40
0.1458333333
 41
0.0
 71
     1
 72
     1
  1
 
  7
SLDTEXTSTYLE0
 73
     1
 44
1.0
  0
ENDBLK
  5
AC
330
AA
100
AcDbEntity
  8
0
100
AcDbBlockEnd
  0
BLOCK
  5
C3
330
C2
100
AcDbEntity
  8
0
100
AcDbBlockBegin
  2
OVERHANG - .125
 70
     0
 10
0.0
 20
0.0
 30
0.0
  3
OVERHANG - .125
  1

  0
ARC
  5
C5
330
C2
100
AcDbEntity
  8
0
  6
Continuous
 62
    16
370
    18
100
AcDbCircle
 10
21.0247390722
 20
26.9140495115
 30
0.0
 40
0.0659795528056719
100
AcDbArc
 50
0.0
 51
90.0
  0
ARC
  5
C6
330
C2
100
AcDbEntity
  8
0
  6
Continuous
 62
    16
370
    18
100
AcDbCircle
 10
20.0403577083
 20
26.4212514943
 30
0.0
 40
0.0881257319589152
100
AcDbArc
 50
200.9822712638
 51
339.0177287362
  0
ARC
  5
C7
330
C2
100
AcDbEntity
  8
0
  6
Continuous
 62
    16
370
    18
100
AcDbCircle
 10
20.731618625
 20
26.3139893982
 30
0.0
 40
0.1880000000000024
100
AcDbArc
 50
0.0
 51
90.0
  0
ARC
  5
C8
330
C2
100
AcDbEntity
  8
0
  6
Continuous
 62
    16
370
    18
100
AcDbCircle
 10
20.731618625
 20
26.3139893982
 30
0.0
 40
0.2341000000000015
100
AcDbArc
 50
0.0
 51
90.0
  0
ARC
  5
C9
330
C2
100
AcDbEntity
  8
BLOCKS
100
AcDbCircle
 10
21.3249668066
 20
26.3001927866
 30
0.0
 40
0.3686452378780193
100
AcDbArc
 50
129.4518716023
 51
170.6861521435
  0
LINE
  5
CA
330
C2
100
AcDbEntity
  8
0
  6
Continuous
 62
    16
370
    18
100
AcDbLine
 10
19.4314231162
 20
26.5192257655
 30
0.0
 11
19.3788703567
 21
26.5738454846
 31
0.0
  0
LINE
  5
CB
330
C2
100
AcDbEntity
  8
0
  6
Continuous
 62
    16
370
    18
100
AcDbLine
 10
20.0408120814
 20
26.8351846327
 30
0.0
 11
20.0797389734
 21
26.7799952517
 31
0.0
  0
LINE
  5
CC
330
C2
100
AcDbEntity
  8
0
  6
Continuous
 62
    16
370
    18
100
AcDbLine
 10
19.3788703567
 20
26.5738454846
 30
0.0
 11
19.3364639969
 21
26.5330438976
 31
0.0
  0
LINE
  5
CD
330
C2
100
AcDbEntity
  8
0
  6
Continuous
 62
    16
370
    18
100
AcDbLine
 10
20.6725806187
 20
26.4527516548
 30
0.0
 11
20.7252404088
 21
26.5034186543
 31
0.0
  0
LINE
  5
CE
330
C2
100
AcDbEntity
  8
0
  6
Continuous
 62
    16
370
    18
100
AcDbLine
 10
20.0797389734
 20
26.7799952517
 30
0.0
 11
20.0797389734
 21
26.3896955151
 31
0.0
  0
LINE
  5
CF
330
C2
100
AcDbEntity
  8
0
  6
Continuous
 62
    16
370
    18
100
AcDbLine
 10
19.9814774532
 20
26.8652076206
 30
0.0
 11
19.9814774532
 21
26.5848453834
 31
0.0
  0
LINE
  5
D0
330
C2
100
AcDbEntity
  8
0
  6
Continuous
 62
    16
370
    18
100
AcDbLine
 10
20.7678769055
 20
26.4591052159
 30
0.0
 11
20.6989695496
 21
26.392805503
 31
0.0
  0
LINE
  5
D1
330
C2
100
AcDbEntity
  8
0
  6
Continuous
 62
    16
370
    18
100
AcDbLine
 10
21.0247390722
 20
26.9800290643
 30
0.0
 11
19.2446660374
 21
26.9800290643
 31
0.0
  0
LINE
  5
D2
330
C2
100
AcDbEntity
  8
0
  6
Continuous
 62
    16
370
    18
100
AcDbLine
 10
19.9670675999
 20
26.4905376331
 30
0.0
 11
19.9670675999
 21
26.4354028898
 31
0.0
  0
LINE
  5
D3
330
C2
100
AcDbEntity
  8
0
  6
Continuous
 62
    16
370
    18
100
AcDbLine
 10
20.1524880148
 20
26.4213577706
 30
0.0
 11
20.1506182011
 21
26.3892309097
 31
0.0
  0
LINE
  5
D4
330
C2
100
AcDbEntity
  8
0
  6
Continuous
 62
    16
370
    18
100
AcDbLine
 10
19.3364639969
 20
26.5330438976
 30
0.0
 11
19.3985753063
 21
26.4684896798
 31
0.0
  0
LINE
  5
D5
330
C2
100
AcDbEntity
  8
0
  6
Continuous
 62
    16
370
    18
100
AcDbLine
 10
20.2906117643
 20
26.5019893982
 30
0.0
 11
20.2906117643
 21
26.5480893982
 31
0.0
  0
LINE
  5
D6
330
C2
100
AcDbEntity
  8
0
  6
Continuous
 62
    16
370
    18
100
AcDbLine
 10
19.4314231162
 20
26.5192257655
 30
0.0
 11
20.6725806187
 21
26.4527516548
 31
0.0
  0
LINE
  5
D7
330
C2
100
AcDbEntity
  8
0
  6
Continuous
 62
    16
370
    18
100
AcDbLine
 10
19.9400720233
 20
26.4337205825
 30
0.0
 11
20.1524880148
 21
26.4213577706
 31
0.0
  0
LINE
  5
D8
330
C2
100
AcDbEntity
  8
0
  6
Continuous
 62
    16
370
    18
100
AcDbLine
 10
21.090718625
 20
26.5848453834
 30
0.0
 11
21.090718625
 21
26.9140495115
 31
0.0
  0
LINE
  5
D9
330
C2
100
AcDbEntity
  8
0
  6
Continuous
 62
    16
370
    18
100
AcDbLine
 10
20.731618625
 20
26.5019893982
 30
0.0
 11
20.2906117643
 21
26.5019893982
 31
0.0
  0
LINE
  5
DA
330
C2
100
AcDbEntity
  8
0
  6
Continuous
 62
    16
370
    18
100
AcDbLine
 10
20.919618625
 20
25.9230893982
 30
0.0
 11
20.919618625
 21
26.3139893982
 31
0.0
  0
LINE
  5
DB
330
C2
100
AcDbEntity
  8
0
  6
Continuous
 62
    16
370
    18
100
AcDbLine
 10
19.9580754817
 20
26.3896955151
 30
0.0
 11
20.1226399348
 21
26.3896955151
 31
0.0
  0
LINE
  5
DC
330
C2
100
AcDbEntity
  8
0
  6
Continuous
 62
    16
370
    18
100
AcDbLine
 10
20.1506182011
 20
26.3892309097
 30
0.0
 11
19.9382022095
 21
26.4015937216
 31
0.0
  0
LINE
  5
DD
330
C2
100
AcDbEntity
  8
0
  6
Continuous
 62
    16
370
    18
100
AcDbLine
 10
20.965718625
 20
25.9230893982
 30
0.0
 11
20.919618625
 21
25.9230893982
 31
0.0
  0
LINE
  5
DE
330
C2
100
AcDbEntity
  8
0
  6
Continuous
 62
    16
370
    18
100
AcDbLine
 10
20.965718625
 20
26.3139893982
 30
0.0
 11
20.965718625
 21
25.9230893982
 31
0.0
  0
LINE
  5
DF
330
C2
100
AcDbEntity
  8
0
  6
Continuous
 62
    16
370
    18
100
AcDbLine
 10
20.6989695496
 20
26.392805503
 30
0.0
 11
19.3985753063
 21
26.4684896798
 31
0.0
  0
LINE
  5
E0
330
C2
100
AcDbEntity
  8
0
  6
Continuous
 62
    16
370
    18
100
AcDbLine
 10
19.2743496911
 20
26.5848453834
 30
0.0
 11
21.090718625
 21
26.5848453834
 31
0.0
  0
LINE
  5
E1
330
C2
100
AcDbEntity
  8
0
  6
Continuous
 62
    16
370
    18
100
AcDbLine
 10
20.0028471016
 20
26.7799952517
 30
0.0
 11
20.0408120814
 21
26.8351846327
 31
0.0
  0
LINE
  5
E2
330
C2
100
AcDbEntity
  8
0
  6
Continuous
 62
    16
370
    18
100
AcDbLine
 10
20.2906117643
 20
26.5480893982
 30
0.0
 11
20.731618625
 21
26.5480893982
 31
0.0
  0
LINE
  5
E3
330
C2
100
AcDbEntity
  8
0
  6
Continuous
 62
    16
370
    18
100
AcDbLine
 10
20.0028471016
 20
26.7799952517
 30
0.0
 11
20.0028471016
 21
26.3896955151
 31
0.0
  0
LINE
  5
E4
330
C2
100
AcDbEntity
  8
0
  6
Continuous
 62
    16
370
    18
100
AcDbLine
 10
20.1080144451
 20
26.8652076206
 30
0.0
 11
19.9814774532
 21
26.8652076206
 31
0.0
  0
LINE
  5
E5
330
C2
100
AcDbEntity
  8
0
  6
Continuous
 62
    16
370
    18
100
AcDbLine
 10
20.7252404088
 20
26.5034186543
 30
0.0
 11
20.7678769055
 21
26.4591052159
 31
0.0
  0
LINE
  5
E6
330
C2
100
AcDbEntity
  8
0
  6
Continuous
 62
    16
370
    18
100
AcDbLine
 10
19.9400720233
 20
26.4337205825
 30
0.0
 11
19.9382022095
 21
26.4015937216
 31
0.0
  0
LINE
  5
E7
330
C2
100
AcDbEntity
  8
0
  6
Continuous
 62
    16
370
    18
100
AcDbLine
 10
20.1080144451
 20
26.5848453834
 30
0.0
 11
20.1080144451
 21
26.8652076206
 31
0.0
  0
LINE
  5
E8
330
C2
100
AcDbEntity
  8
0
  6
Continuous
 62
    16
370
    18
100
AcDbLine
 10
20.1216872784
 20
26.4822564878
 30
0.0
 11
20.1216872784
 21
26.426403878
 31
0.0
  0
LINE
  5
E9
330
C2
100
AcDbEntity
  8
BLOCKS
100
AcDbLine
 10
20.2906117643
 20
26.5480893982
 30
0.0
 11
20.2368944426
 21
26.5848453834
 31
0.0
  0
SPLINE
  5
EA
330
C2
100
AcDbEntity
  8
0
  6
Continuous
 62
    16
370
    18
100
AcDbSpline
210
0.0
220
0.0
230
1.0
 70
     8
 71
     3
 72
     9
 73
     5
 74
     0
 42
0.000000001
 43
0.00000001
 40
0.0
 40
0.0
 40
0.0
 40
0.0
 40
0.5928291688347104
 40
1.0
 40
1.0
 40
1.0
 40
1.0
 10
19.27434969107827
 20
26.58484538338648
 30
0.0
 10
19.22977403886498
 20
26.67067982455945
 30
0.0
 10
19.3092570011885
 20
26.78990333849607
 30
0.0
 10
19.29114417973896
 20
26.9441515837284
 30
0.0
 10
19.24466603742839
 20
26.98002906431008
 30
0.0
  0
HATCH
  5
EB
330
C2
100
AcDbEntity
  8
BLOCKS
 62
    16
100
AcDbHatch
 10
0.0
 20
0.0
 30
0.0
210
0.0
220
0.0
230
1.0
  2
ANSI36
 70
     0
 71
     0
 91
        1
 92
        0
 93
       10
 72
     4
 94
        3
 73
     1
 74
     0
 95
        9
 96
        5
 40
0.0
 40
0.0
 40
0.0
 40
0.0
 40
0.4071708311652896
 40
1.0
 40
1.0
 40
1.0
 40
1.0
 10
19.24466603742839
 20
26.98002906431008
 42
1.0
 10
19.29114417973896
 20
26.9441515837284
 42
1.0
 10
19.3092570011885
 20
26.78990333849607
 42
1.0
 10
19.22977403886498
 20
26.67067982455945
 42
1.0
 10
19.27434969107827
 20
26.58484538338648
 42
1.0
 72
     1
 10
19.27434969107827
 20
26.58484538338648
 11
19.98147745321076
 21
26.58484538338648
 72
     1
 10
19.98147745321076
 20
26.58484538338648
 11
19.98147745321076
 21
26.86520762058046
 72
     1
 10
19.98147745321076
 20
26.86520762058046
 11
20.10801444514525
 21
26.86520762058046
 72
     1
 10
20.10801444514525
 20
26.86520762058046
 11
20.10801444514525
 21
26.58484538338648
 72
     1
 10
20.10801444514525
 20
26.58484538338648
 11
20.23689444261453
 21
26.58484538338649
 72
     1
 10
20.23689444261453
 20
26.58484538338649
 11
21.0907186249667
 21
26.58484538338648
 72
     1
 10
21.0907186249667
 20
26.58484538338648
 11
21.0907186249667
 21
26.9140495115044
 72
     2
 10
21.02473907216103
 20
26.9140495115044
 40
0.0659795528056717
 50
0.0
 51
90.0
 73
     1
 72
     1
 10
21.02473907216103
 20
26.98002906431007
 11
19.24466603742839
 21
26.98002906431008
 97
        0
 75
     0
 76
     1
 52
0.0
 41
0.5
 77
     0
 78
     1
 53
45.0
 43
0.0
 44
0.0
 45
0.0331456303681194
 46
0.1215339780164378
 79
     4
 49
0.15625
 49
-0.03125
 49
0.0
 49
-0.03125
 98
        1
 10
0.0
 20
0.0
  0
HATCH
  5
EC
330
C2
100
AcDbEntity
  8
BLOCKS
 62
    16
100
AcDbHatch
 10
0.0
 20
0.0
 30
0.0
210
0.0
220
0.0
230
1.0
  2
ANSI32
 70
     0
 71
     0
 91
        1
 92
        0
 93
        4
 72
     1
 10
20.07973897339712
 20
26.58484538338648
 11
20.00284710159458
 21
26.58484538338648
 72
     1
 10
20.00284710159458
 20
26.58484538338648
 11
20.00284710159458
 21
26.48862134888004
 72
     1
 10
20.00284710159458
 20
26.48862134888004
 11
20.07973897339712
 21
26.4845031617958
 72
     1
 10
20.07973897339712
 20
26.4845031617958
 11
20.07973897339712
 21
26.58484538338648
 97
        0
 75
     0
 76
     1
 52
0.0
 41
0.2
 77
     0
 78
     2
 53
45.0
 43
0.0
 44
0.0
 45
-0.0530330085889911
 46
0.0530330085889911
 79
     0
 53
45.0
 43
0.035355339
 44
0.0
 45
-0.0530330085889911
 46
0.0530330085889911
 79
     0
 98
        1
 10
0.0
 20
0.0
  0
HATCH
  5
ED
330
C2
100
AcDbEntity
  8
BLOCKS
 62
    16
100
AcDbHatch
 10
0.0
 20
0.0
 30
0.0
210
0.0
220
0.0
230
1.0
  2
ANSI32
 70
     0
 71
     0
 91
        1
 92
        0
 93
        5
 72
     1
 10
20.04081208140756
 20
26.8351846326727
 11
20.00284710159458
 21
26.77999525166031
 72
     1
 10
20.00284710159458
 20
26.77999525166031
 11
20.00284710159458
 21
26.58484538338648
 72
     1
 10
20.00284710159458
 20
26.58484538338648
 11
20.07973897339712
 21
26.58484538338648
 72
     1
 10
20.07973897339712
 20
26.58484538338648
 11
20.07973897339712
 21
26.77999525166031
 72
     1
 10
20.07973897339712
 20
26.77999525166031
 11
20.04081208140756
 21
26.8351846326727
 97
        0
 75
     0
 76
     1
 52
0.0
 41
0.2
 77
     0
 78
     2
 53
45.0
 43
0.0
 44
0.0
 45
-0.0530330085889911
 46
0.0530330085889911
 79
     0
 53
45.0
 43
0.035355339
 44
0.0
 45
-0.0530330085889911
 46
0.0530330085889911
 79
     0
 98
        1
 10
0.0
 20
0.0
  0
HATCH
  5
EE
330
C2
100
AcDbEntity
  8
BLOCKS
 62
    16
100
AcDbHatch
 10
0.0
 20
0.0
 30
0.0
210
0.0
220
0.0
230
1.0
  2
ANSI32
 70
     0
 71
     0
 91
        1
 92
        0
 93
        4
 72
     1
 10
20.07973897339712
 20
26.4845031617958
 11
20.00284710159458
 21
26.48862134888004
 72
     1
 10
20.00284710159458
 20
26.48862134888004
 11
20.00284710159458
 21
26.43332048887584
 72
     1
 10
20.00284710159458
 20
26.43332048887584
 11
20.07973897339712
 21
26.42884530909641
 72
     1
 10
20.07973897339712
 20
26.42884530909641
 11
20.07973897339712
 21
26.4845031617958
 97
        0
 75
     0
 76
     1
 52
0.0
 41
0.2
 77
     0
 78
     2
 53
45.0
 43
0.0
 44
0.0
 45
-0.0530330085889911
 46
0.0530330085889911
 79
     0
 53
45.0
 43
0.035355339
 44
0.0
 45
-0.0530330085889911
 46
0.0530330085889911
 79
     0
 98
        1
 10
0.0
 20
0.0
  0
HATCH
  5
EF
330
C2
100
AcDbEntity
  8
BLOCKS
 62
    16
100
AcDbHatch
 10
0.0
 20
0.0
 30
0.0
210
0.0
220
0.0
230
1.0
  2
ANSI32
 70
     0
 71
     0
 91
        1
 92
        0
 93
        4
 72
     1
 10
20.00284710159458
 20
26.43006701346352
 11
19.94007202325873
 21
26.43372058249019
 72
     1
 10
19.94007202325873
 20
26.43372058249019
 11
19.93820220952023
 21
26.40159372159039
 72
     1
 10
19.93820220952023
 20
26.40159372159039
 11
20.00284710159458
 21
26.39783132763285
 72
     1
 10
20.00284710159458
 20
26.39783132763285
 11
20.00284710159458
 21
26.43006701346352
 97
        0
 75
     0
 76
     1
 52
0.0
 41
0.2
 77
     0
 78
     2
 53
45.0
 43
0.0
 44
0.0
 45
-0.0530330085889911
 46
0.0530330085889911
 79
     0
 53
45.0
 43
0.035355339
 44
0.0
 45
-0.0530330085889911
 46
0.0530330085889911
 79
     0
 98
        1
 10
0.0
 20
0.0
  0
HATCH
  5
F0
330
C2
100
AcDbEntity
  8
BLOCKS
 62
    16
100
AcDbHatch
 10
0.0
 20
0.0
 30
0.0
210
0.0
220
0.0
230
1.0
  2
ANSI32
 70
     0
 71
     0
 91
        1
 92
        0
 93
        4
 72
     1
 10
20.07973897339712
 20
26.42559183368408
 11
20.00284710159458
 21
26.43006701346352
 72
     1
 10
20.00284710159458
 20
26.43006701346352
 11
20.00284710159458
 21
26.39783132763285
 72
     1
 10
20.00284710159458
 20
26.39783132763285
 11
20.07973897339712
 21
26.39335614785342
 72
     1
 10
20.07973897339712
 20
26.39335614785342
 11
20.07973897339712
 21
26.42559183368408
 97
        0
 75
     0
 76
     1
 52
0.0
 41
0.2
 77
     0
 78
     2
 53
45.0
 43
0.0
 44
0.0
 45
-0.0530330085889911
 46
0.0530330085889911
 79
     0
 53
45.0
 43
0.035355339
 44
0.0
 45
-0.0530330085889911
 46
0.0530330085889911
 79
     0
 98
        1
 10
0.0
 20
0.0
  0
HATCH
  5
F1
330
C2
100
AcDbEntity
  8
BLOCKS
 62
    16
100
AcDbHatch
 10
0.0
 20
0.0
 30
0.0
210
0.0
220
0.0
230
1.0
  2
ANSI32
 70
     0
 71
     0
 91
        1
 92
        0
 93
        4
 72
     1
 10
20.07973897339712
 20
26.39335614785342
 11
20.15061820105523
 21
26.38923090965904
 72
     1
 10
20.15061820105523
 20
26.38923090965904
 11
20.15248801479373
 21
26.42135777055884
 72
     1
 10
20.15248801479373
 20
26.42135777055884
 11
20.07973897339712
 21
26.42559183368408
 72
     1
 10
20.07973897339712
 20
26.42559183368408
 11
20.07973897339712
 21
26.39335614785342
 97
        0
 75
     0
 76
     1
 52
0.0
 41
0.2
 77
     0
 78
     2
 53
45.0
 43
0.0
 44
0.0
 45
-0.0530330085889911
 46
0.0530330085889911
 79
     0
 53
45.0
 43
0.035355339
 44
0.0
 45
-0.0530330085889911
 46
0.0530330085889911
 79
     0
 98
        1
 10
0.0
 20
0.0
  0
HATCH
  5
F2
330
C2
100
AcDbEntity
  8
BLOCKS
 62
    16
100
AcDbHatch
 10
0.0
 20
0.0
 30
0.0
210
0.0
220
0.0
230
1.0
  2
ANSI32
 70
     0
 71
     0
 91
        1
 92
        0
 93
        4
 72
     1
 10
20.00284710159458
 20
26.38969551511265
 11
19.95807548170848
 21
26.38969551511265
 72
     2
 10
20.04035770827806
 20
26.42125149432493
 40
0.0881257319589163
 50
200.9822712637957
 51
339.0177287362059
 73
     1
 72
     1
 10
20.12263993484765
 20
26.38969551511265
 11
20.07973897339712
 21
26.38969551511265
 72
     1
 10
20.07973897339712
 20
26.38969551511265
 11
20.00284710159458
 21
26.38969551511265
 97
        0
 75
     0
 76
     1
 52
0.0
 41
0.2
 77
     0
 78
     2
 53
45.0
 43
0.0
 44
0.0
 45
-0.0530330085889911
 46
0.0530330085889911
 79
     0
 53
45.0
 43
0.035355339
 44
0.0
 45
-0.0530330085889911
 46
0.0530330085889911
 79
     0
 98
        1
 10
0.0
 20
0.0
  0
HATCH
  5
F3
330
C2
100
AcDbEntity
  8
BLOCKS
100
AcDbHatch
 10
0.0
 20
0.0
 30
0.0
210
0.0
220
0.0
230
1.0
  2
SOLID
 70
     1
 71
     0
 91
        1
 92
        0
 93
        5
 72
     2
 10
21.32496680656287
 20
26.30019278664964
 40
0.3686452378780171
 50
189.3138478564999
 51
230.5481283977412
 73
     0
 72
     1
 10
21.0907186249667
 20
26.58484538338648
 11
20.23689444261453
 21
26.58484538338649
 72
     1
 10
20.23689444261453
 20
26.58484538338649
 11
20.29061176430621
 21
26.54808939823214
 72
     1
 10
20.29061176430621
 20
26.54808939823214
 11
20.7316186249667
 21
26.54808939823214
 72
     2
 10
20.7316186249667
 20
26.31398939823214
 40
0.2341000000000018
 50
270.0000000000008
 51
348.7012977589557
 73
     0
 97
        0
 75
     0
 76
     1
 98
        1
 10
0.0
 20
0.0
  0
INSERT
  5
10A
330
C2
100
AcDbEntity
  8
BLOCKS
100
AcDbBlockReference
  2
SW_BLOCK_DIMENSION_1
 10
20.1493190698
 20
25.7962831498
 30
0.0
  0
ENDBLK
  5
C4
330
C2
100
AcDbEntity
  8
0
100
AcDbBlockEnd
  0
BLOCK
  5
F5
330
F4
100
AcDbEntity
  8
0
100
AcDbBlockBegin
  2
SW_BLOCK_DIMENSION_1
 70
     0
 10
0.0
 20
0.0
 30
0.0
  3
SW_BLOCK_DIMENSION_1
  1

  0
SOLID
  5
F7
330
F4
100
AcDbEntity
  8
BLOCKS
 62
     0
100
AcDbTrace
 10
0.8163995552
 20
-0.0438208721
 30
0.0
 11
0.6141697375
 21
-0.0127085925
 31
0.0
 12
0.6141697375
 22
-0.0749331518
 32
0.0
 13
0.6141697375
 23
-0.0749331518
 33
0.0
  0
SOLID
  5
F8
330
F4
100
AcDbEntity
  8
BLOCKS
 62
     0
100
AcDbTrace
 10
0.9413995552
 20
-0.0438208721
 30
0.0
 11
1.1436293729
 21
-0.0749331518
 31
0.0
 12
1.1436293729
 22
-0.0127085925
 32
0.0
 13
1.1436293729
 23
-0.0127085925
 33
0.0
  0
LINE
  5
F9
330
F4
100
AcDbEntity
  8
BLOCKS
 62
     0
100
AcDbLine
 10
0.0960069551
 20
0.1117482087
 30
0.0
 11
0.2453510932
 21
0.1117482087
 31
0.0
  0
LINE
  5
FA
330
F4
100
AcDbEntity
  8
BLOCKS
 62
     0
100
AcDbLine
 10
0.1512345763
 20
-0.1316314277
 30
0.0
 11
0.1026234612
 21
-0.1316314277
 31
0.0
  0
LINE
  5
FB
330
F4
100
AcDbEntity
  8
BLOCKS
 62
     0
100
AcDbLine
 10
0.1026234612
 20
-0.1316314277
 30
0.0
 11
0.1026234612
 21
-0.3490311196
 31
0.0
  0
LINE
  5
FC
330
F4
100
AcDbEntity
  8
BLOCKS
 62
     0
100
AcDbLine
 10
0.1026234612
 20
-0.3490311196
 30
0.0
 11
0.1512345763
 21
-0.3490311196
 31
0.0
  0
LINE
  5
FD
330
F4
100
AcDbEntity
  8
BLOCKS
 62
     0
100
AcDbLine
 10
0.2592592683
 20
-0.1316314277
 30
0.0
 11
0.3078703835
 21
-0.1316314277
 31
0.0
  0
LINE
  5
FE
330
F4
100
AcDbEntity
  8
BLOCKS
 62
     0
100
AcDbLine
 10
0.3078703835
 20
-0.1316314277
 30
0.0
 11
0.3078703835
 21
-0.3490311196
 31
0.0
  0
LINE
  5
FF
330
F4
100
AcDbEntity
  8
BLOCKS
 62
     0
100
AcDbLine
 10
0.3078703835
 20
-0.3490311196
 30
0.0
 11
0.2592592683
 21
-0.3490311196
 31
0.0
  0
LINE
  5
100
330
F4
100
AcDbEntity
  8
BLOCKS
 62
     0
100
AcDbLine
 10
0.8163995552
 20
0.0768062484
 30
0.0
 11
0.8163995552
 21
-0.1688208721
 31
0.0
  0
LINE
  5
101
330
F4
100
AcDbEntity
  8
BLOCKS
 62
     0
100
AcDbLine
 10
0.9413995552
 20
0.7385622336
 30
0.0
 11
0.9413995552
 21
-0.1688208721
 31
0.0
  0
LINE
  5
102
330
F4
100
AcDbEntity
  8
BLOCKS
 62
     0
100
AcDbLine
 10
0.8163995552
 20
-0.0438208721
 30
0.0
 11
0.4428744319
 21
-0.0438208721
 31
0.0
  0
LINE
  5
103
330
F4
100
AcDbEntity
  8
BLOCKS
 62
     0
100
AcDbLine
 10
0.9413995552
 20
-0.0438208721
 30
0.0
 11
1.3303030508
 21
-0.0438208721
 31
0.0
  0
MTEXT
  5
104
330
F4
100
AcDbEntity
  8
BLOCKS
 62
     0
100
AcDbMText
 10
0.0
 20
0.1879890454
 30
0.0
 40
0.1458333333
 41
0.0
 71
     1
 72
     1
  1
 
  7
SLDTEXTSTYLE0
 73
     1
 44
1.0
  0
MTEXT
  5
105
330
F4
100
AcDbEntity
  8
BLOCKS
 62
     0
100
AcDbMText
 10
0.1166666781
 20
0.2873414193
 30
0.0
 40
0.1458333333
 41
0.0
 71
     1
 72
     1
  1
1
  7
SLDTEXTSTYLE0
 73
     1
 44
1.0
  0
MTEXT
  5
106
330
F4
100
AcDbEntity
  8
BLOCKS
 62
     0
100
AcDbMText
 10
0.1166666781
 20
0.0887650325
 30
0.0
 40
0.1458333333
 41
0.0
 71
     1
 72
     1
  1
8
  7
SLDTEXTSTYLE0
 73
     1
 44
1.0
  0
MTEXT
  5
107
330
F4
100
AcDbEntity
  8
BLOCKS
 62
     0
100
AcDbMText
 10
0.2660108162
 20
0.1879890637
 30
0.0
 40
0.1458333333
 41
0.0
 71
     1
 72
     1
  1
"
  7
SLDTEXTSTYLE0
 73
     1
 44
1.0
  0
MTEXT
  5
108
330
F4
100
AcDbEntity
  8
BLOCKS
 62
     0
100
AcDbMText
 10
0.1512345763
 20
-0.1610420742
 30
0.0
 40
0.1458333333
 41
0.0
 71
     1
 72
     1
  1
3
  7
SLDTEXTSTYLE0
 73
     1
 44
1.0
  0
MTEXT
  5
109
330
F4
100
AcDbEntity
  8
BLOCKS
 62
     0
100
AcDbMText
 10
0.3564814986
 20
0.1879890454
 30
0.0
 40
0.1458333333
 41
0.0
 71
     1
 72
     1
  1
 
  7
SLDTEXTSTYLE0
 73
     1
 44
1.0
  0
ENDBLK
  5
F6
330
F4
100
AcDbEntity
  8
0
100
AcDbBlockEnd
  0
BLOCK
  5
10C
330
10B
100
AcDbEntity
  8
0
100
AcDbBlockBegin
  2
REVEAL - 0 (FLUSH)
 70
     0
 10
0.0
 20
0.0
 30
0.0
  3
REVEAL - 0 (FLUSH)
  1

  0
ARC
  5
10E
330
10B
100
AcDbEntity
  8
0
  6
Continuous
 62
    16
370
    18
100
AcDbCircle
 10
20.8997390722
 20
26.9140495115
 30
0.0
 40
0.0659795528056684
100
AcDbArc
 50
0.0
 51
90.0
  0
ARC
  5
10F
330
10B
100
AcDbEntity
  8
0
  6
Continuous
 62
    16
370
    18
100
AcDbCircle
 10
20.0403577083
 20
26.4212514943
 30
0.0
 40
0.0881257319589152
100
AcDbArc
 50
200.9822712638
 51
339.0177287362
  0
ARC
  5
110
330
10B
100
AcDbEntity
  8
0
  6
Continuous
 62
    16
370
    18
100
AcDbCircle
 10
20.731618625
 20
26.3139893982
 30
0.0
 40
0.1880000000000024
100
AcDbArc
 50
0.0
 51
90.0
  0
ARC
  5
111
330
10B
100
AcDbEntity
  8
0
  6
Continuous
 62
    16
370
    18
100
AcDbCircle
 10
20.731618625
 20
26.3139893982
 30
0.0
 40
0.2341000000000015
100
AcDbArc
 50
0.0
 51
90.0
  0
LINE
  5
112
330
10B
100
AcDbEntity
  8
0
  6
Continuous
 62
    16
370
    18
100
AcDbLine
 10
19.4314231162
 20
26.5192257655
 30
0.0
 11
19.3788703567
 21
26.5738454846
 31
0.0
  0
LINE
  5
113
330
10B
100
AcDbEntity
  8
0
  6
Continuous
 62
    16
370
    18
100
AcDbLine
 10
20.0408120814
 20
26.8351846327
 30
0.0
 11
20.0797389734
 21
26.7799952517
 31
0.0
  0
LINE
  5
114
330
10B
100
AcDbEntity
  8
0
  6
Continuous
 62
    16
370
    18
100
AcDbLine
 10
19.3788703567
 20
26.5738454846
 30
0.0
 11
19.3364639969
 21
26.5330438976
 31
0.0
  0
LINE
  5
115
330
10B
100
AcDbEntity
  8
0
  6
Continuous
 62
    16
370
    18
100
AcDbLine
 10
20.6725806187
 20
26.4527516548
 30
0.0
 11
20.7252404088
 21
26.5034186543
 31
0.0
  0
LINE
  5
116
330
10B
100
AcDbEntity
  8
0
  6
Continuous
 62
    16
370
    18
100
AcDbLine
 10
20.0797389734
 20
26.7799952517
 30
0.0
 11
20.0797389734
 21
26.3896955151
 31
0.0
  0
LINE
  5
117
330
10B
100
AcDbEntity
  8
0
  6
Continuous
 62
    16
370
    18
100
AcDbLine
 10
19.9814774532
 20
26.8652076206
 30
0.0
 11
19.9814774532
 21
26.5848453834
 31
0.0
  0
LINE
  5
118
330
10B
100
AcDbEntity
  8
0
  6
Continuous
 62
    16
370
    18
100
AcDbLine
 10
20.7678769055
 20
26.4591052159
 30
0.0
 11
20.6989695496
 21
26.392805503
 31
0.0
  0
LINE
  5
119
330
10B
100
AcDbEntity
  8
0
  6
Continuous
 62
    16
370
    18
100
AcDbLine
 10
20.8997390722
 20
26.9800290643
 30
0.0
 11
19.2446660374
 21
26.9800290643
 31
0.0
  0
LINE
  5
11A
330
10B
100
AcDbEntity
  8
0
  6
Continuous
 62
    16
370
    18
100
AcDbLine
 10
19.9670675999
 20
26.4905376331
 30
0.0
 11
19.9670675999
 21
26.4354028898
 31
0.0
  0
LINE
  5
11B
330
10B
100
AcDbEntity
  8
0
  6
Continuous
 62
    16
370
    18
100
AcDbLine
 10
20.1524880148
 20
26.4213577706
 30
0.0
 11
20.1506182011
 21
26.3892309097
 31
0.0
  0
LINE
  5
11C
330
10B
100
AcDbEntity
  8
0
  6
Continuous
 62
    16
370
    18
100
AcDbLine
 10
19.3364639969
 20
26.5330438976
 30
0.0
 11
19.3985753063
 21
26.4684896798
 31
0.0
  0
LINE
  5
11D
330
10B
100
AcDbEntity
  8
0
  6
Continuous
 62
    16
370
    18
100
AcDbLine
 10
20.2906117643
 20
26.5019893982
 30
0.0
 11
20.2906117643
 21
26.5480893982
 31
0.0
  0
LINE
  5
11E
330
10B
100
AcDbEntity
  8
0
  6
Continuous
 62
    16
370
    18
100
AcDbLine
 10
19.4314231162
 20
26.5192257655
 30
0.0
 11
20.6725806187
 21
26.4527516548
 31
0.0
  0
LINE
  5
11F
330
10B
100
AcDbEntity
  8
0
  6
Continuous
 62
    16
370
    18
100
AcDbLine
 10
19.9400720233
 20
26.4337205825
 30
0.0
 11
20.1524880148
 21
26.4213577706
 31
0.0
  0
LINE
  5
120
330
10B
100
AcDbEntity
  8
0
  6
Continuous
 62
    16
370
    18
100
AcDbLine
 10
20.965718625
 20
26.5848453834
 30
0.0
 11
20.965718625
 21
26.9140495115
 31
0.0
  0
LINE
  5
121
330
10B
100
AcDbEntity
  8
0
  6
Continuous
 62
    16
370
    18
100
AcDbLine
 10
20.731618625
 20
26.5019893982
 30
0.0
 11
20.2906117643
 21
26.5019893982
 31
0.0
  0
LINE
  5
122
330
10B
100
AcDbEntity
  8
0
  6
Continuous
 62
    16
370
    18
100
AcDbLine
 10
20.919618625
 20
25.9230893982
 30
0.0
 11
20.919618625
 21
26.3139893982
 31
0.0
  0
LINE
  5
123
330
10B
100
AcDbEntity
  8
0
  6
Continuous
 62
    16
370
    18
100
AcDbLine
 10
19.9580754817
 20
26.3896955151
 30
0.0
 11
20.1226399348
 21
26.3896955151
 31
0.0
  0
LINE
  5
124
330
10B
100
AcDbEntity
  8
0
  6
Continuous
 62
    16
370
    18
100
AcDbLine
 10
20.1506182011
 20
26.3892309097
 30
0.0
 11
19.9382022095
 21
26.4015937216
 31
0.0
  0
LINE
  5
125
330
10B
100
AcDbEntity
  8
0
  6
Continuous
 62
    16
370
    18
100
AcDbLine
 10
20.965718625
 20
25.9230893982
 30
0.0
 11
20.919618625
 21
25.9230893982
 31
0.0
  0
LINE
  5
126
330
10B
100
AcDbEntity
  8
0
  6
Continuous
 62
    16
370
    18
100
AcDbLine
 10
20.965718625
 20
26.3139893982
 30
0.0
 11
20.965718625
 21
25.9230893982
 31
0.0
  0
LINE
  5
127
330
10B
100
AcDbEntity
  8
0
  6
Continuous
 62
    16
370
    18
100
AcDbLine
 10
20.6989695496
 20
26.392805503
 30
0.0
 11
19.3985753063
 21
26.4684896798
 31
0.0
  0
LINE
  5
128
330
10B
100
AcDbEntity
  8
0
  6
Continuous
 62
    16
370
    18
100
AcDbLine
 10
19.2743496911
 20
26.5848453834
 30
0.0
 11
20.0028471016
 21
26.5848453834
 31
0.0
  0
LINE
  5
129
330
10B
100
AcDbEntity
  8
0
  6
Continuous
 62
    16
370
    18
100
AcDbLine
 10
20.0028471016
 20
26.7799952517
 30
0.0
 11
20.0408120814
 21
26.8351846327
 31
0.0
  0
LINE
  5
12A
330
10B
100
AcDbEntity
  8
0
  6
Continuous
 62
    16
370
    18
100
AcDbLine
 10
20.2906117643
 20
26.5480893982
 30
0.0
 11
20.731618625
 21
26.5480893982
 31
0.0
  0
LINE
  5
12B
330
10B
100
AcDbEntity
  8
0
  6
Continuous
 62
    16
370
    18
100
AcDbLine
 10
20.0028471016
 20
26.7799952517
 30
0.0
 11
20.0028471016
 21
26.3896955151
 31
0.0
  0
LINE
  5
12C
330
10B
100
AcDbEntity
  8
0
  6
Continuous
 62
    16
370
    18
100
AcDbLine
 10
20.1033429009
 20
26.8652076206
 30
0.0
 11
19.9814774532
 21
26.8652076206
 31
0.0
  0
LINE
  5
12D
330
10B
100
AcDbEntity
  8
0
  6
Continuous
 62
    16
370
    18
100
AcDbLine
 10
20.7252404088
 20
26.5034186543
 30
0.0
 11
20.7678769055
 21
26.4591052159
 31
0.0
  0
LINE
  5
12E
330
10B
100
AcDbEntity
  8
0
  6
Continuous
 62
    16
370
    18
100
AcDbLine
 10
19.9400720233
 20
26.4337205825
 30
0.0
 11
19.9382022095
 21
26.4015937216
 31
0.0
  0
LINE
  5
12F
330
10B
100
AcDbEntity
  8
0
  6
Continuous
 62
    16
370
    18
100
AcDbLine
 10
20.1033429009
 20
26.5848453834
 30
0.0
 11
20.1033429009
 21
26.8652076206
 31
0.0
  0
LINE
  5
130
330
10B
100
AcDbEntity
  8
0
  6
Continuous
 62
    16
370
    18
100
AcDbLine
 10
20.1216872784
 20
26.4822564878
 30
0.0
 11
20.1216872784
 21
26.426403878
 31
0.0
  0
LINE
  5
131
330
10B
100
AcDbEntity
  8
BLOCKS
100
AcDbLine
 10
20.2906117643
 20
26.5480893982
 30
0.0
 11
20.2368944426
 21
26.5848453834
 31
0.0
  0
LINE
  5
132
330
10B
100
AcDbEntity
  8
0
  6
Continuous
 62
     7
370
    18
100
AcDbLine
 10
20.2368944426
 20
26.5848453834
 30
0.0
 11
20.965718625
 21
26.5848453834
 31
0.0
  0
LINE
  5
133
330
10B
100
AcDbEntity
  8
BLOCKS
100
AcDbLine
 10
20.0797389734
 20
26.5848453834
 30
0.0
 11
20.965718625
 21
26.5848453834
 31
0.0
  0
LINE
  5
134
330
10B
100
AcDbEntity
  8
0
  6
Continuous
 62
     7
370
    18
100
AcDbLine
 10
20.965718625
 20
26.3139893982
 30
0.0
 11
20.965718625
 21
26.5848453834
 31
0.0
  0
SPLINE
  5
135
330
10B
100
AcDbEntity
  8
BLOCKS
100
AcDbSpline
210
0.0
220
0.0
230
1.0
 70
     8
 71
     3
 72
     8
 73
     4
 74
     0
 42
0.000000001
 43
0.00000001
 40
0.0
 40
0.0
 40
0.0
 40
0.0
 40
1.0
 40
1.0
 40
1.0
 40
1.0
 10
19.24466603742839
 20
26.98002906431008
 30
0.0
 10
19.40755868602182
 20
26.86177152370008
 30
0.0
 10
19.11947833134008
 20
26.72443452904972
 30
0.0
 10
19.27434969107827
 20
26.58484538338648
 30
0.0
  0
HATCH
  5
136
330
10B
100
AcDbEntity
  8
0
  6
Continuous
 62
    16
100
AcDbHatch
 10
0.0
 20
0.0
 30
0.0
210
0.0
220
0.0
230
1.0
  2
SOLID
 70
     1
 71
     0
 91
        1
 92
        0
 93
        5
 72
     1
 10
20.29061176430621
 20
26.54808939823214
 11
20.7316186249667
 21
26.54808939823214
 72
     2
 10
20.7316186249667
 20
26.31398939823214
 40
0.2341000000000018
 50
270.0000000000008
 51
360.0000000000008
 73
     0
 72
     1
 10
20.9657186249667
 20
26.31398939823214
 11
20.9657186249667
 21
26.58484538338648
 72
     1
 10
20.9657186249667
 20
26.58484538338648
 11
20.23689444261454
 21
26.58484538338648
 72
     1
 10
20.23689444261454
 20
26.58484538338648
 11
20.29061176430621
 21
26.54808939823214
 97
        0
 75
     0
 76
     1
 98
        1
 10
0.0
 20
0.0
  0
HATCH
  5
137
330
10B
100
AcDbEntity
  8
BLOCKS
 62
    16
100
AcDbHatch
 10
0.0
 20
0.0
 30
0.0
210
0.0
220
0.0
230
1.0
  2
ANSI32
 70
     0
 71
     0
 91
        1
 92
        0
 93
        4
 72
     1
 10
20.07973897339712
 20
26.58484538338648
 11
20.00284710159458
 21
26.58484538338648
 72
     1
 10
20.00284710159458
 20
26.58484538338648
 11
20.00284710159458
 21
26.48862134888004
 72
     1
 10
20.00284710159458
 20
26.48862134888004
 11
20.07973897339712
 21
26.4845031617958
 72
     1
 10
20.07973897339712
 20
26.4845031617958
 11
20.07973897339712
 21
26.58484538338648
 97
        0
 75
     0
 76
     1
 52
0.0
 41
0.2
 77
     0
 78
     2
 53
45.0
 43
0.0
 44
0.0
 45
-0.0530330085889911
 46
0.0530330085889911
 79
     0
 53
45.0
 43
0.035355339
 44
0.0
 45
-0.0530330085889911
 46
0.0530330085889911
 79
     0
 98
        1
 10
0.0
 20
0.0
  0
HATCH
  5
138
330
10B
100
AcDbEntity
  8
BLOCKS
 62
    16
100
AcDbHatch
 10
0.0
 20
0.0
 30
0.0
210
0.0
220
0.0
230
1.0
  2
ANSI32
 70
     0
 71
     0
 91
        1
 92
        0
 93
        5
 72
     1
 10
20.04081208140756
 20
26.8351846326727
 11
20.00284710159458
 21
26.77999525166031
 72
     1
 10
20.00284710159458
 20
26.77999525166031
 11
20.00284710159458
 21
26.58484538338648
 72
     1
 10
20.00284710159458
 20
26.58484538338648
 11
20.07973897339712
 21
26.58484538338648
 72
     1
 10
20.07973897339712
 20
26.58484538338648
 11
20.07973897339712
 21
26.77999525166031
 72
     1
 10
20.07973897339712
 20
26.77999525166031
 11
20.04081208140756
 21
26.8351846326727
 97
        0
 75
     0
 76
     1
 52
0.0
 41
0.2
 77
     0
 78
     2
 53
45.0
 43
0.0
 44
0.0
 45
-0.0530330085889911
 46
0.0530330085889911
 79
     0
 53
45.0
 43
0.035355339
 44
0.0
 45
-0.0530330085889911
 46
0.0530330085889911
 79
     0
 98
        1
 10
0.0
 20
0.0
  0
HATCH
  5
139
330
10B
100
AcDbEntity
  8
BLOCKS
 62
    16
100
AcDbHatch
 10
0.0
 20
0.0
 30
0.0
210
0.0
220
0.0
230
1.0
  2
ANSI32
 70
     0
 71
     0
 91
        1
 92
        0
 93
        4
 72
     1
 10
20.07973897339712
 20
26.4845031617958
 11
20.00284710159458
 21
26.48862134888004
 72
     1
 10
20.00284710159458
 20
26.48862134888004
 11
20.00284710159458
 21
26.43332048887584
 72
     1
 10
20.00284710159458
 20
26.43332048887584
 11
20.07973897339712
 21
26.42884530909641
 72
     1
 10
20.07973897339712
 20
26.42884530909641
 11
20.07973897339712
 21
26.4845031617958
 97
        0
 75
     0
 76
     1
 52
0.0
 41
0.2
 77
     0
 78
     2
 53
45.0
 43
0.0
 44
0.0
 45
-0.0530330085889911
 46
0.0530330085889911
 79
     0
 53
45.0
 43
0.035355339
 44
0.0
 45
-0.0530330085889911
 46
0.0530330085889911
 79
     0
 98
        1
 10
0.0
 20
0.0
  0
HATCH
  5
13A
330
10B
100
AcDbEntity
  8
BLOCKS
 62
    16
100
AcDbHatch
 10
0.0
 20
0.0
 30
0.0
210
0.0
220
0.0
230
1.0
  2
ANSI32
 70
     0
 71
     0
 91
        1
 92
        0
 93
        4
 72
     1
 10
20.00284710159458
 20
26.43006701346352
 11
19.94007202325873
 21
26.43372058249019
 72
     1
 10
19.94007202325873
 20
26.43372058249019
 11
19.93820220952023
 21
26.40159372159039
 72
     1
 10
19.93820220952023
 20
26.40159372159039
 11
20.00284710159458
 21
26.39783132763285
 72
     1
 10
20.00284710159458
 20
26.39783132763285
 11
20.00284710159458
 21
26.43006701346352
 97
        0
 75
     0
 76
     1
 52
0.0
 41
0.2
 77
     0
 78
     2
 53
45.0
 43
0.0
 44
0.0
 45
-0.0530330085889911
 46
0.0530330085889911
 79
     0
 53
45.0
 43
0.035355339
 44
0.0
 45
-0.0530330085889911
 46
0.0530330085889911
 79
     0
 98
        1
 10
0.0
 20
0.0
  0
HATCH
  5
13B
330
10B
100
AcDbEntity
  8
BLOCKS
 62
    16
100
AcDbHatch
 10
0.0
 20
0.0
 30
0.0
210
0.0
220
0.0
230
1.0
  2
ANSI32
 70
     0
 71
     0
 91
        1
 92
        0
 93
        4
 72
     1
 10
20.07973897339712
 20
26.42559183368408
 11
20.00284710159458
 21
26.43006701346352
 72
     1
 10
20.00284710159458
 20
26.43006701346352
 11
20.00284710159458
 21
26.39783132763285
 72
     1
 10
20.00284710159458
 20
26.39783132763285
 11
20.07973897339712
 21
26.39335614785342
 72
     1
 10
20.07973897339712
 20
26.39335614785342
 11
20.07973897339712
 21
26.42559183368408
 97
        0
 75
     0
 76
     1
 52
0.0
 41
0.2
 77
     0
 78
     2
 53
45.0
 43
0.0
 44
0.0
 45
-0.0530330085889911
 46
0.0530330085889911
 79
     0
 53
45.0
 43
0.035355339
 44
0.0
 45
-0.0530330085889911
 46
0.0530330085889911
 79
     0
 98
        1
 10
0.0
 20
0.0
  0
HATCH
  5
13C
330
10B
100
AcDbEntity
  8
BLOCKS
 62
    16
100
AcDbHatch
 10
0.0
 20
0.0
 30
0.0
210
0.0
220
0.0
230
1.0
  2
ANSI32
 70
     0
 71
     0
 91
        1
 92
        0
 93
        4
 72
     1
 10
20.07973897339712
 20
26.39335614785342
 11
20.15061820105523
 21
26.38923090965904
 72
     1
 10
20.15061820105523
 20
26.38923090965904
 11
20.15248801479373
 21
26.42135777055884
 72
     1
 10
20.15248801479373
 20
26.42135777055884
 11
20.07973897339712
 21
26.42559183368408
 72
     1
 10
20.07973897339712
 20
26.42559183368408
 11
20.07973897339712
 21
26.39335614785342
 97
        0
 75
     0
 76
     1
 52
0.0
 41
0.2
 77
     0
 78
     2
 53
45.0
 43
0.0
 44
0.0
 45
-0.0530330085889911
 46
0.0530330085889911
 79
     0
 53
45.0
 43
0.035355339
 44
0.0
 45
-0.0530330085889911
 46
0.0530330085889911
 79
     0
 98
        1
 10
0.0
 20
0.0
  0
HATCH
  5
13D
330
10B
100
AcDbEntity
  8
BLOCKS
 62
    16
100
AcDbHatch
 10
0.0
 20
0.0
 30
0.0
210
0.0
220
0.0
230
1.0
  2
ANSI32
 70
     0
 71
     0
 91
        1
 92
        0
 93
        4
 72
     1
 10
20.00284710159458
 20
26.38969551511265
 11
19.95807548170848
 21
26.38969551511265
 72
     2
 10
20.04035770827806
 20
26.42125149432493
 40
0.0881257319589163
 50
200.9822712637957
 51
339.0177287362059
 73
     1
 72
     1
 10
20.12263993484765
 20
26.38969551511265
 11
20.07973897339712
 21
26.38969551511265
 72
     1
 10
20.07973897339712
 20
26.38969551511265
 11
20.00284710159458
 21
26.38969551511265
 97
        0
 75
     0
 76
     1
 52
0.0
 41
0.2
 77
     0
 78
     2
 53
45.0
 43
0.0
 44
0.0
 45
-0.0530330085889911
 46
0.0530330085889911
 79
     0
 53
45.0
 43
0.035355339
 44
0.0
 45
-0.0530330085889911
 46
0.0530330085889911
 79
     0
 98
        1
 10
0.0
 20
0.0
  0
HATCH
  5
13E
330
10B
100
AcDbEntity
  8
0
  6
Continuous
 62
    16
100
AcDbHatch
 10
0.0
 20
0.0
 30
0.0
210
0.0
220
0.0
230
1.0
  2
ANSI36
 70
     0
 71
     0
 91
        1
 92
        0
 93
        9
 72
     2
 10
20.89973907216103
 20
26.9140495115044
 40
0.0659795528056695
 50
270.0000000000008
 51
360.0000000000008
 73
     0
 72
     1
 10
20.9657186249667
 20
26.9140495115044
 11
20.9657186249667
 21
26.58484538338648
 72
     1
 10
20.9657186249667
 20
26.58484538338648
 11
20.10334290092126
 21
26.58484538338648
 72
     1
 10
20.10334290092126
 20
26.58484538338648
 11
20.10334290092126
 21
26.86520762058046
 72
     1
 10
20.10334290092126
 20
26.86520762058046
 11
19.98147745321076
 21
26.86520762058046
 72
     1
 10
19.98147745321076
 20
26.86520762058046
 11
19.98147745321076
 21
26.58484538338648
 72
     1
 10
19.98147745321076
 20
26.58484538338648
 11
19.27434969107827
 21
26.58484538338648
 72
     4
 94
        3
 73
     1
 74
     0
 95
        8
 96
        4
 40
0.0
 40
0.0
 40
0.0
 40
0.0
 40
1.0
 40
1.0
 40
1.0
 40
1.0
 10
19.27434969107827
 20
26.58484538338648
 42
1.0
 10
19.11947833134008
 20
26.72443452904972
 42
1.0
 10
19.40755868602182
 20
26.86177152370009
 42
1.0
 10
19.24466603742839
 20
26.98002906431008
 42
1.0
 72
     1
 10
19.24466603742839
 20
26.98002906431008
 11
20.89973907216103
 21
26.98002906431007
 97
        0
 75
     0
 76
     1
 52
90.0
 41
0.5
 77
     0
 78
     1
 53
135.0000000000002
 43
0.0
 44
0.0
 45
-0.121533978016438
 46
0.033145630368119
 79
     4
 49
0.15625
 49
-0.03125
 49
0.0
 49
-0.03125
 98
        1
 10
0.0
 20
0.0
  0
ENDBLK
  5
10D
330
10B
100
AcDbEntity
  8
0
100
AcDbBlockEnd
  0
BLOCK
  5
161
330
160
100
AcDbEntity
  8
0
100
AcDbBlockBegin
  2
_D
 70
     0
 10
0.0
 20
0.0
 30
0.0
  3
_D
  1

  0
SOLID
  5
163
330
160
100
AcDbEntity
  8
DIM
100
AcDbTrace
 10
11.0459250377
 20
16.8564954114
 30
0.0
 11
10.9249266662
 21
17.0214931908
 31
0.0
 12
10.8809272583
 22
16.977493783
 32
0.0
 13
10.8809272583
 23
16.977493783
 33
0.0
  0
LINE
  5
164
330
160
100
AcDbEntity
  8
DIM
100
AcDbLine
 10
12.5715331718
 20
15.9026793612
 30
0.0
 11
12.7208773099
 21
15.9026793612
 31
0.0
  0
LINE
  5
165
330
160
100
AcDbEntity
  8
DIM
100
AcDbLine
 10
12.5025323989
 20
15.6592997248
 30
0.0
 11
12.4539212838
 21
15.6592997248
 31
0.0
  0
LINE
  5
166
330
160
100
AcDbEntity
  8
DIM
100
AcDbLine
 10
12.4539212838
 20
15.6592997248
 30
0.0
 11
12.4539212838
 21
15.4419000329
 31
0.0
  0
LINE
  5
167
330
160
100
AcDbEntity
  8
DIM
100
AcDbLine
 10
12.4539212838
 20
15.4419000329
 30
0.0
 11
12.5025323989
 21
15.4419000329
 31
0.0
  0
LINE
  5
168
330
160
100
AcDbEntity
  8
DIM
100
AcDbLine
 10
12.7185817831
 20
15.6592997248
 30
0.0
 11
12.7671928982
 21
15.6592997248
 31
0.0
  0
LINE
  5
169
330
160
100
AcDbEntity
  8
DIM
100
AcDbLine
 10
12.7671928982
 20
15.6592997248
 30
0.0
 11
12.7671928982
 21
15.4419000329
 31
0.0
  0
LINE
  5
16A
330
160
100
AcDbEntity
  8
DIM
100
AcDbLine
 10
12.7671928982
 20
15.4419000329
 30
0.0
 11
12.7185817831
 21
15.4419000329
 31
0.0
  0
LINE
  5
16B
330
160
100
AcDbEntity
  8
DIM
100
AcDbLine
 10
11.0459250377
 20
16.8564954114
 30
0.0
 11
12.1553101687
 21
15.7471102804
 31
0.0
  0
LINE
  5
16C
330
160
100
AcDbEntity
  8
DIM
100
AcDbLine
 10
11.0459250377
 20
16.8564954114
 30
0.0
 11
10.7709287388
 21
17.1314917104
 31
0.0
  0
LINE
  5
16D
330
160
100
AcDbEntity
  8
DIM
100
AcDbLine
 10
12.1553101687
 20
15.7471102804
 30
0.0
 11
12.4053101687
 21
15.7471102804
 31
0.0
  0
MTEXT
  5
16E
330
160
100
AcDbEntity
  8
DIM
100
AcDbMText
 10
12.4104413528
 20
15.9789202162
 30
0.0
 40
0.1458333333
 41
0.0
 71
     1
 72
     1
  1
R
  7
SLDTEXTSTYLE0
 73
     1
 44
1.0
  0
MTEXT
  5
16F
330
160
100
AcDbEntity
  8
DIM
100
AcDbMText
 10
12.5921928948
 20
16.0782725719
 30
0.0
 40
0.1458333333
 41
0.0
 71
     1
 72
     1
  1
3
  7
SLDTEXTSTYLE0
 73
     1
 44
1.0
  0
MTEXT
  5
170
330
160
100
AcDbEntity
  8
DIM
100
AcDbMText
 10
12.5921928948
 20
15.879696185
 30
0.0
 40
0.1458333333
 41
0.0
 71
     1
 72
     1
  1
4
  7
SLDTEXTSTYLE0
 73
     1
 44
1.0
  0
MTEXT
  5
171
330
160
100
AcDbEntity
  8
DIM
100
AcDbMText
 10
12.7415370146
 20
15.9789202162
 30
0.0
 40
0.1458333333
 41
0.0
 71
     1
 72
     1
  1
"
  7
SLDTEXTSTYLE0
 73
     1
 44
1.0
  0
MTEXT
  5
172
330
160
100
AcDbEntity
  8
DIM
100
AcDbMText
 10
12.5025323989
 20
15.6298890783
 30
0.0
 40
0.1458333333
 41
0.0
 71
     1
 72
     1
  1
19
  7
SLDTEXTSTYLE0
 73
     1
 44
1.0
  0
ENDBLK
  5
162
330
160
100
AcDbEntity
  8
0
100
AcDbBlockEnd
  0
BLOCK
  5
176
330
175
100
AcDbEntity
  8
0
100
AcDbBlockBegin
  2
_D_1
 70
     0
 10
0.0
 20
0.0
 30
0.0
  3
_D_1
  1

  0
SOLID
  5
178
330
175
100
AcDbEntity
  8
DIM
100
AcDbTrace
 10
15.5175228947
 20
5.0761653255
 30
0.0
 11
15.5486351744
 21
5.2783951432
 31
0.0
 12
15.4864106151
 22
5.2783951432
 32
0.0
 13
15.4864106151
 23
5.2783951432
 33
0.0
  0
SOLID
  5
179
330
175
100
AcDbEntity
  8
DIM
100
AcDbTrace
 10
15.5175228947
 20
17.0761653255
 30
0.0
 11
15.4864106151
 21
16.8739355078
 31
0.0
 12
15.5486351744
 22
16.8739355078
 32
0.0
 13
15.5486351744
 23
16.8739355078
 33
0.0
  0
LINE
  5
17A
330
175
100
AcDbEntity
  8
DIM
100
AcDbLine
 10
15.3554858566
 20
12.6937191962
 30
0.0
 11
15.3068747415
 21
12.6937191962
 31
0.0
  0
LINE
  5
17B
330
175
100
AcDbEntity
  8
DIM
100
AcDbLine
 10
15.3068747415
 20
12.6937191962
 30
0.0
 11
15.3068747415
 21
12.4763195043
 31
0.0
  0
LINE
  5
17C
330
175
100
AcDbEntity
  8
DIM
100
AcDbLine
 10
15.3068747415
 20
12.4763195043
 30
0.0
 11
15.3554858566
 21
12.4763195043
 31
0.0
  0
LINE
  5
17D
330
175
100
AcDbEntity
  8
DIM
100
AcDbLine
 10
15.6795599328
 20
12.6937191962
 30
0.0
 11
15.7281710479
 21
12.6937191962
 31
0.0
  0
LINE
  5
17E
330
175
100
AcDbEntity
  8
DIM
100
AcDbLine
 10
15.7281710479
 20
12.6937191962
 30
0.0
 11
15.7281710479
 21
12.4763195043
 31
0.0
  0
LINE
  5
17F
330
175
100
AcDbEntity
  8
DIM
100
AcDbLine
 10
15.7281710479
 20
12.4763195043
 30
0.0
 11
15.6795599328
 21
12.4763195043
 31
0.0
  0
LINE
  5
180
330
175
100
AcDbEntity
  8
DIM
100
AcDbLine
 10
15.5175228947
 20
5.0761653255
 30
0.0
 11
15.5175228947
 21
12.443912082
 31
0.0
  0
LINE
  5
181
330
175
100
AcDbEntity
  8
DIM
100
AcDbLine
 10
15.5175228947
 20
17.0761653255
 30
0.0
 11
15.5175228947
 21
12.9435263104
 31
0.0
  0
MTEXT
  5
182
330
175
100
AcDbEntity
  8
DIM
100
AcDbMText
 10
15.2042512803
 20
12.9141156639
 30
0.0
 40
0.1458333333
 41
0.0
 71
     1
 72
     1
  1
 
  7
SLDTEXTSTYLE0
 73
     1
 44
1.0
  0
MTEXT
  5
183
330
175
100
AcDbEntity
  8
DIM
100
AcDbMText
 10
15.3749303044
 20
12.9141156456
 30
0.0
 40
0.1458333333
 41
0.0
 71
     1
 72
     1
  1
12"
  7
SLDTEXTSTYLE0
 73
     1
 44
1.0
  0
MTEXT
  5
184
330
175
100
AcDbEntity
  8
DIM
100
AcDbMText
 10
15.3554858566
 20
12.6643085497
 30
0.0
 40
0.1458333333
 41
0.0
 71
     1
 72
     1
  1
305
  7
SLDTEXTSTYLE0
 73
     1
 44
1.0
  0
MTEXT
  5
185
330
175
100
AcDbEntity
  8
DIM
100
AcDbMText
 10
15.7767821631
 20
12.9141156639
 30
0.0
 40
0.1458333333
 41
0.0
 71
     1
 72
     1
  1
 
  7
SLDTEXTSTYLE0
 73
     1
 44
1.0
  0
ENDBLK
  5
177
330
175
100
AcDbEntity
  8
0
100
AcDbBlockEnd
  0
BLOCK
  5
188
330
187
100
AcDbEntity
  8
0
100
AcDbBlockBegin
  2
_D_2
 70
     0
 10
0.0
 20
0.0
 30
0.0
  3
_D_2
  1

  0
SOLID
  5
18A
330
187
100
AcDbEntity
  8
DIM
100
AcDbTrace
 10
22.8262551236
 20
8.3649936018
 30
0.0
 11
22.6240253059
 21
8.3961058815
 31
0.0
 12
22.6240253059
 22
8.3338813222
 32
0.0
 13
22.6240253059
 23
8.3338813222
 33
0.0
  0
SOLID
  5
18B
330
187
100
AcDbEntity
  8
DIM
100
AcDbTrace
 10
10.8262551236
 20
8.3649936018
 30
0.0
 11
11.0284849413
 21
8.3338813222
 31
0.0
 12
11.0284849413
 22
8.3961058815
 32
0.0
 13
11.0284849413
 23
8.3961058815
 33
0.0
  0
LINE
  5
18C
330
187
100
AcDbEntity
  8
DIM
100
AcDbLine
 10
17.9687431498
 20
8.3649936018
 30
0.0
 11
17.9201320347
 21
8.3649936018
 31
0.0
  0
LINE
  5
18D
330
187
100
AcDbEntity
  8
DIM
100
AcDbLine
 10
17.9201320347
 20
8.3649936018
 30
0.0
 11
17.9201320347
 21
8.1475939099
 31
0.0
  0
LINE
  5
18E
330
187
100
AcDbEntity
  8
DIM
100
AcDbLine
 10
17.9201320347
 20
8.1475939099
 30
0.0
 11
17.9687431498
 21
8.1475939099
 31
0.0
  0
LINE
  5
18F
330
187
100
AcDbEntity
  8
DIM
100
AcDbLine
 10
18.2928172261
 20
8.3649936018
 30
0.0
 11
18.3414283412
 21
8.3649936018
 31
0.0
  0
LINE
  5
190
330
187
100
AcDbEntity
  8
DIM
100
AcDbLine
 10
18.3414283412
 20
8.3649936018
 30
0.0
 11
18.3414283412
 21
8.1475939099
 31
0.0
  0
LINE
  5
191
330
187
100
AcDbEntity
  8
DIM
100
AcDbLine
 10
18.3414283412
 20
8.1475939099
 30
0.0
 11
18.2928172261
 21
8.1475939099
 31
0.0
  0
LINE
  5
192
330
187
100
AcDbEntity
  8
DIM
100
AcDbLine
 10
22.8262551236
 20
8.3649936018
 30
0.0
 11
18.4764323896
 21
8.3649936018
 31
0.0
  0
LINE
  5
193
330
187
100
AcDbEntity
  8
DIM
100
AcDbLine
 10
10.8262551236
 20
8.3649936018
 30
0.0
 11
17.7851279863
 21
8.3649936018
 31
0.0
  0
MTEXT
  5
194
330
187
100
AcDbEntity
  8
DIM
100
AcDbMText
 10
17.8175085736
 20
8.5853900695
 30
0.0
 40
0.1458333333
 41
0.0
 71
     1
 72
     1
  1
 
  7
SLDTEXTSTYLE0
 73
     1
 44
1.0
  0
MTEXT
  5
195
330
187
100
AcDbEntity
  8
DIM
100
AcDbMText
 10
17.9881875977
 20
8.5853900512
 30
0.0
 40
0.1458333333
 41
0.0
 71
     1
 72
     1
  1
12"
  7
SLDTEXTSTYLE0
 73
     1
 44
1.0
  0
MTEXT
  5
196
330
187
100
AcDbEntity
  8
DIM
100
AcDbMText
 10
17.9687431498
 20
8.3355829553
 30
0.0
 40
0.1458333333
 41
0.0
 71
     1
 72
     1
  1
305
  7
SLDTEXTSTYLE0
 73
     1
 44
1.0
  0
MTEXT
  5
197
330
187
100
AcDbEntity
  8
DIM
100
AcDbMText
 10
18.3900394563
 20
8.5853900695
 30
0.0
 40
0.1458333333
 41
0.0
 71
     1
 72
     1
  1
 
  7
SLDTEXTSTYLE0
 73
     1
 44
1.0
  0
ENDBLK
  5
189
330
187
100
AcDbEntity
  8
0
100
AcDbBlockEnd
  0
BLOCK
  5
19B
330
19A
100
AcDbEntity
  8
0
100
AcDbBlockBegin
  2
_D_3
 70
     0
 10
0.0
 20
0.0
 30
0.0
  3
_D_3
  1

  0
SOLID
  5
19D
330
19A
100
AcDbEntity
  8
DIM
100
AcDbTrace
 10
10.9512551236
 20
7.7467197845
 30
0.0
 11
11.1534849413
 21
7.7156075048
 31
0.0
 12
11.1534849413
 22
7.7778320641
 32
0.0
 13
11.1534849413
 23
7.7778320641
 33
0.0
  0
SOLID
  5
19E
330
19A
100
AcDbEntity
  8
DIM
100
AcDbTrace
 10
22.7012551236
 20
7.7467197845
 30
0.0
 11
22.4990253059
 21
7.7778320641
 31
0.0
 12
22.4990253059
 22
7.7156075048
 32
0.0
 13
22.4990253059
 23
7.7156075048
 33
0.0
  0
LINE
  5
19F
330
19A
100
AcDbEntity
  8
DIM
100
AcDbLine
 10
17.0266934459
 20
7.9022888652
 30
0.0
 11
17.176037584
 21
7.9022888652
 31
0.0
  0
LINE
  5
1A0
330
19A
100
AcDbEntity
  8
DIM
100
AcDbLine
 10
16.8658716921
 20
7.6589092288
 30
0.0
 11
16.817260577
 21
7.6589092288
 31
0.0
  0
LINE
  5
1A1
330
19A
100
AcDbEntity
  8
DIM
100
AcDbLine
 10
16.817260577
 20
7.6589092288
 30
0.0
 11
16.817260577
 21
7.4415095369
 31
0.0
  0
LINE
  5
1A2
330
19A
100
AcDbEntity
  8
DIM
100
AcDbLine
 10
16.817260577
 20
7.4415095369
 30
0.0
 11
16.8658716921
 21
7.4415095369
 31
0.0
  0
LINE
  5
1A3
330
19A
100
AcDbEntity
  8
DIM
100
AcDbLine
 10
17.1899457684
 20
7.6589092288
 30
0.0
 11
17.2385568835
 21
7.6589092288
 31
0.0
  0
LINE
  5
1A4
330
19A
100
AcDbEntity
  8
DIM
100
AcDbLine
 10
17.2385568835
 20
7.6589092288
 30
0.0
 11
17.2385568835
 21
7.4415095369
 31
0.0
  0
LINE
  5
1A5
330
19A
100
AcDbEntity
  8
DIM
100
AcDbLine
 10
17.2385568835
 20
7.4415095369
 30
0.0
 11
17.1899457684
 21
7.4415095369
 31
0.0
  0
LINE
  5
1A6
330
19A
100
AcDbEntity
  8
DIM
100
AcDbLine
 10
10.9512551236
 20
7.7467197845
 30
0.0
 11
16.6822565286
 21
7.7467197845
 31
0.0
  0
LINE
  5
1A7
330
19A
100
AcDbEntity
  8
DIM
100
AcDbLine
 10
22.7012551236
 20
7.7467197845
 30
0.0
 11
17.3735609319
 21
7.7467197845
 31
0.0
  0
MTEXT
  5
1A8
330
19A
100
AcDbEntity
  8
DIM
100
AcDbMText
 10
16.7146371158
 20
7.9785297019
 30
0.0
 40
0.1458333333
 41
0.0
 71
     1
 72
     1
  1
 
  7
SLDTEXTSTYLE0
 73
     1
 44
1.0
  0
MTEXT
  5
1A9
330
19A
100
AcDbEntity
  8
DIM
100
AcDbMText
 10
16.7899843387
 20
7.9785297203
 30
0.0
 40
0.1458333333
 41
0.0
 71
     1
 72
     1
  1
11
  7
SLDTEXTSTYLE0
 73
     1
 44
1.0
  0
MTEXT
  5
1AA
330
19A
100
AcDbEntity
  8
DIM
100
AcDbMText
 10
17.0473531689
 20
8.0778820759
 30
0.0
 40
0.1458333333
 41
0.0
 71
     1
 72
     1
  1
3
  7
SLDTEXTSTYLE0
 73
     1
 44
1.0
  0
MTEXT
  5
1AB
330
19A
100
AcDbEntity
  8
DIM
100
AcDbMText
 10
17.0473531689
 20
7.8793056891
 30
0.0
 40
0.1458333333
 41
0.0
 71
     1
 72
     1
  1
4
  7
SLDTEXTSTYLE0
 73
     1
 44
1.0
  0
MTEXT
  5
1AC
330
19A
100
AcDbEntity
  8
DIM
100
AcDbMText
 10
17.196697307
 20
7.9785297203
 30
0.0
 40
0.1458333333
 41
0.0
 71
     1
 72
     1
  1
"
  7
SLDTEXTSTYLE0
 73
     1
 44
1.0
  0
MTEXT
  5
1AD
330
19A
100
AcDbEntity
  8
DIM
100
AcDbMText
 10
16.8658716921
 20
7.6294985823
 30
0.0
 40
0.1458333333
 41
0.0
 71
     1
 72
     1
  1
298
  7
SLDTEXTSTYLE0
 73
     1
 44
1.0
  0
MTEXT
  5
1AE
330
19A
100
AcDbEntity
  8
DIM
100
AcDbMText
 10
17.2871679986
 20
7.9785297019
 30
0.0
 40
0.1458333333
 41
0.0
 71
     1
 72
     1
  1
 
  7
SLDTEXTSTYLE0
 73
     1
 44
1.0
  0
ENDBLK
  5
19C
330
19A
100
AcDbEntity
  8
0
100
AcDbBlockEnd
  0
BLOCK
  5
1B1
330
1B0
100
AcDbEntity
  8
0
100
AcDbBlockBegin
  2
_D_4
 70
     0
 10
0.0
 20
0.0
 30
0.0
  3
_D_4
  1

  0
SOLID
  5
1B3
330
1B0
100
AcDbEntity
  8
DIM
100
AcDbTrace
 10
15.0353066425
 20
5.2011653255
 30
0.0
 11
15.0664189222
 21
5.4033951432
 31
0.0
 12
15.0041943629
 22
5.4033951432
 32
0.0
 13
15.0041943629
 23
5.4033951432
 33
0.0
  0
SOLID
  5
1B4
330
1B0
100
AcDbEntity
  8
DIM
100
AcDbTrace
 10
15.0353066425
 20
16.9511653255
 30
0.0
 11
15.0041943629
 21
16.7489355078
 31
0.0
 12
15.0664189222
 22
16.7489355078
 32
0.0
 13
15.0664189222
 23
16.7489355078
 33
0.0
  0
LINE
  5
1B5
330
1B0
100
AcDbEntity
  8
DIM
100
AcDbLine
 10
15.0340913582
 20
11.6150791163
 30
0.0
 11
15.1834354963
 21
11.6150791163
 31
0.0
  0
LINE
  5
1B6
330
1B0
100
AcDbEntity
  8
DIM
100
AcDbLine
 10
14.8732696044
 20
11.37169948
 30
0.0
 11
14.8246584893
 21
11.37169948
 31
0.0
  0
LINE
  5
1B7
330
1B0
100
AcDbEntity
  8
DIM
100
AcDbLine
 10
14.8246584893
 20
11.37169948
 30
0.0
 11
14.8246584893
 21
11.154299788
 31
0.0
  0
LINE
  5
1B8
330
1B0
100
AcDbEntity
  8
DIM
100
AcDbLine
 10
14.8246584893
 20
11.154299788
 30
0.0
 11
14.8732696044
 21
11.154299788
 31
0.0
  0
LINE
  5
1B9
330
1B0
100
AcDbEntity
  8
DIM
100
AcDbLine
 10
15.1973436807
 20
11.37169948
 30
0.0
 11
15.2459547958
 21
11.37169948
 31
0.0
  0
LINE
  5
1BA
330
1B0
100
AcDbEntity
  8
DIM
100
AcDbLine
 10
15.2459547958
 20
11.37169948
 30
0.0
 11
15.2459547958
 21
11.154299788
 31
0.0
  0
LINE
  5
1BB
330
1B0
100
AcDbEntity
  8
DIM
100
AcDbLine
 10
15.2459547958
 20
11.154299788
 30
0.0
 11
15.1973436807
 21
11.154299788
 31
0.0
  0
LINE
  5
1BC
330
1B0
100
AcDbEntity
  8
DIM
100
AcDbLine
 10
15.0353066425
 20
5.2011653255
 30
0.0
 11
15.0353066425
 21
11.1218923658
 31
0.0
  0
LINE
  5
1BD
330
1B0
100
AcDbEntity
  8
DIM
100
AcDbLine
 10
15.0353066425
 20
16.9511653255
 30
0.0
 11
15.0353066425
 21
11.7971277054
 31
0.0
  0
MTEXT
  5
1BE
330
1B0
100
AcDbEntity
  8
DIM
100
AcDbMText
 10
14.7220350281
 20
11.6913199531
 30
0.0
 40
0.1458333333
 41
0.0
 71
     1
 72
     1
  1
 
  7
SLDTEXTSTYLE0
 73
     1
 44
1.0
  0
MTEXT
  5
1BF
330
1B0
100
AcDbEntity
  8
DIM
100
AcDbMText
 10
14.7973822511
 20
11.6913199714
 30
0.0
 40
0.1458333333
 41
0.0
 71
     1
 72
     1
  1
11
  7
SLDTEXTSTYLE0
 73
     1
 44
1.0
  0
MTEXT
  5
1C0
330
1B0
100
AcDbEntity
  8
DIM
100
AcDbMText
 10
15.0547510812
 20
11.790672327
 30
0.0
 40
0.1458333333
 41
0.0
 71
     1
 72
     1
  1
3
  7
SLDTEXTSTYLE0
 73
     1
 44
1.0
  0
MTEXT
  5
1C1
330
1B0
100
AcDbEntity
  8
DIM
100
AcDbMText
 10
15.0547510812
 20
11.5920959402
 30
0.0
 40
0.1458333333
 41
0.0
 71
     1
 72
     1
  1
4
  7
SLDTEXTSTYLE0
 73
     1
 44
1.0
  0
MTEXT
  5
1C2
330
1B0
100
AcDbEntity
  8
DIM
100
AcDbMText
 10
15.2040952193
 20
11.6913199714
 30
0.0
 40
0.1458333333
 41
0.0
 71
     1
 72
     1
  1
"
  7
SLDTEXTSTYLE0
 73
     1
 44
1.0
  0
MTEXT
  5
1C3
330
1B0
100
AcDbEntity
  8
DIM
100
AcDbMText
 10
14.8732696044
 20
11.3422888334
 30
0.0
 40
0.1458333333
 41
0.0
 71
     1
 72
     1
  1
298
  7
SLDTEXTSTYLE0
 73
     1
 44
1.0
  0
MTEXT
  5
1C4
330
1B0
100
AcDbEntity
  8
DIM
100
AcDbMText
 10
15.2945659109
 20
11.6913199531
 30
0.0
 40
0.1458333333
 41
0.0
 71
     1
 72
     1
  1
 
  7
SLDTEXTSTYLE0
 73
     1
 44
1.0
  0
ENDBLK
  5
1B2
330
1B0
100
AcDbEntity
  8
0
100
AcDbBlockEnd
  0
BLOCK
  5
1C8
330
1C7
100
AcDbEntity
  8
0
100
AcDbBlockBegin
  2
_D_5
 70
     0
 10
0.0
 20
0.0
 30
0.0
  3
_D_5
  1

  0
SOLID
  5
1CA
330
1C7
100
AcDbEntity
  8
DIM
100
AcDbTrace
 10
22.5655848829
 20
5.4373448185
 30
0.0
 11
22.4266089218
 21
5.5875132418
 31
0.0
 12
22.3878982263
 22
5.538795916
 32
0.0
 13
22.3878982263
 23
5.538795916
 33
0.0
  0
LINE
  5
1CB
330
1C7
100
AcDbEntity
  8
DIM
100
AcDbLine
 10
20.9522796902
 20
6.4820964916
 30
0.0
 11
21.1016238283
 21
6.4820964916
 31
0.0
  0
LINE
  5
1CC
330
1C7
100
AcDbEntity
  8
DIM
100
AcDbLine
 10
20.8832789173
 20
6.2387168552
 30
0.0
 11
20.8346678022
 21
6.2387168552
 31
0.0
  0
LINE
  5
1CD
330
1C7
100
AcDbEntity
  8
DIM
100
AcDbLine
 10
20.8346678022
 20
6.2387168552
 30
0.0
 11
20.8346678022
 21
6.0213171633
 31
0.0
  0
LINE
  5
1CE
330
1C7
100
AcDbEntity
  8
DIM
100
AcDbLine
 10
20.8346678022
 20
6.0213171633
 30
0.0
 11
20.8832789173
 21
6.0213171633
 31
0.0
  0
LINE
  5
1CF
330
1C7
100
AcDbEntity
  8
DIM
100
AcDbLine
 10
21.0993283015
 20
6.2387168552
 30
0.0
 11
21.1479394166
 21
6.2387168552
 31
0.0
  0
LINE
  5
1D0
330
1C7
100
AcDbEntity
  8
DIM
100
AcDbLine
 10
21.1479394166
 20
6.2387168552
 30
0.0
 11
21.1479394166
 21
6.0213171633
 31
0.0
  0
LINE
  5
1D1
330
1C7
100
AcDbEntity
  8
DIM
100
AcDbLine
 10
21.1479394166
 20
6.0213171633
 30
0.0
 11
21.0993283015
 21
6.0213171633
 31
0.0
  0
LINE
  5
1D2
330
1C7
100
AcDbEntity
  8
DIM
100
AcDbLine
 10
22.5655848829
 20
5.4373448185
 30
0.0
 11
21.4465505317
 21
6.3265274108
 31
0.0
  0
LINE
  5
1D3
330
1C7
100
AcDbEntity
  8
DIM
100
AcDbLine
 10
21.4465505317
 20
6.3265274108
 30
0.0
 11
21.1965505317
 21
6.3265274108
 31
0.0
  0
MTEXT
  5
1D4
330
1C7
100
AcDbEntity
  8
DIM
100
AcDbMText
 10
20.7911878711
 20
6.5583373466
 30
0.0
 40
0.1458333333
 41
0.0
 71
     1
 72
     1
  1
R
  7
SLDTEXTSTYLE0
 73
     1
 44
1.0
  0
MTEXT
  5
1D5
330
1C7
100
AcDbEntity
  8
DIM
100
AcDbMText
 10
20.9729394132
 20
6.6576897022
 30
0.0
 40
0.1458333333
 41
0.0
 71
     1
 72
     1
  1
5
  7
SLDTEXTSTYLE0
 73
     1
 44
1.0
  0
MTEXT
  5
1D6
330
1C7
100
AcDbEntity
  8
DIM
100
AcDbMText
 10
20.9729394132
 20
6.4591133154
 30
0.0
 40
0.1458333333
 41
0.0
 71
     1
 72
     1
  1
8
  7
SLDTEXTSTYLE0
 73
     1
 44
1.0
  0
MTEXT
  5
1D7
330
1C7
100
AcDbEntity
  8
DIM
100
AcDbMText
 10
21.1222835329
 20
6.5583373466
 30
0.0
 40
0.1458333333
 41
0.0
 71
     1
 72
     1
  1
"
  7
SLDTEXTSTYLE0
 73
     1
 44
1.0
  0
MTEXT
  5
1D8
330
1C7
100
AcDbEntity
  8
DIM
100
AcDbMText
 10
20.8832789173
 20
6.2093062087
 30
0.0
 40
0.1458333333
 41
0.0
 71
     1
 72
     1
  1
16
  7
SLDTEXTSTYLE0
 73
     1
 44
1.0
  0
ENDBLK
  5
1C9
330
1C7
100
AcDbEntity
  8
0
100
AcDbBlockEnd
  0
BLOCK
  5
1DB
330
1DA
100
AcDbEntity
  8
0
100
AcDbBlockBegin
  2
_D_6
 70
     0
 10
0.0
 20
0.0
 30
0.0
  3
_D_6
  1

  0
SOLID
  5
1DD
330
1DA
100
AcDbEntity
  8
DIM
100
AcDbTrace
 10
10.3262551236
 20
8.9598317595
 30
0.0
 11
10.5284849413
 21
8.9287194799
 31
0.0
 12
10.5284849413
 22
8.9909440392
 32
0.0
 13
10.5284849413
 23
8.9909440392
 33
0.0
  0
SOLID
  5
1DE
330
1DA
100
AcDbEntity
  8
DIM
100
AcDbTrace
 10
23.3262551236
 20
8.9598317595
 30
0.0
 11
23.1240253059
 21
8.9909440392
 31
0.0
 12
23.1240253059
 22
8.9287194799
 32
0.0
 13
23.1240253059
 23
8.9287194799
 33
0.0
  0
LINE
  5
1DF
330
1DA
100
AcDbEntity
  8
DIM
100
AcDbLine
 10
16.5319204178
 20
8.9598317595
 30
0.0
 11
16.4833093027
 21
8.9598317595
 31
0.0
  0
LINE
  5
1E0
330
1DA
100
AcDbEntity
  8
DIM
100
AcDbLine
 10
16.4833093027
 20
8.9598317595
 30
0.0
 11
16.4833093027
 21
8.7424320676
 31
0.0
  0
LINE
  5
1E1
330
1DA
100
AcDbEntity
  8
DIM
100
AcDbLine
 10
16.4833093027
 20
8.7424320676
 30
0.0
 11
16.5319204178
 21
8.7424320676
 31
0.0
  0
LINE
  5
1E2
330
1DA
100
AcDbEntity
  8
DIM
100
AcDbLine
 10
16.8559944941
 20
8.9598317595
 30
0.0
 11
16.9046056092
 21
8.9598317595
 31
0.0
  0
LINE
  5
1E3
330
1DA
100
AcDbEntity
  8
DIM
100
AcDbLine
 10
16.9046056092
 20
8.9598317595
 30
0.0
 11
16.9046056092
 21
8.7424320676
 31
0.0
  0
LINE
  5
1E4
330
1DA
100
AcDbEntity
  8
DIM
100
AcDbLine
 10
16.9046056092
 20
8.7424320676
 30
0.0
 11
16.8559944941
 21
8.7424320676
 31
0.0
  0
LINE
  5
1E5
330
1DA
100
AcDbEntity
  8
DIM
100
AcDbLine
 10
10.3262551236
 20
8.9598317595
 30
0.0
 11
16.3483052543
 21
8.9598317595
 31
0.0
  0
LINE
  5
1E6
330
1DA
100
AcDbEntity
  8
DIM
100
AcDbLine
 10
23.3262551236
 20
8.9598317595
 30
0.0
 11
17.0396096576
 21
8.9598317595
 31
0.0
  0
MTEXT
  5
1E7
330
1DA
100
AcDbEntity
  8
DIM
100
AcDbMText
 10
16.3806858416
 20
9.1802282272
 30
0.0
 40
0.1458333333
 41
0.0
 71
     1
 72
     1
  1
 
  7
SLDTEXTSTYLE0
 73
     1
 44
1.0
  0
MTEXT
  5
1E8
330
1DA
100
AcDbEntity
  8
DIM
100
AcDbMText
 10
16.5513648657
 20
9.1802282089
 30
0.0
 40
0.1458333333
 41
0.0
 71
     1
 72
     1
  1
13"
  7
SLDTEXTSTYLE0
 73
     1
 44
1.0
  0
MTEXT
  5
1E9
330
1DA
100
AcDbEntity
  8
DIM
100
AcDbMText
 10
16.5319204178
 20
8.930421113
 30
0.0
 40
0.1458333333
 41
0.0
 71
     1
 72
     1
  1
330
  7
SLDTEXTSTYLE0
 73
     1
 44
1.0
  0
MTEXT
  5
1EA
330
1DA
100
AcDbEntity
  8
DIM
100
AcDbMText
 10
16.9532167243
 20
9.1802282272
 30
0.0
 40
0.1458333333
 41
0.0
 71
     1
 72
     1
  1
 
  7
SLDTEXTSTYLE0
 73
     1
 44
1.0
  0
ENDBLK
  5
1DC
330
1DA
100
AcDbEntity
  8
0
100
AcDbBlockEnd
  0
BLOCK
  5
1ED
330
1EC
100
AcDbEntity
  8
0
100
AcDbBlockBegin
  2
_D_7
 70
     0
 10
0.0
 20
0.0
 30
0.0
  3
_D_7
  1

  0
SOLID
  5
1EF
330
1EC
100
AcDbEntity
  8
DIM
100
AcDbTrace
 10
16.054937392
 20
4.5761653255
 30
0.0
 11
16.0860496717
 21
4.7783951432
 31
0.0
 12
16.0238251124
 22
4.7783951432
 32
0.0
 13
16.0238251124
 23
4.7783951432
 33
0.0
  0
SOLID
  5
1F0
330
1EC
100
AcDbEntity
  8
DIM
100
AcDbTrace
 10
16.054937392
 20
17.5761653255
 30
0.0
 11
16.0238251124
 21
17.3739355078
 31
0.0
 12
16.0860496717
 22
17.3739355078
 32
0.0
 13
16.0860496717
 23
17.3739355078
 33
0.0
  0
LINE
  5
1F1
330
1EC
100
AcDbEntity
  8
DIM
100
AcDbLine
 10
15.8929003539
 20
10.5557288846
 30
0.0
 11
15.8442892388
 21
10.5557288846
 31
0.0
  0
LINE
  5
1F2
330
1EC
100
AcDbEntity
  8
DIM
100
AcDbLine
 10
15.8442892388
 20
10.5557288846
 30
0.0
 11
15.8442892388
 21
10.3383291927
 31
0.0
  0
LINE
  5
1F3
330
1EC
100
AcDbEntity
  8
DIM
100
AcDbLine
 10
15.8442892388
 20
10.3383291927
 30
0.0
 11
15.8929003539
 21
10.3383291927
 31
0.0
  0
LINE
  5
1F4
330
1EC
100
AcDbEntity
  8
DIM
100
AcDbLine
 10
16.2169744302
 20
10.5557288846
 30
0.0
 11
16.2655855453
 21
10.5557288846
 31
0.0
  0
LINE
  5
1F5
330
1EC
100
AcDbEntity
  8
DIM
100
AcDbLine
 10
16.2655855453
 20
10.5557288846
 30
0.0
 11
16.2655855453
 21
10.3383291927
 31
0.0
  0
LINE
  5
1F6
330
1EC
100
AcDbEntity
  8
DIM
100
AcDbLine
 10
16.2655855453
 20
10.3383291927
 30
0.0
 11
16.2169744302
 21
10.3383291927
 31
0.0
  0
LINE
  5
1F7
330
1EC
100
AcDbEntity
  8
DIM
100
AcDbLine
 10
16.054937392
 20
4.5761653255
 30
0.0
 11
16.054937392
 21
10.3059217704
 31
0.0
  0
LINE
  5
1F8
330
1EC
100
AcDbEntity
  8
DIM
100
AcDbLine
 10
16.054937392
 20
17.5761653255
 30
0.0
 11
16.054937392
 21
10.8055359988
 31
0.0
  0
MTEXT
  5
1F9
330
1EC
100
AcDbEntity
  8
DIM
100
AcDbMText
 10
15.7416657776
 20
10.7761253523
 30
0.0
 40
0.1458333333
 41
0.0
 71
     1
 72
     1
  1
 
  7
SLDTEXTSTYLE0
 73
     1
 44
1.0
  0
MTEXT
  5
1FA
330
1EC
100
AcDbEntity
  8
DIM
100
AcDbMText
 10
15.9123448018
 20
10.776125334
 30
0.0
 40
0.1458333333
 41
0.0
 71
     1
 72
     1
  1
13"
  7
SLDTEXTSTYLE0
 73
     1
 44
1.0
  0
MTEXT
  5
1FB
330
1EC
100
AcDbEntity
  8
DIM
100
AcDbMText
 10
15.8929003539
 20
10.5263182381
 30
0.0
 40
0.1458333333
 41
0.0
 71
     1
 72
     1
  1
330
  7
SLDTEXTSTYLE0
 73
     1
 44
1.0
  0
MTEXT
  5
1FC
330
1EC
100
AcDbEntity
  8
DIM
100
AcDbMText
 10
16.3141966604
 20
10.7761253523
 30
0.0
 40
0.1458333333
 41
0.0
 71
     1
 72
     1
  1
 
  7
SLDTEXTSTYLE0
 73
     1
 44
1.0
  0
ENDBLK
  5
1EE
330
1EC
100
AcDbEntity
  8
0
100
AcDbBlockEnd
  0
BLOCK
  5
1FF
330
1FE
100
AcDbEntity
  8
0
100
AcDbBlockBegin
  2
_D_8
 70
     0
 10
0.0
 20
0.0
 30
0.0
  3
_D_8
  1

  0
SOLID
  5
201
330
1FE
100
AcDbEntity
  8
DIM
100
AcDbTrace
 10
22.9030374008
 20
17.2636785607
 30
0.0
 11
22.7459428382
 21
17.1325825213
 31
0.0
 12
22.7926119166
 22
17.0914255911
 32
0.0
 13
22.7926119166
 23
17.0914255911
 33
0.0
  0
LINE
  5
202
330
1FE
100
AcDbEntity
  8
DIM
100
AcDbLine
 10
21.2719281907
 20
16.1243340961
 30
0.0
 11
21.4212723288
 21
16.1243340961
 31
0.0
  0
LINE
  5
203
330
1FE
100
AcDbEntity
  8
DIM
100
AcDbLine
 10
21.1489150718
 20
15.8809544597
 30
0.0
 11
21.1003039566
 21
15.8809544597
 31
0.0
  0
LINE
  5
204
330
1FE
100
AcDbEntity
  8
DIM
100
AcDbLine
 10
21.1003039566
 20
15.8809544597
 30
0.0
 11
21.1003039566
 21
15.6635547678
 31
0.0
  0
LINE
  5
205
330
1FE
100
AcDbEntity
  8
DIM
100
AcDbLine
 10
21.1003039566
 20
15.6635547678
 30
0.0
 11
21.1489150718
 21
15.6635547678
 31
0.0
  0
LINE
  5
206
330
1FE
100
AcDbEntity
  8
DIM
100
AcDbLine
 10
21.3649644559
 20
15.8809544597
 30
0.0
 11
21.413575571
 21
15.8809544597
 31
0.0
  0
LINE
  5
207
330
1FE
100
AcDbEntity
  8
DIM
100
AcDbLine
 10
21.413575571
 20
15.8809544597
 30
0.0
 11
21.413575571
 21
15.6635547678
 31
0.0
  0
LINE
  5
208
330
1FE
100
AcDbEntity
  8
DIM
100
AcDbLine
 10
21.413575571
 20
15.6635547678
 30
0.0
 11
21.3649644559
 21
15.6635547678
 31
0.0
  0
LINE
  5
209
330
1FE
100
AcDbEntity
  8
DIM
100
AcDbLine
 10
22.9030374008
 20
17.2636785607
 30
0.0
 11
21.7610678481
 21
15.9687650153
 31
0.0
  0
LINE
  5
20A
330
1FE
100
AcDbEntity
  8
DIM
100
AcDbLine
 10
21.7610678481
 20
15.9687650153
 30
0.0
 11
21.5110678481
 21
15.9687650153
 31
0.0
  0
MTEXT
  5
20B
330
1FE
100
AcDbEntity
  8
DIM
100
AcDbMText
 10
21.0028116796
 20
16.2005749511
 30
0.0
 40
0.1458333333
 41
0.0
 71
     1
 72
     1
  1
R1
  7
SLDTEXTSTYLE0
 73
     1
 44
1.0
  0
MTEXT
  5
20C
330
1FE
100
AcDbEntity
  8
DIM
100
AcDbMText
 10
21.2925879137
 20
16.2999273067
 30
0.0
 40
0.1458333333
 41
0.0
 71
     1
 72
     1
  1
1
  7
SLDTEXTSTYLE0
 73
     1
 44
1.0
  0
MTEXT
  5
20D
330
1FE
100
AcDbEntity
  8
DIM
100
AcDbMText
 10
21.2925879137
 20
16.1013509199
 30
0.0
 40
0.1458333333
 41
0.0
 71
     1
 72
     1
  1
4
  7
SLDTEXTSTYLE0
 73
     1
 44
1.0
  0
MTEXT
  5
20E
330
1FE
100
AcDbEntity
  8
DIM
100
AcDbMText
 10
21.4419320335
 20
16.2005749511
 30
0.0
 40
0.1458333333
 41
0.0
 71
     1
 72
     1
  1
"
  7
SLDTEXTSTYLE0
 73
     1
 44
1.0
  0
MTEXT
  5
20F
330
1FE
100
AcDbEntity
  8
DIM
100
AcDbMText
 10
21.1489150718
 20
15.8515438132
 30
0.0
 40
0.1458333333
 41
0.0
 71
     1
 72
     1
  1
32
  7
SLDTEXTSTYLE0
 73
     1
 44
1.0
  0
ENDBLK
  5
200
330
1FE
100
AcDbEntity
  8
0
100
AcDbBlockEnd
  0
BLOCK
  5
212
330
211
100
AcDbEntity
  8
0
100
AcDbBlockBegin
  2
_D_9
 70
     0
 10
0.0
 20
0.0
 30
0.0
  3
_D_9
  1

  0
SOLID
  5
214
330
211
100
AcDbEntity
  8
DIM
100
AcDbTrace
 10
14.4946211307
 20
17.0761653255
 30
0.0
 11
14.5257334104
 21
17.2783951432
 31
0.0
 12
14.4635088511
 22
17.2783951432
 32
0.0
 13
14.4635088511
 23
17.2783951432
 33
0.0
  0
SOLID
  5
215
330
211
100
AcDbEntity
  8
DIM
100
AcDbTrace
 10
14.4946211307
 20
17.5761653255
 30
0.0
 11
14.4635088511
 21
17.3739355078
 31
0.0
 12
14.5257334104
 22
17.3739355078
 32
0.0
 13
14.5257334104
 23
17.3739355078
 33
0.0
  0
LINE
  5
216
330
211
100
AcDbEntity
  8
DIM
100
AcDbLine
 10
13.7789801334
 20
16.4605540104
 30
0.0
 11
13.9283242714
 21
16.4605540104
 31
0.0
  0
LINE
  5
217
330
211
100
AcDbEntity
  8
DIM
100
AcDbLine
 10
13.7801954085
 20
16.217174374
 30
0.0
 11
13.7315842934
 21
16.217174374
 31
0.0
  0
LINE
  5
218
330
211
100
AcDbEntity
  8
DIM
100
AcDbLine
 10
13.7315842934
 20
16.217174374
 30
0.0
 11
13.7315842934
 21
15.9997746821
 31
0.0
  0
LINE
  5
219
330
211
100
AcDbEntity
  8
DIM
100
AcDbLine
 10
13.7315842934
 20
15.9997746821
 30
0.0
 11
13.7801954085
 21
15.9997746821
 31
0.0
  0
LINE
  5
21A
330
211
100
AcDbEntity
  8
DIM
100
AcDbLine
 10
13.9962447927
 20
16.217174374
 30
0.0
 11
14.0448559078
 21
16.217174374
 31
0.0
  0
LINE
  5
21B
330
211
100
AcDbEntity
  8
DIM
100
AcDbLine
 10
14.0448559078
 20
16.217174374
 30
0.0
 11
14.0448559078
 21
15.9997746821
 31
0.0
  0
LINE
  5
21C
330
211
100
AcDbEntity
  8
DIM
100
AcDbLine
 10
14.0448559078
 20
15.9997746821
 30
0.0
 11
13.9962447927
 21
15.9997746821
 31
0.0
  0
LINE
  5
21D
330
211
100
AcDbEntity
  8
DIM
100
AcDbLine
 10
14.2446211307
 20
16.3049849296
 30
0.0
 11
14.4946211307
 21
16.3049849296
 31
0.0
  0
LINE
  5
21E
330
211
100
AcDbEntity
  8
DIM
100
AcDbLine
 10
14.4946211307
 20
16.3049849296
 30
0.0
 11
14.4946211307
 21
17.0761653255
 31
0.0
  0
LINE
  5
21F
330
211
100
AcDbEntity
  8
DIM
100
AcDbLine
 10
14.4946211307
 20
17.0761653255
 30
0.0
 11
14.4946211307
 21
17.5761653255
 31
0.0
  0
MTEXT
  5
220
330
211
100
AcDbEntity
  8
DIM
100
AcDbMText
 10
13.6289608322
 20
16.5367948471
 30
0.0
 40
0.1458333333
 41
0.0
 71
     1
 72
     1
  1
 
  7
SLDTEXTSTYLE0
 73
     1
 44
1.0
  0
MTEXT
  5
221
330
211
100
AcDbEntity
  8
DIM
100
AcDbMText
 10
13.7996398564
 20
16.6361472211
 30
0.0
 40
0.1458333333
 41
0.0
 71
     1
 72
     1
  1
1
  7
SLDTEXTSTYLE0
 73
     1
 44
1.0
  0
MTEXT
  5
222
330
211
100
AcDbEntity
  8
DIM
100
AcDbMText
 10
13.7996398564
 20
16.4375708343
 30
0.0
 40
0.1458333333
 41
0.0
 71
     1
 72
     1
  1
2
  7
SLDTEXTSTYLE0
 73
     1
 44
1.0
  0
MTEXT
  5
223
330
211
100
AcDbEntity
  8
DIM
100
AcDbMText
 10
13.9489839945
 20
16.5367948655
 30
0.0
 40
0.1458333333
 41
0.0
 71
     1
 72
     1
  1
"
  7
SLDTEXTSTYLE0
 73
     1
 44
1.0
  0
MTEXT
  5
224
330
211
100
AcDbEntity
  8
DIM
100
AcDbMText
 10
13.7801954085
 20
16.1877637275
 30
0.0
 40
0.1458333333
 41
0.0
 71
     1
 72
     1
  1
13
  7
SLDTEXTSTYLE0
 73
     1
 44
1.0
  0
MTEXT
  5
225
330
211
100
AcDbEntity
  8
DIM
100
AcDbMText
 10
14.0934670229
 20
16.5367948471
 30
0.0
 40
0.1458333333
 41
0.0
 71
     1
 72
     1
  1
 
  7
SLDTEXTSTYLE0
 73
     1
 44
1.0
  0
ENDBLK
  5
213
330
211
100
AcDbEntity
  8
0
100
AcDbBlockEnd
  0
BLOCK
  5
229
330
228
100
AcDbEntity
  8
0
100
AcDbBlockBegin
  2
_D_10
 70
     0
 10
0.0
 20
0.0
 30
0.0
  3
_D_10
  1

  0
SOLID
  5
22B
330
228
100
AcDbEntity
  8
DIM
100
AcDbTrace
 10
22.7012551236
 20
7.1549130553
 30
0.0
 11
22.4990253059
 21
7.186025335
 31
0.0
 12
22.4990253059
 22
7.1238007757
 32
0.0
 13
22.4990253059
 23
7.1238007757
 33
0.0
  0
SOLID
  5
22C
330
228
100
AcDbEntity
  8
DIM
100
AcDbTrace
 10
22.8262551236
 20
7.1549130553
 30
0.0
 11
23.0284849413
 21
7.1238007757
 31
0.0
 12
23.0284849413
 22
7.186025335
 32
0.0
 13
23.0284849413
 23
7.186025335
 33
0.0
  0
LINE
  5
22D
330
228
100
AcDbEntity
  8
DIM
100
AcDbLine
 10
21.9385971629
 20
7.3104821361
 30
0.0
 11
22.087941301
 21
7.3104821361
 31
0.0
  0
LINE
  5
22E
330
228
100
AcDbEntity
  8
DIM
100
AcDbLine
 10
21.9938247841
 20
7.0671024997
 30
0.0
 11
21.945213669
 21
7.0671024997
 31
0.0
  0
LINE
  5
22F
330
228
100
AcDbEntity
  8
DIM
100
AcDbLine
 10
21.945213669
 20
7.0671024997
 30
0.0
 11
21.945213669
 21
6.8497028078
 31
0.0
  0
LINE
  5
230
330
228
100
AcDbEntity
  8
DIM
100
AcDbLine
 10
21.945213669
 20
6.8497028078
 30
0.0
 11
21.9938247841
 21
6.8497028078
 31
0.0
  0
LINE
  5
231
330
228
100
AcDbEntity
  8
DIM
100
AcDbLine
 10
22.1018494762
 20
7.0671024997
 30
0.0
 11
22.1504605913
 21
7.0671024997
 31
0.0
  0
LINE
  5
232
330
228
100
AcDbEntity
  8
DIM
100
AcDbLine
 10
22.1504605913
 20
7.0671024997
 30
0.0
 11
22.1504605913
 21
6.8497028078
 31
0.0
  0
LINE
  5
233
330
228
100
AcDbEntity
  8
DIM
100
AcDbLine
 10
22.1504605913
 20
6.8497028078
 30
0.0
 11
22.1018494762
 21
6.8497028078
 31
0.0
  0
LINE
  5
234
330
228
100
AcDbEntity
  8
DIM
100
AcDbLine
 10
22.7012551236
 20
7.1549130553
 30
0.0
 11
22.2854646397
 21
7.1549130553
 31
0.0
  0
LINE
  5
235
330
228
100
AcDbEntity
  8
DIM
100
AcDbLine
 10
22.8262551236
 20
7.1549130553
 30
0.0
 11
23.2151586192
 21
7.1549130553
 31
0.0
  0
MTEXT
  5
236
330
228
100
AcDbEntity
  8
DIM
100
AcDbMText
 10
21.8425902078
 20
7.3867229728
 30
0.0
 40
0.1458333333
 41
0.0
 71
     1
 72
     1
  1
 
  7
SLDTEXTSTYLE0
 73
     1
 44
1.0
  0
MTEXT
  5
237
330
228
100
AcDbEntity
  8
DIM
100
AcDbMText
 10
21.9592568859
 20
7.4860753468
 30
0.0
 40
0.1458333333
 41
0.0
 71
     1
 72
     1
  1
1
  7
SLDTEXTSTYLE0
 73
     1
 44
1.0
  0
MTEXT
  5
238
330
228
100
AcDbEntity
  8
DIM
100
AcDbMText
 10
21.9592568859
 20
7.28749896
 30
0.0
 40
0.1458333333
 41
0.0
 71
     1
 72
     1
  1
8
  7
SLDTEXTSTYLE0
 73
     1
 44
1.0
  0
MTEXT
  5
239
330
228
100
AcDbEntity
  8
DIM
100
AcDbMText
 10
22.108601024
 20
7.3867229912
 30
0.0
 40
0.1458333333
 41
0.0
 71
     1
 72
     1
  1
"
  7
SLDTEXTSTYLE0
 73
     1
 44
1.0
  0
MTEXT
  5
23A
330
228
100
AcDbEntity
  8
DIM
100
AcDbMText
 10
21.9938247841
 20
7.0376918532
 30
0.0
 40
0.1458333333
 41
0.0
 71
     1
 72
     1
  1
3
  7
SLDTEXTSTYLE0
 73
     1
 44
1.0
  0
MTEXT
  5
23B
330
228
100
AcDbEntity
  8
DIM
100
AcDbMText
 10
22.1990717064
 20
7.3867229728
 30
0.0
 40
0.1458333333
 41
0.0
 71
     1
 72
     1
  1
 
  7
SLDTEXTSTYLE0
 73
     1
 44
1.0
  0
ENDBLK
  5
22A
330
228
100
AcDbEntity
  8
0
100
AcDbBlockEnd
  0
BLOCK
  5
23D
330
23C
100
AcDbEntity
  8
0
100
AcDbBlockBegin
  2
SW_NOTE_0
 70
     0
 10
0.0
 20
0.0
 30
0.0
  3
SW_NOTE_0
  1

  0
MTEXT
  5
23F
330
23C
100
AcDbEntity
  8
NOTES
 62
     0
100
AcDbMText
 10
0.0207189543
 20
0.1459273896
 30
0.0
 40
0.125
 41
0.0
 71
     1
 72
     1
  1
1/8" OVERHANG
  7
SLDTEXTSTYLE0
 73
     1
 44
1.0
  0
MTEXT
  5
240
330
23C
100
AcDbEntity
  8
NOTES
 62
     0
100
AcDbMText
 10
0.0207189543
 20
-0.0601093602
 30
0.0
 40
0.125
 41
0.0
 71
     1
 72
     1
  1
[3.2 SOBRESALIENTE]
  7
SLDTEXTSTYLE0
 73
     1
 44
1.0
  0
ENDBLK
  5
23E
330
23C
100
AcDbEntity
  8
0
100
AcDbBlockEnd
  0
BLOCK
  5
245
330
244
100
AcDbEntity
  8
0
100
AcDbBlockBegin
  2
SW_NOTE_1
 70
     0
 10
0.0
 20
0.0
 30
0.0
  3
SW_NOTE_1
  1

  0
MTEXT
  5
247
330
244
100
AcDbEntity
  8
NOTES
 62
     0
100
AcDbMText
 10
0.0202537261
 20
0.1445936307
 30
0.0
 40
0.125
 41
0.0
 71
     1
 72
     1
  1
1/2" REVEAL
  7
SLDTEXTSTYLE0
 73
     1
 44
1.0
  0
MTEXT
  5
248
330
244
100
AcDbEntity
  8
NOTES
 62
     0
100
AcDbMText
 10
0.0202537261
 20
-0.0614431192
 30
0.0
 40
0.125
 41
0.0
 71
     1
 72
     1
  1
[12.7 REVELADO]
  7
SLDTEXTSTYLE0
 73
     1
 44
1.0
  0
ENDBLK
  5
246
330
244
100
AcDbEntity
  8
0
100
AcDbBlockEnd
  0
BLOCK
  5
24C
330
24B
100
AcDbEntity
  8
0
100
AcDbBlockBegin
  2
SW_NOTE_2
 70
     0
 10
0.0
 20
0.0
 30
0.0
  3
SW_NOTE_2
  1

  0
MTEXT
  5
24E
330
24B
100
AcDbEntity
  8
NOTES
 62
     0
100
AcDbMText
 10
0.653368512
 20
0.146791178
 30
0.0
 40
0.125
 41
0.0
 71
     2
 72
     1
  1
ZERO REVEAL
  7
SLDTEXTSTYLE0
 73
     1
 44
1.0
  0
MTEXT
  5
24F
330
24B
100
AcDbEntity
  8
NOTES
 62
     0
100
AcDbMText
 10
0.6546705867
 20
-0.0592455718
 30
0.0
 40
0.125
 41
0.0
 71
     2
 72
     1
  1
[0 REVEALADO]
  7
SLDTEXTSTYLE0
 73
     1
 44
1.0
  0
ENDBLK
  5
24D
330
24B
100
AcDbEntity
  8
0
100
AcDbBlockEnd
  0
BLOCK
  5
256
330
255
100
AcDbEntity
  8
0
100
AcDbBlockBegin
  2
SW_NOTE_3
 70
     0
 10
0.0
 20
0.0
 30
0.0
  3
SW_NOTE_3
  1

  0
MTEXT
  5
258
330
255
100
AcDbEntity
  8
NOTES
 62
     0
100
AcDbMText
 10
0.5119749053
 20
0.453847706
 30
0.0
 40
0.125
 41
0.0
 71
     2
 72
     1
  1
TEMPLATE
  7
SLDTEXTSTYLE0
 73
     1
 44
1.0
  0
MTEXT
  5
259
330
255
100
AcDbEntity
  8
NOTES
 62
     0
100
AcDbMText
 10
0.5138557148
 20
0.2478109562
 30
0.0
 40
0.125
 41
0.0
 71
     2
 72
     1
  1
CENTERLINE
  7
SLDTEXTSTYLE0
 73
     1
 44
1.0
  0
MTEXT
  5
25A
330
255
100
AcDbEntity
  8
NOTES
 62
     0
100
AcDbMText
 10
0.5139280303
 20
-0.1642625435
 30
0.0
 40
0.125
 41
0.0
 71
     2
 72
     1
  1
PLANTILLA
  7
SLDTEXTSTYLE0
 73
     1
 44
1.0
  0
MTEXT
  5
25B
330
255
100
AcDbEntity
  8
NOTES
 62
     0
100
AcDbMText
 10
0.5121195836
 20
-0.3702992934
 30
0.0
 40
0.125
 41
0.0
 71
     2
 72
     1
  1
CENTRAL
  7
SLDTEXTSTYLE0
 73
     1
 44
1.0
  0
ENDBLK
  5
257
330
255
100
AcDbEntity
  8
0
100
AcDbBlockEnd
  0
BLOCK
  5
260
330
25F
100
AcDbEntity
  8
0
100
AcDbBlockBegin
  2
SW_NOTE_4
 70
     0
 10
0.0
 20
0.0
 30
0.0
  3
SW_NOTE_4
  1

  0
MTEXT
  5
262
330
25F
100
AcDbEntity
  8
NOTES
 62
     0
100
AcDbMText
 10
0.0
 20
0.1611334675
 30
0.0
 40
0.125
 41
0.0
 71
     1
 72
     1
  1
\LNOTES:
  7
SLDTEXTSTYLE0
 73
     1
 44
1.0
  0
MTEXT
  5
263
330
25F
100
AcDbEntity
  8
NOTES
 62
     0
100
AcDbMText
 10
0.3937007786
 20
-0.2509400322
 30
0.0
 40
0.125
 41
0.0
 71
     1
 72
     1
  1
THOROUGHLY READ ALL INSTALLATION INSTRUCTIONS
  7
SLDTEXTSTYLE0
 73
     1
 44
1.0
  0
MTEXT
  5
264
330
25F
100
AcDbEntity
  8
NOTES
 62
     0
100
AcDbMText
 10
0.0
 20
-0.2509400322
 30
0.0
 40
0.125
 41
0.0
 71
     1
 72
     1
  1
1.
  7
SLDTEXTSTYLE0
 73
     1
 44
1.0
  0
MTEXT
  5
265
330
25F
100
AcDbEntity
  8
NOTES
 62
     0
100
AcDbMText
 10
0.3937007874
 20
-0.4569767821
 30
0.0
 40
0.125
 41
0.0
 71
     1
 72
     1
  1
BEFORE CUTTING COUNTERTOP.
  7
SLDTEXTSTYLE0
 73
     1
 44
1.0
  0
MTEXT
  5
266
330
25F
100
AcDbEntity
  8
NOTES
 62
     0
100
AcDbMText
 10
0.3937007786
 20
-0.8690502818
 30
0.0
 40
0.125
 41
0.0
 71
     1
 72
     1
  1
DIMENSIONS ARE IN INCHES [MM].
  7
SLDTEXTSTYLE0
 73
     1
 44
1.0
  0
MTEXT
  5
267
330
25F
100
AcDbEntity
  8
NOTES
 62
     0
100
AcDbMText
 10
0.0
 20
-0.8690502818
 30
0.0
 40
0.125
 41
0.0
 71
     1
 72
     1
  1
2.
  7
SLDTEXTSTYLE0
 73
     1
 44
1.0
  0
MTEXT
  5
268
330
25F
100
AcDbEntity
  8
NOTES
 62
     0
100
AcDbMText
 10
0.0
 20
-1.2811237814
 30
0.0
 40
0.125
 41
0.0
 71
     1
 72
     1
  1
PLEASE CHECK TEMPLATE AGAINST PHYSICAL SINK FOR 
  7
SLDTEXTSTYLE0
 73
     1
 44
1.0
  0
MTEXT
  5
269
330
25F
100
AcDbEntity
  8
NOTES
 62
     0
100
AcDbMText
 10
0.0
 20
-1.4871605313
 30
0.0
 40
0.125
 41
0.0
 71
     1
 72
     1
  1
MOST ACCURATE CUT.
  7
SLDTEXTSTYLE0
 73
     1
 44
1.0
  0
MTEXT
  5
26A
330
25F
100
AcDbEntity
  8
NOTES
 62
     0
100
AcDbMText
 10
0.0
 20
-1.899234031
 30
0.0
 40
0.125
 41
0.0
 71
     1
 72
     1
  1
\LNOTAS:
  7
SLDTEXTSTYLE0
 73
     1
 44
1.0
  0
MTEXT
  5
26B
330
25F
100
AcDbEntity
  8
NOTES
 62
     0
100
AcDbMText
 10
0.0
 20
-2.3113075307
 30
0.0
 40
0.125
 41
0.0
 71
     1
 72
     1
  1
1.     EA ATENTAMENTE LAS INSTRUCCIONES DE INSTALACIÓN 
  7
SLDTEXTSTYLE0
 73
     1
 44
1.0
  0
MTEXT
  5
26C
330
25F
100
AcDbEntity
  8
NOTES
 62
     0
100
AcDbMText
 10
0.0
 20
-2.5173442805
 30
0.0
 40
0.125
 41
0.0
 71
     1
 72
     1
  1
        ANTES DE  CORTAR LA ENCIMERA.
  7
SLDTEXTSTYLE0
 73
     1
 44
1.0
  0
MTEXT
  5
26D
330
25F
100
AcDbEntity
  8
NOTES
 62
     0
100
AcDbMText
 10
0.0
 20
-2.9294177802
 30
0.0
 40
0.125
 41
0.0
 71
     1
 72
     1
  1
2.     DIMENSIONES EN PULGADAS [MM].
  7
SLDTEXTSTYLE0
 73
     1
 44
1.0
  0
MTEXT
  5
26E
330
25F
100
AcDbEntity
  8
NOTES
 62
     0
100
AcDbMText
 10
0.0
 20
-3.3414912799
 30
0.0
 40
0.125
 41
0.0
 71
     1
 72
     1
  1
POR FAVOR COMPRUEBE PLANTILLA CONTRA FREGADERO 
  7
SLDTEXTSTYLE0
 73
     1
 44
1.0
  0
MTEXT
  5
26F
330
25F
100
AcDbEntity
  8
NOTES
 62
     0
100
AcDbMText
 10
0.0
 20
-3.5475280298
 30
0.0
 40
0.125
 41
0.0
 71
     1
 72
     1
  1
FÍSICO PARA CORTE MÁS EXACTO.
  7
SLDTEXTSTYLE0
 73
     1
 44
1.0
  0
ENDBLK
  5
261
330
25F
100
AcDbEntity
  8
0
100
AcDbBlockEnd
  0
BLOCK
  5
272
330
271
100
AcDbEntity
  8
0
100
AcDbBlockBegin
  2
SW_NOTE_5
 70
     0
 10
0.0
 20
0.0
 30
0.0
  3
SW_NOTE_5
  1

  0
MTEXT
  5
274
330
271
100
AcDbEntity
  8
NOTES
 62
     0
100
AcDbMText
 10
2.4016927083
 20
0.3759780908
 30
0.0
 40
0.2916666667
 41
0.0
 71
     2
 72
     1
  1
TEMPLATE #: 1000005599
  7
SLDTEXTSTYLE0
 73
     1
 44
1.0
  0
MTEXT
  5
275
330
271
100
AcDbEntity
  8
NOTES
 62
     0
100
AcDbMText
 10
2.397827971
 20
-0.2354005736
 30
0.0
 40
0.1458333333
 41
0.0
 71
     2
 72
     1
  1
UNDERMOUNT TEMPLATE 12" X 12" W/ 3/4" RADIUS
  7
SLDTEXTSTYLE0
 73
     1
 44
1.0
  0
ENDBLK
  5
273
330
271
100
AcDbEntity
  8
0
100
AcDbBlockEnd
  0
ENDSEC
  0
SECTION
  2
ENTITIES
  0
LINE
  5
13F
330
1F
100
AcDbEntity
  8
DIM
  6
CENTERX2
 62
     7
100
AcDbLine
 10
16.8262551236
 20
17.5761653255
 30
0.0
 11
16.8262551236
 21
15.4068591727
 31
0.0
  0
LINE
  5
140
330
1F
100
AcDbEntity
  8
OBJECTS
  6
CENTERX2
 62
     7
100
AcDbLine
 10
16.8262551236
 20
4.5761653255
 30
0.0
 11
16.8262551236
 21
6.6122315051
 31
0.0
  0
LINE
  5
141
330
1F
100
AcDbEntity
  8
OBJECTS
  6
CENTERX2
 62
     7
100
AcDbLine
 10
10.3262551236
 20
11.0761653255
 30
0.0
 11
12.8740958347
 21
11.0761653255
 31
0.0
  0
LINE
  5
142
330
1F
100
AcDbEntity
  8
OBJECTS
  6
CENTERX2
 62
     7
100
AcDbLine
 10
23.3262551236
 20
11.0761653255
 30
0.0
 11
21.7525109477
 21
11.0761653255
 31
0.0
  0
LINE
  5
143
330
1F
100
AcDbEntity
  8
SLD-0
  6
CENTERX2
100
AcDbLine
 10
10.8262551236
 20
16.3261653255
 30
0.0
 11
10.8262551236
 21
5.8261653255
 31
0.0
  0
LINE
  5
144
330
1F
100
AcDbEntity
  8
SLD-0
  6
CENTERX2
100
AcDbLine
 10
11.5762551236
 20
5.0761653255
 30
0.0
 11
22.0762551236
 21
5.0761653255
 31
0.0
  0
LINE
  5
145
330
1F
100
AcDbEntity
  8
SLD-0
  6
CENTERX2
100
AcDbLine
 10
22.8262551236
 20
16.3261653255
 30
0.0
 11
22.8262551236
 21
5.8261653255
 31
0.0
  0
LINE
  5
146
330
1F
100
AcDbEntity
  8
SLD-0
  6
CENTERX2
100
AcDbLine
 10
11.5762551236
 20
17.0761653255
 30
0.0
 11
22.0762551236
 21
17.0761653255
 31
0.0
  0
LINE
  5
147
330
1F
100
AcDbEntity
  8
SLD-0
100
AcDbLine
 10
22.0762551236
 20
16.9511653255
 30
0.0
 11
11.5762551236
 21
16.9511653255
 31
0.0
  0
LINE
  5
148
330
1F
100
AcDbEntity
  8
SLD-0
100
AcDbLine
 10
10.9512551236
 20
16.3261653255
 30
0.0
 11
10.9512551236
 21
5.8261653255
 31
0.0
  0
LINE
  5
149
330
1F
100
AcDbEntity
  8
SLD-0
100
AcDbLine
 10
11.5762551236
 20
5.2011653255
 30
0.0
 11
22.0762551236
 21
5.2011653255
 31
0.0
  0
LINE
  5
14A
330
1F
100
AcDbEntity
  8
SLD-0
100
AcDbLine
 10
22.7012551236
 20
5.8261653255
 30
0.0
 11
22.7012551236
 21
16.3261653255
 31
0.0
  0
LINE
  5
14B
330
1F
100
AcDbEntity
  8
SLD-0
100
AcDbLine
 10
22.0762551236
 20
17.5761653255
 30
0.0
 11
11.5762551236
 21
17.5761653255
 31
0.0
  0
LINE
  5
14C
330
1F
100
AcDbEntity
  8
SLD-0
100
AcDbLine
 10
10.3262551236
 20
16.3261653255
 30
0.0
 11
10.3262551236
 21
5.8261653255
 31
0.0
  0
LINE
  5
14D
330
1F
100
AcDbEntity
  8
SLD-0
100
AcDbLine
 10
11.5762551236
 20
4.5761653255
 30
0.0
 11
22.0762551236
 21
4.5761653255
 31
0.0
  0
LINE
  5
14E
330
1F
100
AcDbEntity
  8
SLD-0
100
AcDbLine
 10
23.3262551236
 20
5.8261653255
 30
0.0
 11
23.3262551236
 21
16.3261653255
 31
0.0
  0
ARC
  5
14F
330
1F
100
AcDbEntity
  8
SLD-0
  6
CENTERX2
100
AcDbCircle
 10
11.5762551236
 20
16.3261653255
 30
0.0
 40
0.7500000000000018
100
AcDbArc
 50
90.0
 51
180.0
  0
ARC
  5
150
330
1F
100
AcDbEntity
  8
SLD-0
  6
CENTERX2
100
AcDbCircle
 10
11.5762551236
 20
5.8261653255
 30
0.0
 40
0.75
100
AcDbArc
 50
180.0
 51
270.0
  0
ARC
  5
151
330
1F
100
AcDbEntity
  8
SLD-0
  6
CENTERX2
100
AcDbCircle
 10
22.0762551236
 20
5.8261653255
 30
0.0
 40
0.75
100
AcDbArc
 50
270.0
 51
0.0
  0
ARC
  5
152
330
1F
100
AcDbEntity
  8
SLD-0
  6
CENTERX2
100
AcDbCircle
 10
22.0762551236
 20
16.3261653255
 30
0.0
 40
0.7500000000000036
100
AcDbArc
 50
0.0
 51
90.0
  0
ARC
  5
153
330
1F
100
AcDbEntity
  8
SLD-0
100
AcDbCircle
 10
11.5762551236
 20
16.3261653255
 30
0.0
 40
0.625
100
AcDbArc
 50
90.0
 51
180.0
  0
ARC
  5
154
330
1F
100
AcDbEntity
  8
SLD-0
100
AcDbCircle
 10
11.5762551236
 20
5.8261653255
 30
0.0
 40
0.625
100
AcDbArc
 50
180.0
 51
270.0
  0
ARC
  5
155
330
1F
100
AcDbEntity
  8
SLD-0
100
AcDbCircle
 10
22.0762551236
 20
5.8261653255
 30
0.0
 40
0.6250000000000009
100
AcDbArc
 50
270.0
 51
0.0
  0
ARC
  5
156
330
1F
100
AcDbEntity
  8
SLD-0
100
AcDbCircle
 10
22.0762551236
 20
16.3261653255
 30
0.0
 40
0.625
100
AcDbArc
 50
0.0
 51
90.0
  0
ARC
  5
157
330
1F
100
AcDbEntity
  8
SLD-0
100
AcDbCircle
 10
11.5762551236
 20
16.3261653255
 30
0.0
 40
1.25
100
AcDbArc
 50
90.0
 51
180.0
  0
ARC
  5
158
330
1F
100
AcDbEntity
  8
SLD-0
100
AcDbCircle
 10
11.5762551236
 20
5.8261653255
 30
0.0
 40
1.25
100
AcDbArc
 50
180.0
 51
270.0
  0
ARC
  5
159
330
1F
100
AcDbEntity
  8
SLD-0
100
AcDbCircle
 10
22.0762551236
 20
5.8261653255
 30
0.0
 40
1.250000000000004
100
AcDbArc
 50
270.0
 51
0.0
  0
ARC
  5
15A
330
1F
100
AcDbEntity
  8
SLD-0
100
AcDbCircle
 10
22.0762551236
 20
16.3261653255
 30
0.0
 40
1.25
100
AcDbArc
 50
0.0
 51
90.0
  0
INSERT
  5
15B
330
1F
100
AcDbEntity
  8
BLOCKS
100
AcDbBlockReference
  2
REVEAL- .500
 10
-0.0118484425
 20
-13.6453258387
 30
0.0
  0
INSERT
  5
15C
330
1F
100
AcDbEntity
  8
BLOCKS
100
AcDbBlockReference
  2
OVERHANG - .125
 10
-0.9438335993
 20
-19.9842478456
 30
0.0
  0
INSERT
  5
15D
330
1F
100
AcDbEntity
  8
BLOCKS
100
AcDbBlockReference
  2
REVEAL - 0 (FLUSH)
 10
-7.8389547445
 20
-13.4613731144
 30
0.0
  0
DIMENSION
  5
15E
330
1F
100
AcDbEntity
  8
DIM
100
AcDbDimension
  2
_D
 10
11.5762551236
 20
16.3261653255
 30
0.0
 11
12.610557091
 21
15.7471102804
 31
0.0
 70
   164
  1
<>
 71
     1
 42
-1.0
  3
SLDDIMSTYLE0
100
AcDbRadialDimension
 15
11.0459250377
 25
16.8564954114
 35
0.0
 40
0.0
  0
DIMENSION
  5
173
330
1F
100
AcDbEntity
  8
DIM
100
AcDbDimension
  2
_D_1
 10
15.5175228947
 20
17.0761653255
 30
0.0
 11
15.5175228947
 21
12.6937191962
 31
0.0
 70
   160
  1
<>
 71
     2
 42
-1.0
  3
SLDDIMSTYLE1
100
AcDbAlignedDimension
 13
11.5762551236
 23
5.0761653255
 33
0.0
 14
11.5762551236
 24
17.0761653255
 34
0.0
 50
90.0
100
AcDbRotatedDimension
  0
DIMENSION
  5
186
330
1F
100
AcDbEntity
  8
DIM
100
AcDbDimension
  2
_D_2
 10
10.8262551236
 20
8.3649936018
 30
0.0
 11
18.130780188
 21
8.3649936018
 31
0.0
 70
   160
  1
<>
 71
     2
 42
-1.0
  3
SLDDIMSTYLE1
100
AcDbAlignedDimension
 13
22.8262551236
 23
5.8261653255
 33
0.0
 14
10.8262551236
 24
5.8261653255
 34
0.0
 50
0.0
100
AcDbRotatedDimension
  0
DIMENSION
  5
198
330
1F
100
AcDbEntity
  8
DIM
100
AcDbDimension
  2
_D_3
 10
22.7012551236
 20
7.7467197845
 30
0.0
 11
17.0279087302
 21
7.7467197845
 31
0.0
 70
   160
  1
<>
 71
     2
 42
-1.0
  3
SLDDIMSTYLE2
100
AcDbAlignedDimension
 13
10.9512551236
 23
5.8261653255
 33
0.0
 14
22.7012551236
 24
5.8261653255
 34
0.0
100
AcDbRotatedDimension
  0
DIMENSION
  5
1AF
330
1F
100
AcDbEntity
  8
DIM
100
AcDbDimension
  2
_D_4
 10
15.0353066425
 20
16.9511653255
 30
0.0
 11
15.0353066425
 21
11.4595100356
 31
0.0
 70
   160
  1
<>
 71
     2
 42
-1.0
  3
SLDDIMSTYLE2
100
AcDbAlignedDimension
 13
11.5762551236
 23
5.2011653255
 33
0.0
 14
11.5762551236
 24
16.9511653255
 34
0.0
 50
90.0
100
AcDbRotatedDimension
  0
DIMENSION
  5
1C5
330
1F
100
AcDbEntity
  8
DIM
100
AcDbDimension
  2
_D_5
 10
22.0762551236
 20
5.8261653255
 30
0.0
 11
20.9913036094
 21
6.3265274108
 31
0.0
 70
   164
  1
<>
 71
     1
 42
-1.0
  3
SLDDIMSTYLE3
100
AcDbRadialDimension
 15
22.5655848829
 25
5.4373448185
 35
0.0
 40
0.0
  0
DIMENSION
  5
1D9
330
1F
100
AcDbEntity
  8
DIM
100
AcDbDimension
  2
_D_6
 10
23.3262551236
 20
8.9598317595
 30
0.0
 11
16.693957456
 21
8.9598317595
 31
0.0
 70
   160
  1
<>
 71
     2
 42
-1.0
  3
SLDDIMSTYLE1
100
AcDbAlignedDimension
 13
10.3262551236
 23
5.8261653255
 33
0.0
 14
23.3262551236
 24
5.8261653255
 34
0.0
 50
0.0
100
AcDbRotatedDimension
  0
DIMENSION
  5
1EB
330
1F
100
AcDbEntity
  8
DIM
100
AcDbDimension
  2
_D_7
 10
16.054937392
 20
17.5761653255
 30
0.0
 11
16.054937392
 21
10.5557288846
 31
0.0
 70
   160
  1
<>
 71
     2
 42
-1.0
  3
SLDDIMSTYLE1
100
AcDbAlignedDimension
 13
11.5762551236
 23
4.5761653255
 33
0.0
 14
11.5762551236
 24
17.5761653255
 34
0.0
 50
90.0
100
AcDbRotatedDimension
  0
DIMENSION
  5
1FD
330
1F
100
AcDbEntity
  8
DIM
100
AcDbDimension
  2
_D_8
 10
22.0762551236
 20
16.3261653255
 30
0.0
 11
21.2569397638
 21
15.9687650153
 31
0.0
 70
   164
  1
<>
 71
     1
 42
-1.0
  3
SLDDIMSTYLE0
100
AcDbRadialDimension
 15
22.9030374008
 25
17.2636785607
 35
0.0
 40
0.0
  0
DIMENSION
  5
210
330
1F
100
AcDbEntity
  8
DIM
100
AcDbDimension
  2
_D_9
 10
14.4946211307
 20
17.5761653255
 30
0.0
 11
14.4946211307
 21
16.3049849296
 31
0.0
 70
   160
  1
<>
 71
     2
 42
-1.0
  3
SLDDIMSTYLE2
100
AcDbAlignedDimension
 13
11.5762551236
 23
17.0761653255
 33
0.0
 14
11.5762551236
 24
17.5761653255
 34
0.0
 50
90.0
100
AcDbRotatedDimension
  0
DIMENSION
  5
226
330
1F
100
AcDbEntity
  8
DIM
100
AcDbDimension
  2
_D_10
 10
22.8262551236
 20
7.1549130553
 30
0.0
 11
22.0478371301
 21
7.1549130553
 31
0.0
 70
   160
  1
<>
 71
     2
 42
-1.0
  3
SLDDIMSTYLE4
100
AcDbAlignedDimension
 13
22.7012551236
 23
5.8261653255
 33
0.0
 14
22.8262551236
 24
5.8261653255
 34
0.0
100
AcDbRotatedDimension
  0
INSERT
  5
241
102
{ACAD_REACTORS
330
243
102
}
330
1F
100
AcDbEntity
  8
NOTES
 62
     7
100
AcDbBlockReference
  2
SW_NOTE_0
 10
18.0004047391
 20
7.3407392163
 30
0.0
  0
LEADER
  5
243
330
1F
100
AcDbEntity
  8
NOTES
 62
     7
100
AcDbLeader
  3
SLDDIMSTYLE5
 73
     2
 76
     3
 10
17.461950583
 20
5.2011653255
 30
0.0
 10
17.7504047391
 20
7.3407392163
 30
0.0
 10
18.0004047391
 20
7.3407392163
 30
0.0
340
241
  0
INSERT
  5
249
102
{ACAD_REACTORS
330
24A
102
}
330
1F
100
AcDbEntity
  8
NOTES
 62
     7
100
AcDbBlockReference
  2
SW_NOTE_1
 10
18.3269556259
 20
14.9571937016
 30
0.0
  0
LEADER
  5
24A
330
1F
100
AcDbEntity
  8
NOTES
 62
     7
100
AcDbLeader
  3
SLDDIMSTYLE5
 73
     2
 76
     3
 10
17.5274508152
 20
17.5761653255
 30
0.0
 10
18.0769556259
 20
14.9571937016
 30
0.0
 10
18.3269556259
 20
14.9571937016
 30
0.0
340
249
  0
INSERT
  5
250
102
{ACAD_REACTORS
330
251
330
252
102
}
330
1F
100
AcDbEntity
  8
NOTES
 62
     7
100
AcDbBlockReference
  2
SW_NOTE_2
 10
11.8769316895
 20
12.1654135853
 30
0.0
  0
LEADER
  5
251
330
1F
100
AcDbEntity
  8
NOTES
 62
     7
100
AcDbLeader
  3
SLDDIMSTYLE5
 73
     2
 76
     3
 10
10.8262551236
 20
11.8434470372
 30
0.0
 10
11.6269316895
 20
12.1654135853
 30
0.0
 10
11.8769316895
 20
12.1654135853
 30
0.0
340
250
  0
LEADER
  5
252
330
1F
100
AcDbEntity
  8
NOTES
 62
     7
100
AcDbLeader
  3
SLDDIMSTYLE5
 73
     2
 76
     3
 10
13.1267638805
 20
12.6956068394
 30
0.0
 10
13.4163018082
 20
12.1654135853
 30
0.0
 10
13.1663018082
 20
12.1654135853
 30
0.0
340
250
212
1.289370118633029
222
0.0
232
0.0
  0
MTEXT
  5
254
330
1F
100
AcDbEntity
  8
NOTES
 62
     7
100
AcDbMText
 10
11.9242804265
 20
5.76455977
 30
0.0
 40
0.1666666667
 41
0.0
 71
     1
 72
     1
  1
REV: A   2/25/2020
  7
SLDTEXTSTYLE1
 73
     1
 44
1.0
  0
INSERT
  5
25C
102
{ACAD_REACTORS
330
25D
330
25E
102
}
330
1F
100
AcDbEntity
  8
NOTES
100
AcDbBlockReference
  2
SW_NOTE_3
 10
13.5795855148
 20
6.9213006932
 30
0.0
  0
LEADER
  5
25D
330
1F
100
AcDbEntity
  8
NOTES
100
AcDbLeader
  3
SLDDIMSTYLE5
 73
     2
 76
     3
 10
12.4176263117
 20
11.0761653255
 30
0.0
 10
13.2879187662
 20
6.9213006932
 30
0.0
 10
13.5795855148
 20
6.9213006932
 30
0.0
340
25C
  0
LEADER
  5
25E
330
1F
100
AcDbEntity
  8
NOTES
100
AcDbLeader
  3
SLDDIMSTYLE5
 73
     2
 76
     3
 10
16.8262551236
 20
5.6583678936
 30
0.0
 10
14.8411776024
 20
6.9213006932
 30
0.0
 10
14.5911776024
 20
6.9213006932
 30
0.0
340
25C
212
1.011592087548548
222
0.0
232
0.0
  0
INSERT
  5
270
330
1F
100
AcDbEntity
  8
NOTES
 62
     7
100
AcDbBlockReference
  2
SW_NOTE_4
 10
17.2549697054
 20
12.9931067529
 30
0.0
  0
INSERT
  5
276
330
1F
100
AcDbEntity
  8
NOTES
 62
     7
100
AcDbBlockReference
  2
SW_NOTE_5
 10
17.236782041
 20
13.7238637242
 30
0.0
  0
ENDSEC
  0
SECTION
  2
OBJECTS
  0
DICTIONARY
  5
C
330
0
100
AcDbDictionary
281
     1
  3
ACAD_GROUP
350
D
  3
ACAD_LAYOUT
350
1A
  3
ACAD_MLINESTYLE
350
17
  3
ACAD_PLOTSETTINGS
350
19
  3
ACAD_PLOTSTYLENAME
350
E
  3
ACAD_SCALELIST
350
47
  0
DICTIONARY
  5
D
102
{ACAD_REACTORS
330
C
102
}
330
C
100
AcDbDictionary
281
     1
  0
DICTIONARY
  5
1A
102
{ACAD_REACTORS
330
C
102
}
330
C
100
AcDbDictionary
281
     1
  3
Layout1
350
1E
  3
Layout2
350
26
  3
Model
350
22
  0
DICTIONARY
  5
17
102
{ACAD_REACTORS
330
C
102
}
330
C
100
AcDbDictionary
281
     1
  3
Standard
350
18
  0
DICTIONARY
  5
19
102
{ACAD_REACTORS
330
C
102
}
330
C
100
AcDbDictionary
281
     1
  0
ACDBDICTIONARYWDFLT
  5
E
102
{ACAD_REACTORS
330
C
102
}
330
C
100
AcDbDictionary
281
     1
  3
Normal
350
F
100
AcDbDictionaryWithDefault
340
F
  0
DICTIONARY
  5
47
102
{ACAD_REACTORS
330
C
102
}
330
C
100
AcDbDictionary
281
     1
  3
A0
350
48
  3
A1
350
49
  3
A2
350
4A
  3
A3
350
4B
  3
A4
350
4C
  3
A5
350
4D
  3
A6
350
4E
  3
A7
350
4F
  3
A8
350
50
  3
A9
350
51
  3
B0
350
52
  3
B1
350
53
  3
B2
350
54
  3
B3
350
55
  3
B4
350
56
  3
B5
350
57
  3
B6
350
58
  3
B7
350
59
  3
B8
350
5A
  3
B9
350
5B
  3
C0
350
5C
  3
C1
350
5D
  3
C2
350
5E
  3
C3
350
5F
  3
C4
350
60
  3
C5
350
61
  3
C6
350
62
  3
C7
350
63
  3
C8
350
64
  3
C9
350
65
  3
D0
350
66
  3
D1
350
67
  3
D2
350
68
  0
LAYOUT
  5
1E
102
{ACAD_REACTORS
330
1A
102
}
330
1A
100
AcDbPlotSettings
  1

  2
none_device
  4

  6

 40
0.0
 41
0.0
 42
0.0
 43
0.0
 44
0.0
 45
0.0
 46
0.0
 47
0.0
 48
0.0
 49
0.0
140
0.0
141
0.0
142
1.0
143
1.0
 70
   688
 72
     0
 73
     0
 74
     5
  7

 75
    16
147
1.0
148
0.0
149
0.0
100
AcDbLayout
  1
Layout1
 70
     1
 71
     1
 10
0.0
 20
0.0
 11
12.0
 21
9.0
 12
0.0
 22
0.0
 32
0.0
 14
1.0000000000E+20
 24
1.0000000000E+20
 34
1.0000000000E+20
 15
-1.0000000000E+20
 25
-1.0000000000E+20
 35
-1.0000000000E+20
146
0.0
 13
0.0
 23
0.0
 33
0.0
 16
1.0
 26
0.0
 36
0.0
 17
0.0
 27
1.0
 37
0.0
 76
     0
330
1B
  0
LAYOUT
  5
26
102
{ACAD_REACTORS
330
1A
102
}
330
1A
100
AcDbPlotSettings
  1

  2
none_device
  4

  6

 40
0.0
 41
0.0
 42
0.0
 43
0.0
 44
0.0
 45
0.0
 46
0.0
 47
0.0
 48
0.0
 49
0.0
140
0.0
141
0.0
142
1.0
143
1.0
 70
   688
 72
     0
 73
     0
 74
     5
  7

 75
    16
147
1.0
148
0.0
149
0.0
100
AcDbLayout
  1
Layout2
 70
     1
 71
     2
 10
0.0
 20
0.0
 11
0.0
 21
0.0
 12
0.0
 22
0.0
 32
0.0
 14
0.0
 24
0.0
 34
0.0
 15
0.0
 25
0.0
 35
0.0
146
0.0
 13
0.0
 23
0.0
 33
0.0
 16
1.0
 26
0.0
 36
0.0
 17
0.0
 27
1.0
 37
0.0
 76
     0
330
23
  0
LAYOUT
  5
22
102
{ACAD_REACTORS
330
1A
102
}
330
1A
100
AcDbPlotSettings
  1

  2
none_device
  4
Letter_(8.50_x_11.00_Inches)
  6

 40
6.35
 41
6.35
 42
6.35000508
 43
6.35000508
 44
215.9
 45
279.4
 46
0.0
 47
0.0
 48
0.0
 49
0.0
140
0.0
141
0.0
142
1.0
143
1.0
 70
  1712
 72
     0
 73
     0
 74
     0
  7

 75
     0
147
1.0
148
0.0
149
0.0
100
AcDbLayout
  1
Model
 70
     1
 71
     0
 10
0.0
 20
0.0
 11
34.0
 21
22.0
 12
0.0
 22
0.0
 32
0.0
 14
0.0
 24
0.0
 34
0.0
 15
34.0
 25
22.0
 35
0.0
146
0.0
 13
0.0
 23
0.0
 33
0.0
 16
1.0
 26
0.0
 36
0.0
 17
0.0
 27
1.0
 37
0.0
 76
     0
330
1F
331
29
  0
MLINESTYLE
  5
18
102
{ACAD_REACTORS
330
17
102
}
330
17
100
AcDbMlineStyle
  2
Standard
 70
     0
  3

 62
   256
 51
90.0
 52
90.0
 71
     2
 49
0.5
 62
   256
  6
BYLAYER
 49
-0.5
 62
   256
  6
BYLAYER
  0
ACDBPLACEHOLDER
  5
F
102
{ACAD_REACTORS
330
E
102
}
330
E
  0
SCALE
  5
48
102
{ACAD_REACTORS
330
47
102
}
330
47
100
AcDbScale
 70
     0
300
1:1
140
1.0
141
1.0
290
     1
  0
SCALE
  5
49
102
{ACAD_REACTORS
330
47
102
}
330
47
100
AcDbScale
 70
     0
300
1:2
140
1.0
141
2.0
290
     0
  0
SCALE
  5
4A
102
{ACAD_REACTORS
330
47
102
}
330
47
100
AcDbScale
 70
     0
300
1:4
140
1.0
141
4.0
290
     0
  0
SCALE
  5
4B
102
{ACAD_REACTORS
330
47
102
}
330
47
100
AcDbScale
 70
     0
300
1:5
140
1.0
141
5.0
290
     0
  0
SCALE
  5
4C
102
{ACAD_REACTORS
330
47
102
}
330
47
100
AcDbScale
 70
     0
300
1:8
140
1.0
141
8.0
290
     0
  0
SCALE
  5
4D
102
{ACAD_REACTORS
330
47
102
}
330
47
100
AcDbScale
 70
     0
300
1:10
140
1.0
141
10.0
290
     0
  0
SCALE
  5
4E
102
{ACAD_REACTORS
330
47
102
}
330
47
100
AcDbScale
 70
     0
300
1:16
140
1.0
141
16.0
290
     0
  0
SCALE
  5
4F
102
{ACAD_REACTORS
330
47
102
}
330
47
100
AcDbScale
 70
     0
300
1:20
140
1.0
141
20.0
290
     0
  0
SCALE
  5
50
102
{ACAD_REACTORS
330
47
102
}
330
47
100
AcDbScale
 70
     0
300
1:30
140
1.0
141
30.0
290
     0
  0
SCALE
  5
51
102
{ACAD_REACTORS
330
47
102
}
330
47
100
AcDbScale
 70
     0
300
1:40
140
1.0
141
40.0
290
     0
  0
SCALE
  5
52
102
{ACAD_REACTORS
330
47
102
}
330
47
100
AcDbScale
 70
     0
300
1:50
140
1.0
141
50.0
290
     0
  0
SCALE
  5
53
102
{ACAD_REACTORS
330
47
102
}
330
47
100
AcDbScale
 70
     0
300
1:100
140
1.0
141
100.0
290
     0
  0
SCALE
  5
54
102
{ACAD_REACTORS
330
47
102
}
330
47
100
AcDbScale
 70
     0
300
2:1
140
2.0
141
1.0
290
     0
  0
SCALE
  5
55
102
{ACAD_REACTORS
330
47
102
}
330
47
100
AcDbScale
 70
     0
300
4:1
140
4.0
141
1.0
290
     0
  0
SCALE
  5
56
102
{ACAD_REACTORS
330
47
102
}
330
47
100
AcDbScale
 70
     0
300
8:1
140
8.0
141
1.0
290
     0
  0
SCALE
  5
57
102
{ACAD_REACTORS
330
47
102
}
330
47
100
AcDbScale
 70
     0
300
10:1
140
10.0
141
1.0
290
     0
  0
SCALE
  5
58
102
{ACAD_REACTORS
330
47
102
}
330
47
100
AcDbScale
 70
     0
300
100:1
140
100.0
141
1.0
290
     0
  0
SCALE
  5
59
102
{ACAD_REACTORS
330
47
102
}
330
47
100
AcDbScale
 70
     0
300
1/128" = 1'-0"
140
0.0078125
141
12.0
290
     0
  0
SCALE
  5
5A
102
{ACAD_REACTORS
330
47
102
}
330
47
100
AcDbScale
 70
     0
300
1/64" = 1'-0"
140
0.015625
141
12.0
290
     0
  0
SCALE
  5
5B
102
{ACAD_REACTORS
330
47
102
}
330
47
100
AcDbScale
 70
     0
300
1/32" = 1'-0"
140
0.03125
141
12.0
290
     0
  0
SCALE
  5
5C
102
{ACAD_REACTORS
330
47
102
}
330
47
100
AcDbScale
 70
     0
300
1/16" = 1'-0"
140
0.0625
141
12.0
290
     0
  0
SCALE
  5
5D
102
{ACAD_REACTORS
330
47
102
}
330
47
100
AcDbScale
 70
     0
300
3/32" = 1'-0"
140
0.09375
141
12.0
290
     0
  0
SCALE
  5
5E
102
{ACAD_REACTORS
330
47
102
}
330
47
100
AcDbScale
 70
     0
300
1/8" = 1'-0"
140
0.125
141
12.0
290
     0
  0
SCALE
  5
5F
102
{ACAD_REACTORS
330
47
102
}
330
47
100
AcDbScale
 70
     0
300
3/16" = 1'-0"
140
0.1875
141
12.0
290
     0
  0
SCALE
  5
60
102
{ACAD_REACTORS
330
47
102
}
330
47
100
AcDbScale
 70
     0
300
1/4" = 1'-0"
140
0.25
141
12.0
290
     0
  0
SCALE
  5
61
102
{ACAD_REACTORS
330
47
102
}
330
47
100
AcDbScale
 70
     0
300
3/8" = 1'-0"
140
0.375
141
12.0
290
     0
  0
SCALE
  5
62
102
{ACAD_REACTORS
330
47
102
}
330
47
100
AcDbScale
 70
     0
300
1/2" = 1'-0"
140
0.5
141
12.0
290
     0
  0
SCALE
  5
63
102
{ACAD_REACTORS
330
47
102
}
330
47
100
AcDbScale
 70
     0
300
3/4" = 1'-0"
140
0.75
141
12.0
290
     0
  0
SCALE
  5
64
102
{ACAD_REACTORS
330
47
102
}
330
47
100
AcDbScale
 70
     0
300
1" = 1'-0"
140
1.0
141
12.0
290
     0
  0
SCALE
  5
65
102
{ACAD_REACTORS
330
47
102
}
330
47
100
AcDbScale
 70
     0
300
1-1/2" = 1'-0"
140
1.5
141
12.0
290
     0
  0
SCALE
  5
66
102
{ACAD_REACTORS
330
47
102
}
330
47
100
AcDbScale
 70
     0
300
3" = 1'-0"
140
3.0
141
12.0
290
     0
  0
SCALE
  5
67
102
{ACAD_REACTORS
330
47
102
}
330
47
100
AcDbScale
 70
     0
300
6" = 1'-0"
140
6.0
141
12.0
290
     0
  0
SCALE
  5
68
102
{ACAD_REACTORS
330
47
102
}
330
47
100
AcDbScale
 70
     0
300
1'-0" = 1'-0"
140
12.0
141
12.0
290
     0
  0
ENDSEC
  0
EOF
