  0
SECTION
  2
HEADER
  9
$ACADVER
  1
AC1015
  9
$ACADMAINTVER
 70
     6
  9
$DWGCODEPAGE
  3
ANSI_1252
  9
$INSBASE
 10
0.0
 20
0.0
 30
0.0
  9
$EXTMIN
 10
0.0
 20
0.0
 30
0.0
  9
$EXTMAX
 10
38.0
 20
22.0
 30
0.0
  9
$LIMMIN
 10
0.0
 20
0.0
  9
$LIMMAX
 10
38.0
 20
22.0
  9
$ORTHOMODE
 70
     0
  9
$REGENMODE
 70
     1
  9
$FILLMODE
 70
     1
  9
$QTEXTMODE
 70
     0
  9
$MIRRTEXT
 70
     1
  9
$LTSCALE
 40
1.0
  9
$ATTMODE
 70
     1
  9
$TEXTSIZE
 40
0.2777777778
  9
$TRACEWID
 40
0.05
  9
$TEXTSTYLE
  7
Standard
  9
$CLAYER
  8
0
  9
$CELTYPE
  6
ByLayer
  9
$CECOLOR
 62
   256
  9
$CELTSCALE
 40
1.0
  9
$DISPSILH
 70
     0
  9
$DIMSCALE
 40
1.0
  9
$DIMASZ
 40
0.3640136719
  9
$DIMEXO
 40
0.05
  9
$DIMDLI
 40
0.38
  9
$DIMRND
 40
0.0
  9
$DIMDLE
 40
0.0
  9
$DIMEXE
 40
0.125
  9
$DIMTP
 40
0.0
  9
$DIMTM
 40
0.0
  9
$DIMTXT
 40
0.5
  9
$DIMCEN
 40
0.09
  9
$DIMTSZ
 40
0.0
  9
$DIMTOL
 70
     0
  9
$DIMLIM
 70
     0
  9
$DIMTIH
 70
     1
  9
$DIMTOH
 70
     1
  9
$DIMSE1
 70
     0
  9
$DIMSE2
 70
     0
  9
$DIMTAD
 70
     0
  9
$DIMZIN
 70
     0
  9
$DIMBLK
  1

  9
$DIMASO
 70
     1
  9
$DIMSHO
 70
     1
  9
$DIMPOST
  1

  9
$DIMAPOST
  1

  9
$DIMALT
 70
     0
  9
$DIMALTD
 70
     2
  9
$DIMALTF
 40
25.4
  9
$DIMLFAC
 40
4.0
  9
$DIMTOFL
 70
     0
  9
$DIMTVP
 40
0.0
  9
$DIMTIX
 70
     0
  9
$DIMSOXD
 70
     0
  9
$DIMSAH
 70
     0
  9
$DIMBLK1
  1

  9
$DIMBLK2
  1

  9
$DIMSTYLE
  2
Standard
  9
$DIMCLRD
 70
     0
  9
$DIMCLRE
 70
     0
  9
$DIMCLRT
 70
     0
  9
$DIMTFAC
 40
1.0
  9
$DIMGAP
 40
0.06
  9
$DIMJUST
 70
     0
  9
$DIMSD1
 70
     0
  9
$DIMSD2
 70
     0
  9
$DIMTOLJ
 70
     1
  9
$DIMTZIN
 70
     0
  9
$DIMALTZ
 70
     0
  9
$DIMALTTZ
 70
     0
  9
$DIMUPT
 70
     0
  9
$DIMDEC
 70
     3
  9
$DIMTDEC
 70
     3
  9
$DIMALTU
 70
     2
  9
$DIMALTTD
 70
     2
  9
$DIMTXSTY
  7
Standard
  9
$DIMAUNIT
 70
     0
  9
$DIMADEC
 70
     2
  9
$DIMALTRND
 40
0.0
  9
$DIMAZIN
 70
     0
  9
$DIMDSEP
 70
    46
  9
$DIMATFIT
 70
     3
  9
$DIMFRAC
 70
     0
  9
$DIMLDRBLK
  1

  9
$DIMLUNIT
 70
     2
  9
$DIMLWD
 70
    -2
  9
$DIMLWE
 70
    -2
  9
$DIMTMOVE
 70
     0
  9
$LUNITS
 70
     2
  9
$LUPREC
 70
     3
  9
$SKETCHINC
 40
0.1
  9
$FILLETRAD
 40
0.5
  9
$AUNITS
 70
     0
  9
$AUPREC
 70
     2
  9
$MENU
  1
.
  9
$ELEVATION
 40
0.0
  9
$PELEVATION
 40
0.0
  9
$THICKNESS
 40
0.0
  9
$LIMCHECK
 70
     0
  9
$CHAMFERA
 40
0.0
  9
$CHAMFERB
 40
0.0
  9
$CHAMFERC
 40
0.0
  9
$CHAMFERD
 40
0.0
  9
$SKPOLY
 70
     0
  9
$TDCREATE
 40
2458563.810548299
  9
$TDUCREATE
 40
2458564.018881632
  9
$TDUPDATE
 40
2458563.810550845
  9
$TDUUPDATE
 40
2458564.018884178
  9
$TDINDWG
 40
0.0000000116
  9
$TDUSRTIMER
 40
0.0000000116
  9
$USRTIMER
 70
     1
  9
$ANGBASE
 50
0.0
  9
$ANGDIR
 70
     0
  9
$PDMODE
 70
     0
  9
$PDSIZE
 40
-1.0
  9
$PLINEWID
 40
0.0
  9
$SPLFRAME
 70
     0
  9
$SPLINETYPE
 70
     6
  9
$SPLINESEGS
 70
     8
  9
$HANDSEED
  5
12E
  9
$SURFTAB1
 70
     6
  9
$SURFTAB2
 70
     6
  9
$SURFTYPE
 70
     6
  9
$SURFU
 70
     6
  9
$SURFV
 70
     6
  9
$UCSBASE
  2

  9
$UCSNAME
  2

  9
$UCSORG
 10
0.0
 20
0.0
 30
0.0
  9
$UCSXDIR
 10
1.0
 20
0.0
 30
0.0
  9
$UCSYDIR
 10
0.0
 20
1.0
 30
0.0
  9
$UCSORTHOREF
  2

  9
$UCSORTHOVIEW
 70
     0
  9
$UCSORGTOP
 10
0.0
 20
0.0
 30
0.0
  9
$UCSORGBOTTOM
 10
0.0
 20
0.0
 30
0.0
  9
$UCSORGLEFT
 10
0.0
 20
0.0
 30
0.0
  9
$UCSORGRIGHT
 10
0.0
 20
0.0
 30
0.0
  9
$UCSORGFRONT
 10
0.0
 20
0.0
 30
0.0
  9
$UCSORGBACK
 10
0.0
 20
0.0
 30
0.0
  9
$PUCSBASE
  2

  9
$PUCSNAME
  2

  9
$PUCSORG
 10
0.0
 20
0.0
 30
0.0
  9
$PUCSXDIR
 10
1.0
 20
0.0
 30
0.0
  9
$PUCSYDIR
 10
0.0
 20
1.0
 30
0.0
  9
$PUCSORTHOREF
  2

  9
$PUCSORTHOVIEW
 70
     0
  9
$PUCSORGTOP
 10
0.0
 20
0.0
 30
0.0
  9
$PUCSORGBOTTOM
 10
0.0
 20
0.0
 30
0.0
  9
$PUCSORGLEFT
 10
0.0
 20
0.0
 30
0.0
  9
$PUCSORGRIGHT
 10
0.0
 20
0.0
 30
0.0
  9
$PUCSORGFRONT
 10
0.0
 20
0.0
 30
0.0
  9
$PUCSORGBACK
 10
0.0
 20
0.0
 30
0.0
  9
$USERI1
 70
     0
  9
$USERI2
 70
     0
  9
$USERI3
 70
     0
  9
$USERI4
 70
     0
  9
$USERI5
 70
     0
  9
$USERR1
 40
0.0
  9
$USERR2
 40
0.0
  9
$USERR3
 40
0.0
  9
$USERR4
 40
0.0
  9
$USERR5
 40
0.0
  9
$WORLDVIEW
 70
     1
  9
$SHADEDGE
 70
     3
  9
$SHADEDIF
 70
    70
  9
$TILEMODE
 70
     1
  9
$MAXACTVP
 70
    64
  9
$PINSBASE
 10
0.0
 20
0.0
 30
0.0
  9
$PLIMCHECK
 70
     0
  9
$PEXTMIN
 10
1.0000000000E+20
 20
1.0000000000E+20
 30
1.0000000000E+20
  9
$PEXTMAX
 10
-1.0000000000E+20
 20
-1.0000000000E+20
 30
-1.0000000000E+20
  9
$PLIMMIN
 10
0.0
 20
0.0
  9
$PLIMMAX
 10
12.0
 20
9.0
  9
$UNITMODE
 70
     0
  9
$VISRETAIN
 70
     1
  9
$PLINEGEN
 70
     0
  9
$PSLTSCALE
 70
     1
  9
$TREEDEPTH
 70
  3020
  9
$CMLSTYLE
  2
Standard
  9
$CMLJUST
 70
     0
  9
$CMLSCALE
 40
1.0
  9
$PROXYGRAPHICS
 70
     1
  9
$MEASUREMENT
 70
     0
  9
$CELWEIGHT
370
    -1
  9
$ENDCAPS
280
     0
  9
$JOINSTYLE
280
     0
  9
$LWDISPLAY
290
     1
  9
$INSUNITS
 70
     1
  9
$HYPERLINKBASE
  1

  9
$STYLESHEET
  1

  9
$XEDIT
290
     1
  9
$CEPSNTYPE
380
     0
  9
$PSTYLEMODE
290
     1
  9
$FINGERPRINTGUID
  2
{C0D8C01E-CB54-4E18-A438-C87C6F9F5F3B}
  9
$VERSIONGUID
  2
{FAEB1C32-E019-11D5-929B-00C0DF256EC4}
  9
$EXTNAMES
290
     1
  9
$PSVPSCALE
 40
0.0
  9
$OLESTARTUP
290
     0
  0
ENDSEC
  0
SECTION
  2
CLASSES
  0
CLASS
  1
ACDBDICTIONARYWDFLT
  2
AcDbDictionaryWithDefault
  3
ObjectDBX Classes
 90
        0
280
     0
281
     0
  0
CLASS
  1
VISUALSTYLE
  2
AcDbVisualStyle
  3
ObjectDBX Classes
 90
     4095
280
     0
281
     0
  0
CLASS
  1
MATERIAL
  2
AcDbMaterial
  3
ObjectDBX Classes
 90
     1153
280
     0
281
     0
  0
CLASS
  1
SCALE
  2
AcDbScale
  3
ObjectDBX Classes
 90
     1153
280
     0
281
     0
  0
CLASS
  1
TABLESTYLE
  2
AcDbTableStyle
  3
ObjectDBX Classes
 90
     4095
280
     0
281
     0
  0
CLASS
  1
MLEADERSTYLE
  2
AcDbMLeaderStyle
  3
ACDB_MLEADERSTYLE_CLASS
 90
     4095
280
     0
281
     0
  0
CLASS
  1
SUN
  2
AcDbSun
  3
SCENEOE
 90
     1153
280
     0
281
     0
  0
CLASS
  1
ACDBPLACEHOLDER
  2
AcDbPlaceHolder
  3
ObjectDBX Classes
 90
        0
280
     0
281
     0
  0
CLASS
  1
LAYOUT
  2
AcDbLayout
  3
ObjectDBX Classes
 90
        0
280
     0
281
     0
  0
ENDSEC
  0
SECTION
  2
TABLES
  0
TABLE
  2
VPORT
  5
8
330
0
100
AcDbSymbolTable
 70
     1
  0
VPORT
  5
29
330
8
100
AcDbSymbolTableRecord
100
AcDbViewportTableRecord
  2
*Active
 70
     0
 10
0.0
 20
0.0
 11
1.0
 21
1.0
 12
19.0
 22
11.0
 13
0.0
 23
0.0
 14
0.5
 24
0.5
 15
0.5
 25
0.5
 16
0.0
 26
0.0
 36
1.0
 17
0.0
 27
0.0
 37
0.0
 40
22.0
 41
1.7272727273
 42
50.0
 43
0.0
 44
0.0
 50
0.0
 51
0.0
 71
     0
 72
  2000
 73
     1
 74
     3
 75
     0
 76
     0
 77
     0
 78
     0
281
     0
 65
     1
110
0.0
120
0.0
130
0.0
111
1.0
121
0.0
131
0.0
112
0.0
122
1.0
132
0.0
 79
     0
146
0.0
  0
ENDTAB
  0
TABLE
  2
LTYPE
  5
5
330
0
100
AcDbSymbolTable
 70
     6
  0
LTYPE
  5
14
330
5
100
AcDbSymbolTableRecord
100
AcDbLinetypeTableRecord
  2
ByBlock
 70
     0
  3

 72
    65
 73
     0
 40
0.0
  0
LTYPE
  5
15
330
5
100
AcDbSymbolTableRecord
100
AcDbLinetypeTableRecord
  2
ByLayer
 70
     0
  3

 72
    65
 73
     0
 40
0.0
  0
LTYPE
  5
16
330
5
100
AcDbSymbolTableRecord
100
AcDbLinetypeTableRecord
  2
Continuous
 70
     0
  3
Solid line
 72
    65
 73
     0
 40
0.0
  0
LTYPE
  5
6E
330
5
100
AcDbSymbolTableRecord
100
AcDbLinetypeTableRecord
  2
HIDDEN
 70
     0
  3
Hidden __ __ __ __ __ __ __ __ __ __ __ __ __ __
 72
    65
 73
     2
 40
0.075
 49
0.05
 74
     0
 49
-0.025
 74
     0
  0
LTYPE
  5
6F
330
5
100
AcDbSymbolTableRecord
100
AcDbLinetypeTableRecord
  2
PHANTOM
 70
     0
  3
Phantom ______  __  __  ______  __  __  ______
 72
    65
 73
     6
 40
0.5
 49
0.25
 74
     0
 49
-0.05
 74
     0
 49
0.05
 74
     0
 49
-0.05
 74
     0
 49
0.05
 74
     0
 49
-0.05
 74
     0
  0
LTYPE
  5
70
330
5
100
AcDbSymbolTableRecord
100
AcDbLinetypeTableRecord
  2
CENTER
 70
     0
  3
Center ____ _ ____ _ ____ _ ____ _ ____ _ ____
 72
    65
 73
     4
 40
0.4
 49
0.25
 74
     0
 49
-0.05
 74
     0
 49
0.05
 74
     0
 49
-0.05
 74
     0
  0
LTYPE
  5
71
330
5
100
AcDbSymbolTableRecord
100
AcDbLinetypeTableRecord
  2
CENTERX2
 70
     0
  3
Center (2x) ________  __  ________  __  _____
 72
    65
 73
     4
 40
0.8
 49
0.5
 74
     0
 49
-0.1
 74
     0
 49
0.1
 74
     0
 49
-0.1
 74
     0
  0
LTYPE
  5
72
330
5
100
AcDbSymbolTableRecord
100
AcDbLinetypeTableRecord
  2
DOT2
 70
     0
  3
Dot (.5x) ........................................
 72
    65
 73
     2
 40
0.025
 49
0.0
 74
     0
 49
-0.025
 74
     0
  0
ENDTAB
  0
TABLE
  2
LAYER
  5
2
330
0
100
AcDbSymbolTable
 70
     8
  0
LAYER
  5
10
330
2
100
AcDbSymbolTableRecord
100
AcDbLayerTableRecord
  2
0
 70
     0
 62
     7
  6
Continuous
370
    -3
390
F
  0
LAYER
  5
73
330
2
100
AcDbSymbolTableRecord
100
AcDbLayerTableRecord
  2
SLD-0
 70
     0
 62
   179
  6
Continuous
370
    -3
390
F
  0
LAYER
  5
74
330
2
100
AcDbSymbolTableRecord
100
AcDbLayerTableRecord
  2
OBJECTS
 70
     0
 62
     7
  6
Continuous
370
    -3
390
F
  0
LAYER
  5
75
330
2
100
AcDbSymbolTableRecord
100
AcDbLayerTableRecord
  2
DIMS
 70
     0
 62
     7
  6
Continuous
370
    -3
390
F
  0
LAYER
  5
76
330
2
100
AcDbSymbolTableRecord
100
AcDbLayerTableRecord
  2
NOTES
 70
     0
 62
     7
  6
Continuous
370
    -3
390
F
  0
LAYER
  5
77
330
2
100
AcDbSymbolTableRecord
100
AcDbLayerTableRecord
  2
IMAGES
 70
     0
 62
     7
  6
Continuous
370
    -3
390
F
  0
LAYER
  5
78
330
2
100
AcDbSymbolTableRecord
100
AcDbLayerTableRecord
  2
CENTERLINES
 70
     0
 62
     7
  6
HIDDEN
370
    -3
390
F
  0
LAYER
  5
79
330
2
100
AcDbSymbolTableRecord
100
AcDbLayerTableRecord
  2
BLOCKS
 70
     0
 62
    16
  6
Continuous
370
    -3
390
F
  0
ENDTAB
  0
TABLE
  2
STYLE
  5
3
330
0
100
AcDbSymbolTable
 70
     2
  0
STYLE
  5
11
330
3
100
AcDbSymbolTableRecord
100
AcDbTextStyleTableRecord
  2
Standard
 70
     0
 40
0.0
 41
1.0
 50
0.0
 71
     0
 42
0.2777777778
  3
txt
  4

  0
STYLE
  5
BB
330
3
100
AcDbSymbolTableRecord
100
AcDbTextStyleTableRecord
  2
SLDTEXTSTYLE0
 70
     0
 40
0.0
 41
0.605
 50
0.0
 71
     0
 42
0.2777777778
  3
TXT
  4

  0
ENDTAB
  0
TABLE
  2
VIEW
  5
6
330
0
100
AcDbSymbolTable
 70
     0
  0
ENDTAB
  0
TABLE
  2
UCS
  5
7
330
0
100
AcDbSymbolTable
 70
     0
  0
ENDTAB
  0
TABLE
  2
APPID
  5
9
330
0
100
AcDbSymbolTable
 70
     1
  0
APPID
  5
12
330
9
100
AcDbSymbolTableRecord
100
AcDbRegAppTableRecord
  2
ACAD
 70
     0
  0
ENDTAB
  0
TABLE
  2
DIMSTYLE
  5
A
330
0
100
AcDbSymbolTable
 70
     4
100
AcDbDimStyleTable
  0
DIMSTYLE
105
27
330
A
100
AcDbSymbolTableRecord
100
AcDbDimStyleTableRecord
  2
Standard
 70
     0
178
     0
340
11
  0
DIMSTYLE
105
E4
330
A
100
AcDbSymbolTableRecord
100
AcDbDimStyleTableRecord
  2
SLDDIMSTYLE0
 70
     0
 41
0.3640136719
 44
0.0
 45
0.000000001
146
0.3640136719
147
0.0
173
     1
178
     0
271
     0
272
     0
276
     2
277
     5
340
11
  0
DIMSTYLE
105
F2
102
{ACAD_REACTORS
330
F1
330
102
102
}
330
A
100
AcDbSymbolTableRecord
100
AcDbDimStyleTableRecord
  2
SLDDIMSTYLE1
 70
     0
 41
0.3640136719
 44
0.0
 45
0.000000001
 78
    12
 79
     3
140
0.3640136719
147
0.091003418
148
0.000000001
170
     1
173
     1
178
     0
271
     3
272
     3
276
     2
277
     5
284
    12
340
BB
  0
DIMSTYLE
105
113
102
{ACAD_REACTORS
330
112
102
}
330
A
100
AcDbSymbolTableRecord
100
AcDbDimStyleTableRecord
  2
SLDDIMSTYLE2
 70
     0
 41
0.3640136719
 44
0.0
 45
0.000000001
 78
    12
 79
     3
140
0.3640136719
141
0.0
147
0.091003418
148
0.000000001
170
     1
173
     1
178
     0
271
     3
272
     3
276
     2
277
     5
279
     1
284
    12
340
BB
  0
ENDTAB
  0
TABLE
  2
BLOCK_RECORD
  5
1
330
0
100
AcDbSymbolTable
 70
    10
  0
BLOCK_RECORD
  5
1F
330
1
100
AcDbSymbolTableRecord
100
AcDbBlockTableRecord
  2
*Model_Space
340
22
  0
BLOCK_RECORD
  5
1B
330
1
100
AcDbSymbolTableRecord
100
AcDbBlockTableRecord
  2
*Paper_Space
340
1E
  0
BLOCK_RECORD
  5
23
330
1
100
AcDbSymbolTableRecord
100
AcDbBlockTableRecord
  2
*Paper_Space0
340
26
  0
BLOCK_RECORD
  5
7A
330
1
100
AcDbSymbolTableRecord
100
AcDbBlockTableRecord
  2
REVEAL - .125
340
0
102
{BLKREFS
331
F0
102
}
  0
BLOCK_RECORD
  5
AC
330
1
100
AcDbSymbolTableRecord
100
AcDbBlockTableRecord
  2
SW_BLOCK_DIMENSION_0
340
0
102
{BLKREFS
331
C0
102
}
  0
BLOCK_RECORD
  5
C5
330
1
100
AcDbSymbolTableRecord
100
AcDbBlockTableRecord
  2
SW_NOTE_0
340
0
102
{BLKREFS
331
CA
102
}
  0
BLOCK_RECORD
  5
CB
330
1
100
AcDbSymbolTableRecord
100
AcDbBlockTableRecord
  2
SW_NOTE_1
340
0
102
{BLKREFS
331
DB
102
}
  0
BLOCK_RECORD
  5
DC
330
1
100
AcDbSymbolTableRecord
100
AcDbBlockTableRecord
  2
SW_NOTE_2
340
0
102
{BLKREFS
331
E3
102
}
  0
BLOCK_RECORD
  5
F3
330
1
100
AcDbSymbolTableRecord
100
AcDbBlockTableRecord
  2
_D
340
0
  0
BLOCK_RECORD
  5
103
330
1
100
AcDbSymbolTableRecord
100
AcDbBlockTableRecord
  2
_D_1
340
0
  0
BLOCK_RECORD
  5
114
330
1
100
AcDbSymbolTableRecord
100
AcDbBlockTableRecord
  2
_D_2
340
0
  0
BLOCK_RECORD
  5
127
330
1
100
AcDbSymbolTableRecord
100
AcDbBlockTableRecord
  2
SW_NOTE_3
340
0
102
{BLKREFS
331
12C
102
}
  0
ENDTAB
  0
ENDSEC
  0
SECTION
  2
BLOCKS
  0
BLOCK
  5
20
330
1F
100
AcDbEntity
  8
0
100
AcDbBlockBegin
  2
*Model_Space
 70
     0
 10
0.0
 20
0.0
 30
0.0
  3
*Model_Space
  1

  0
ENDBLK
  5
21
330
1F
100
AcDbEntity
  8
0
100
AcDbBlockEnd
  0
BLOCK
  5
1C
330
1B
100
AcDbEntity
 67
     1
  8
0
100
AcDbBlockBegin
  2
*Paper_Space
 70
     0
 10
0.0
 20
0.0
 30
0.0
  3
*Paper_Space
  1

  0
ENDBLK
  5
1D
330
1B
100
AcDbEntity
 67
     1
  8
0
100
AcDbBlockEnd
  0
BLOCK
  5
24
330
23
100
AcDbEntity
  8
0
100
AcDbBlockBegin
  2
*Paper_Space0
 70
     0
 10
0.0
 20
0.0
 30
0.0
  3
*Paper_Space0
  1

  0
ENDBLK
  5
25
330
23
100
AcDbEntity
  8
0
100
AcDbBlockEnd
  0
BLOCK
  5
7B
330
7A
100
AcDbEntity
  8
0
100
AcDbBlockBegin
  2
REVEAL - .125
 70
     0
 10
0.0
 20
0.0
 30
0.0
  3
REVEAL - .125
  1

  0
ARC
  5
7D
330
7A
100
AcDbEntity
  8
BLOCKS
100
AcDbCircle
 10
-1.4047720451
 20
-12.8442954347
 30
0.0
 40
0.2333367804802293
100
AcDbArc
 50
0.0
 51
90.0
  0
ARC
  5
7E
330
7A
100
AcDbEntity
  8
BLOCKS
100
AcDbCircle
 10
-1.4394760169
 20
-12.1962194696
 30
0.0
 40
0.0041583245038854
100
AcDbArc
 50
0.0
 51
90.0
  0
ARC
  5
7F
330
7A
100
AcDbEntity
  8
BLOCKS
100
AcDbCircle
 10
-2.2191634439
 20
-12.7398388164
 30
0.0
 40
0.0881257319589163
100
AcDbArc
 50
200.9822712638
 51
339.0177287362
  0
ARC
  5
80
330
7A
100
AcDbEntity
  8
BLOCKS
100
AcDbCircle
 10
-1.4047720451
 20
-12.8442954347
 30
0.0
 40
0.1874525384626438
100
AcDbArc
 50
0.0
 51
90.0
  0
LINE
  5
81
330
7A
100
AcDbEntity
  8
BLOCKS
100
AcDbLine
 10
-1.4394760169
 20
-12.1920611451
 30
0.0
 11
-3.01526606
 21
-12.1920611451
 31
0.0
  0
LINE
  5
82
330
7A
100
AcDbEntity
  8
BLOCKS
100
AcDbLine
 10
-2.9855824064
 20
-12.587244826
 30
0.0
 11
-1.4353176924
 21
-12.5884178222
 31
0.0
  0
LINE
  5
83
330
7A
100
AcDbEntity
  8
BLOCKS
100
AcDbLine
 10
-1.9656725284
 20
-12.6109586542
 30
0.0
 11
-1.4047720451
 21
-12.6109586542
 31
0.0
  0
LINE
  5
84
330
7A
100
AcDbEntity
  8
BLOCKS
100
AcDbLine
 10
-1.1714352646
 20
-12.8442954347
 30
0.0
 11
-1.1714352646
 21
-13.2310110215
 31
0.0
  0
LINE
  5
85
330
7A
100
AcDbEntity
  8
BLOCKS
100
AcDbLine
 10
-1.1714352646
 20
-13.2310110215
 30
0.0
 11
-1.2173195066
 21
-13.2310110215
 31
0.0
  0
LINE
  5
86
330
7A
100
AcDbEntity
  8
BLOCKS
100
AcDbLine
 10
-1.2173195066
 20
-13.2310110215
 30
0.0
 11
-1.2173195066
 21
-12.8442954347
 31
0.0
  0
LINE
  5
87
330
7A
100
AcDbEntity
  8
BLOCKS
100
AcDbLine
 10
-1.4047720451
 20
-12.6568428962
 30
0.0
 11
-1.9656725284
 21
-12.6568428962
 31
0.0
  0
LINE
  5
88
330
7A
100
AcDbEntity
  8
BLOCKS
100
AcDbLine
 10
-1.9656725284
 20
-12.6568428962
 30
0.0
 11
-1.9656725284
 21
-12.6109586542
 31
0.0
  0
LINE
  5
89
330
7A
100
AcDbEntity
  8
BLOCKS
100
AcDbLine
 10
-1.5885264144
 20
-12.7093957625
 30
0.0
 11
-1.5358283025
 21
-12.6587686221
 31
0.0
  0
LINE
  5
8A
330
7A
100
AcDbEntity
  8
BLOCKS
100
AcDbLine
 10
-1.5358283025
 20
-12.6587686221
 30
0.0
 11
-1.4932052497
 21
-12.7031352284
 31
0.0
  0
LINE
  5
8B
330
7A
100
AcDbEntity
  8
BLOCKS
100
AcDbLine
 10
-1.4932052497
 20
-12.7031352284
 30
0.0
 11
-1.562140852
 21
-12.7693617458
 31
0.0
  0
LINE
  5
8C
330
7A
100
AcDbEntity
  8
BLOCKS
100
AcDbLine
 10
-2.8296332645
 20
-12.6419825586
 30
0.0
 11
-2.8821446813
 21
-12.5873230914
 31
0.0
  0
LINE
  5
8D
330
7A
100
AcDbEntity
  8
BLOCKS
100
AcDbLine
 10
-2.8821446813
 20
-12.5873230914
 30
0.0
 11
-2.9245601437
 21
-12.6280716779
 31
0.0
  0
LINE
  5
8E
330
7A
100
AcDbEntity
  8
BLOCKS
100
AcDbLine
 10
-2.9245601437
 20
-12.6280716779
 30
0.0
 11
-2.8624774729
 21
-12.692693924
 31
0.0
  0
LINE
  5
8F
330
7A
100
AcDbEntity
  8
BLOCKS
100
AcDbLine
 10
-2.8296332645
 20
-12.6419825586
 30
0.0
 11
-1.5885264144
 21
-12.7093957625
 31
0.0
  0
LINE
  5
90
330
7A
100
AcDbEntity
  8
BLOCKS
100
AcDbLine
 10
-1.562140852
 20
-12.7693617458
 30
0.0
 11
-2.8624774729
 21
-12.692693924
 31
0.0
  0
LINE
  5
91
330
7A
100
AcDbEntity
  8
BLOCKS
100
AcDbLine
 10
-2.1393972724
 20
-12.6794741087
 30
0.0
 11
-2.1393972724
 21
-12.7353267185
 31
0.0
  0
LINE
  5
92
330
7A
100
AcDbEntity
  8
BLOCKS
100
AcDbLine
 10
-2.2940106407
 20
-12.671075974
 30
0.0
 11
-2.2940106407
 21
-12.7262107174
 31
0.0
  0
LINE
  5
93
330
7A
100
AcDbEntity
  8
BLOCKS
100
AcDbLine
 10
-2.3014456705
 20
-12.7713947956
 30
0.0
 11
-2.1368812173
 21
-12.7713947956
 31
0.0
  0
LINE
  5
94
330
7A
100
AcDbEntity
  8
BLOCKS
100
AcDbLine
 10
-2.2566740506
 20
-12.381095059
 30
0.0
 11
-2.2566740506
 21
-12.7713947956
 31
0.0
  0
LINE
  5
95
330
7A
100
AcDbEntity
  8
BLOCKS
100
AcDbLine
 10
-2.1797821788
 20
-12.381095059
 30
0.0
 11
-2.1797821788
 21
-12.7713947956
 31
0.0
  0
LINE
  5
96
330
7A
100
AcDbEntity
  8
BLOCKS
100
AcDbLine
 10
-2.3194491289
 20
-12.7273697282
 30
0.0
 11
-2.1070425499
 21
-12.739893216
 31
0.0
  0
LINE
  5
97
330
7A
100
AcDbEntity
  8
BLOCKS
100
AcDbLine
 10
-2.2566740506
 20
-12.381095059
 30
0.0
 11
-2.2187090708
 21
-12.325905678
 31
0.0
  0
LINE
  5
98
330
7A
100
AcDbEntity
  8
BLOCKS
100
AcDbLine
 10
-2.2187090708
 20
-12.325905678
 30
0.0
 11
-2.1797821788
 21
-12.381095059
 31
0.0
  0
LINE
  5
99
330
7A
100
AcDbEntity
  8
BLOCKS
100
AcDbLine
 10
-2.108936665
 20
-12.7720186533
 30
0.0
 11
-2.3213432441
 21
-12.7594951655
 31
0.0
  0
LINE
  5
9A
330
7A
100
AcDbEntity
  8
BLOCKS
100
AcDbLine
 10
-2.1070425499
 20
-12.739893216
 30
0.0
 11
-2.108936665
 21
-12.7720186533
 31
0.0
  0
LINE
  5
9B
330
7A
100
AcDbEntity
  8
BLOCKS
100
AcDbLine
 10
-2.3194491289
 20
-12.7273697282
 30
0.0
 11
-2.3213432441
 21
-12.7594951655
 31
0.0
  0
LINE
  5
9C
330
7A
100
AcDbEntity
  8
BLOCKS
100
AcDbLine
 10
-2.1534117467
 20
-12.5878744817
 30
0.0
 11
-2.1534117467
 21
-12.3074165013
 31
0.0
  0
LINE
  5
9D
330
7A
100
AcDbEntity
  8
BLOCKS
100
AcDbLine
 10
-2.1534117467
 20
-12.3074165013
 30
0.0
 11
-2.2799487024
 21
-12.3074165013
 31
0.0
  0
LINE
  5
9E
330
7A
100
AcDbEntity
  8
BLOCKS
100
AcDbLine
 10
-2.2799487024
 20
-12.3074165013
 30
0.0
 11
-2.2799487024
 21
-12.5877787385
 31
0.0
  0
LINE
  5
9F
330
7A
100
AcDbEntity
  8
BLOCKS
  6
Continuous
100
AcDbLine
 10
-1.4353176924
 20
-12.5884178222
 30
0.0
 11
-1.4353176924
 21
-12.1962194696
 31
0.0
  0
LINE
  5
A0
330
7A
100
AcDbEntity
  8
BLOCKS
100
AcDbLine
 10
-1.9656725284
 20
-12.5880165332
 30
0.0
 11
-1.9656725284
 21
-12.6339007752
 31
0.0
  0
LINE
  5
A1
330
7A
100
AcDbEntity
  8
BLOCKS
100
AcDbLine
 10
-1.4353176924
 20
-12.5884178222
 30
0.0
 11
-1.4200334992
 21
-12.6109586542
 31
0.0
  0
SPLINE
  5
A2
330
7A
100
AcDbEntity
  8
BLOCKS
100
AcDbSpline
210
0.0
220
0.0
230
1.0
 70
     8
 71
     3
 72
     9
 73
     5
 74
     0
 42
0.000000001
 43
0.00000001
 40
0.0
 40
0.0
 40
0.0
 40
0.0
 40
0.5928291688347104
 40
1.0
 40
1.0
 40
1.0
 40
1.0
 10
-2.985582406350157
 20
-12.58724482604875
 30
0.0
 10
-3.030158058563441
 20
-12.50141038487578
 30
0.0
 10
-2.950675096239938
 20
-12.38218687093916
 30
0.0
 10
-2.968787917689462
 20
-12.22793862570682
 30
0.0
 10
-3.015266060000032
 20
-12.19206114512515
 30
0.0
  0
HATCH
  5
A3
330
7A
100
AcDbEntity
  8
BLOCKS
 62
    16
100
AcDbHatch
 10
0.0
 20
0.0
 30
0.0
210
0.0
220
0.0
230
1.0
  2
ANSI36
 70
     0
 71
     0
 91
        1
 92
        0
 93
       10
 72
     4
 94
        3
 73
     1
 74
     0
 95
        9
 96
        5
 40
0.0
 40
0.0
 40
0.0
 40
0.0
 40
0.4071708311652896
 40
1.0
 40
1.0
 40
1.0
 40
1.0
 10
-3.015266060000032
 20
-12.19206114512515
 42
1.0
 10
-2.968787917689462
 20
-12.22793862570682
 42
1.0
 10
-2.950675096239938
 20
-12.38218687093916
 42
1.0
 10
-3.030158058563441
 20
-12.50141038487578
 42
1.0
 10
-2.985582406350157
 20
-12.58724482604875
 42
1.0
 72
     1
 10
-2.985582406350157
 20
-12.58724482604875
 11
-2.279948702443812
 21
-12.58777873850265
 72
     1
 10
-2.279948702443812
 20
-12.58777873850265
 11
-2.279948702443812
 21
-12.30741650130867
 72
     1
 10
-2.279948702443812
 20
-12.30741650130867
 11
-2.153411746731021
 21
-12.30741650130867
 72
     1
 10
-2.153411746731021
 20
-12.30741650130867
 11
-2.153411746731021
 21
-12.5878744817419
 72
     1
 10
-2.153411746731021
 20
-12.5878744817419
 11
-1.965672528406843
 21
-12.58801653321449
 72
     1
 10
-1.965672528406843
 20
-12.58801653321449
 11
-1.435317692358862
 21
-12.5884178222266
 72
     1
 10
-1.435317692358862
 20
-12.5884178222266
 11
-1.435317692358862
 21
-12.19621946962904
 72
     2
 10
-1.439476016862747
 20
-12.19621946962904
 40
0.0041583245038848
 50
0.0
 51
90.0
 73
     1
 72
     1
 10
-1.439476016862747
 20
-12.19206114512515
 11
-3.015266060000032
 21
-12.19206114512515
 97
        0
 75
     0
 76
     1
 52
0.0
 41
0.5
 77
     0
 78
     1
 53
45.0
 43
0.0
 44
0.0
 45
0.0331456303681194
 46
0.1215339780164378
 79
     4
 49
0.15625
 49
-0.03125
 49
0.0
 49
-0.03125
 98
        1
 10
0.0
 20
0.0
  0
HATCH
  5
A4
330
7A
100
AcDbEntity
  8
BLOCKS
 62
    16
100
AcDbHatch
 10
0.0
 20
0.0
 30
0.0
210
0.0
220
0.0
230
1.0
  2
ANSI32
 70
     0
 71
     0
 91
        1
 92
        0
 93
        5
 72
     1
 10
-2.179782178789117
 20
-12.38109505902804
 11
-2.218709070778683
 21
-12.32590567801565
 72
     1
 10
-2.218709070778683
 20
-12.32590567801565
 11
-2.256674050591661
 21
-12.38109505902804
 72
     1
 10
-2.256674050591661
 20
-12.38109505902804
 11
-2.256674050591661
 21
-12.58779634909355
 72
     1
 10
-2.256674050591661
 20
-12.58779634909355
 11
-2.179782178789117
 21
-12.58785452875211
 72
     1
 10
-2.179782178789117
 20
-12.58785452875211
 11
-2.179782178789117
 21
-12.38109505902804
 97
        0
 75
     0
 76
     1
 52
0.0
 41
0.1666666667
 77
     0
 78
     2
 53
45.0
 43
0.0
 44
0.0
 45
-0.0441941738241592
 46
0.0441941738241592
 79
     0
 53
45.0
 43
0.0294627825
 44
0.0
 45
-0.0441941738241592
 46
0.0441941738241592
 79
     0
 98
        1
 10
0.0
 20
0.0
  0
HATCH
  5
A5
330
7A
100
AcDbEntity
  8
BLOCKS
 62
    16
100
AcDbHatch
 10
0.0
 20
0.0
 30
0.0
210
0.0
220
0.0
230
1.0
  2
ANSI32
 70
     0
 71
     0
 91
        1
 92
        0
 93
        4
 72
     1
 10
-2.179782178789117
 20
-12.67728052166976
 11
-2.179782178789117
 21
-12.58785452875211
 72
     1
 10
-2.179782178789117
 20
-12.58785452875211
 11
-2.256674050591661
 21
-12.58779634909355
 72
     1
 10
-2.256674050591661
 20
-12.58779634909355
 11
-2.256674050591661
 21
-12.67310398567544
 72
     1
 10
-2.256674050591661
 20
-12.67310398567544
 11
-2.179782178789117
 21
-12.67728052166976
 97
        0
 75
     0
 76
     1
 52
0.0
 41
0.1666666667
 77
     0
 78
     2
 53
45.0
 43
0.0
 44
0.0
 45
-0.0441941738241592
 46
0.0441941738241592
 79
     0
 53
45.0
 43
0.0294627825
 44
0.0
 45
-0.0441941738241592
 46
0.0441941738241592
 79
     0
 98
        1
 10
0.0
 20
0.0
  0
HATCH
  5
A6
330
7A
100
AcDbEntity
  8
BLOCKS
 62
    16
100
AcDbHatch
 10
0.0
 20
0.0
 30
0.0
210
0.0
220
0.0
230
1.0
  2
ANSI32
 70
     0
 71
     0
 91
        1
 92
        0
 93
        4
 72
     1
 10
-2.179782178789117
 20
-12.73294562524584
 11
-2.179782178789117
 21
-12.67728052166976
 72
     1
 10
-2.179782178789117
 20
-12.67728052166976
 11
-2.256674050591661
 21
-12.67310398567544
 72
     1
 10
-2.256674050591661
 20
-12.67310398567544
 11
-2.256674050591661
 21
-12.72841208198663
 72
     1
 10
-2.256674050591661
 20
-12.72841208198663
 11
-2.179782178789117
 21
-12.73294562524584
 97
        0
 75
     0
 76
     1
 52
0.0
 41
0.1666666667
 77
     0
 78
     2
 53
45.0
 43
0.0
 44
0.0
 45
-0.0441941738241592
 46
0.0441941738241592
 79
     0
 53
45.0
 43
0.0294627825
 44
0.0
 45
-0.0441941738241592
 46
0.0441941738241592
 79
     0
 98
        1
 10
0.0
 20
0.0
  0
HATCH
  5
A7
330
7A
100
AcDbEntity
  8
BLOCKS
 62
    16
100
AcDbHatch
 10
0.0
 20
0.0
 30
0.0
210
0.0
220
0.0
230
1.0
  2
ANSI32
 70
     0
 71
     0
 91
        1
 92
        0
 93
        4
 72
     1
 10
-2.256674050591661
 20
-12.76330805989465
 11
-2.179782178789118
 21
-12.76784160315386
 72
     1
 10
-2.179782178789118
 20
-12.76784160315386
 11
-2.179782178789118
 21
-12.73560448884958
 72
     1
 10
-2.179782178789118
 20
-12.73560448884958
 11
-2.256674050591661
 21
-12.73107094559037
 72
     1
 10
-2.256674050591661
 20
-12.73107094559037
 11
-2.256674050591661
 21
-12.76330805989465
 97
        0
 75
     0
 76
     1
 52
0.0
 41
0.1666666667
 77
     0
 78
     2
 53
45.0
 43
0.0
 44
0.0
 45
-0.0441941738241592
 46
0.0441941738241592
 79
     0
 53
45.0
 43
0.0294627825
 44
0.0
 45
-0.0441941738241592
 46
0.0441941738241592
 79
     0
 98
        1
 10
0.0
 20
0.0
  0
HATCH
  5
A8
330
7A
100
AcDbEntity
  8
BLOCKS
 62
    16
100
AcDbHatch
 10
0.0
 20
0.0
 30
0.0
210
0.0
220
0.0
230
1.0
  2
ANSI32
 70
     0
 71
     0
 91
        1
 92
        0
 93
        4
 72
     1
 10
-2.256674050591661
 20
-12.73107094559037
 11
-2.319449128927512
 21
-12.72736972819816
 72
     1
 10
-2.319449128927512
 20
-12.72736972819816
 11
-2.321343244083758
 21
-12.75949516550983
 72
     1
 10
-2.321343244083758
 20
-12.75949516550983
 11
-2.256674050591661
 21
-12.76330805989465
 72
     1
 10
-2.256674050591661
 20
-12.76330805989465
 11
-2.256674050591661
 21
-12.73107094559037
 97
        0
 75
     0
 76
     1
 52
0.0
 41
0.1666666667
 77
     0
 78
     2
 53
45.0
 43
0.0
 44
0.0
 45
-0.0441941738241592
 46
0.0441941738241592
 79
     0
 53
45.0
 43
0.0294627825
 44
0.0
 45
-0.0441941738241592
 46
0.0441941738241592
 79
     0
 98
        1
 10
0.0
 20
0.0
  0
HATCH
  5
A9
330
7A
100
AcDbEntity
  8
BLOCKS
 62
    16
100
AcDbHatch
 10
0.0
 20
0.0
 30
0.0
210
0.0
220
0.0
230
1.0
  2
ANSI32
 70
     0
 71
     0
 91
        1
 92
        0
 93
        4
 72
     1
 10
-2.108936665011524
 20
-12.77201865326204
 11
-2.107042549855277
 21
-12.73989321595037
 72
     1
 10
-2.107042549855277
 20
-12.73989321595037
 11
-2.179782178789118
 21
-12.73560448884958
 72
     1
 10
-2.179782178789118
 20
-12.73560448884958
 11
-2.179782178789118
 21
-12.76784160315386
 72
     1
 10
-2.179782178789118
 20
-12.76784160315386
 11
-2.108936665011524
 21
-12.77201865326204
 97
        0
 75
     0
 76
     1
 52
0.0
 41
0.1666666667
 77
     0
 78
     2
 53
45.0
 43
0.0
 44
0.0
 45
-0.0441941738241592
 46
0.0441941738241592
 79
     0
 53
45.0
 43
0.0294627825
 44
0.0
 45
-0.0441941738241592
 46
0.0441941738241592
 79
     0
 98
        1
 10
0.0
 20
0.0
  0
HATCH
  5
AA
330
7A
100
AcDbEntity
  8
BLOCKS
 62
    16
100
AcDbHatch
 10
0.0
 20
0.0
 30
0.0
210
0.0
220
0.0
230
1.0
  2
ANSI32
 70
     0
 71
     0
 91
        1
 92
        0
 93
        4
 72
     1
 10
-2.256674050591661
 20
-12.7713947955757
 11
-2.301445670477764
 21
-12.7713947955757
 72
     2
 10
-2.219163443908178
 20
-12.73983881636341
 40
0.0881257319589163
 50
200.9822712637967
 51
339.0177287362049
 73
     1
 72
     1
 10
-2.136881217338592
 20
-12.7713947955757
 11
-2.179782178789117
 21
-12.7713947955757
 72
     1
 10
-2.179782178789117
 20
-12.7713947955757
 11
-2.256674050591661
 21
-12.7713947955757
 97
        0
 75
     0
 76
     1
 52
0.0
 41
0.1666666667
 77
     0
 78
     2
 53
45.0
 43
0.0
 44
0.0
 45
-0.0441941738241592
 46
0.0441941738241592
 79
     0
 53
45.0
 43
0.0294627825
 44
0.0
 45
-0.0441941738241592
 46
0.0441941738241592
 79
     0
 98
        1
 10
0.0
 20
0.0
  0
HATCH
  5
AB
330
7A
100
AcDbEntity
  8
BLOCKS
 62
    16
100
AcDbHatch
 10
0.0
 20
0.0
 30
0.0
210
0.0
220
0.0
230
1.0
  2
SOLID
 70
     1
 71
     0
 91
        1
 92
        0
 93
        4
 72
     1
 10
-1.420033499233286
 20
-12.61095865422328
 11
-1.435317692358862
 21
-12.5884178222266
 72
     1
 10
-1.435317692358862
 20
-12.5884178222266
 11
-1.965672528406843
 21
-12.58801653321449
 72
     1
 10
-1.965672528406843
 20
-12.58801653321449
 11
-1.965672528406843
 21
-12.61095865422328
 72
     1
 10
-1.965672528406843
 20
-12.61095865422328
 11
-1.420033499233286
 21
-12.61095865422328
 97
        0
 75
     0
 76
     1
 98
        1
 10
0.0
 20
0.0
  0
INSERT
  5
C0
330
7A
100
AcDbEntity
  8
BLOCKS
100
AcDbBlockReference
  2
SW_BLOCK_DIMENSION_0
 10
-2.104177894
 20
-11.8809041343
 30
0.0
  0
ENDBLK
  5
7C
330
7A
100
AcDbEntity
  8
0
100
AcDbBlockEnd
  0
BLOCK
  5
AD
330
AC
100
AcDbEntity
  8
0
100
AcDbBlockBegin
  2
SW_BLOCK_DIMENSION_0
 70
     0
 10
0.0
 20
0.0
 30
0.0
  3
SW_BLOCK_DIMENSION_0
  1

  0
SOLID
  5
AF
330
AC
100
AcDbEntity
  8
BLOCKS
 62
     0
100
AcDbTrace
 10
0.9327426294
 20
-0.0231481578
 30
0.0
 11
1.0338575382
 21
-0.0387042976
 31
0.0
 12
1.0338575382
 22
-0.007592018
 32
0.0
 13
1.0338575382
 23
-0.007592018
 33
0.0
  0
SOLID
  5
B0
330
AC
100
AcDbEntity
  8
BLOCKS
 62
     0
100
AcDbTrace
 10
0.6688602016
 20
-0.0231481578
 30
0.0
 11
0.5677452927
 21
-0.007592018
 31
0.0
 12
0.5677452927
 22
-0.0387042976
 32
0.0
 13
0.5677452927
 23
-0.0387042976
 33
0.0
  0
LINE
  5
B1
330
AC
100
AcDbEntity
  8
BLOCKS
 62
     0
100
AcDbLine
 10
0.1080246921
 20
-0.0231481486
 30
0.0
 11
0.0733024703
 21
-0.0231481486
 31
0.0
  0
LINE
  5
B2
330
AC
100
AcDbEntity
  8
BLOCKS
 62
     0
100
AcDbLine
 10
0.0733024703
 20
-0.0231481486
 30
0.0
 11
0.0733024703
 21
-0.1784336481
 31
0.0
  0
LINE
  5
B3
330
AC
100
AcDbEntity
  8
BLOCKS
 62
     0
100
AcDbLine
 10
0.0733024703
 20
-0.1784336481
 30
0.0
 11
0.1080246921
 21
-0.1784336481
 31
0.0
  0
LINE
  5
B4
330
AC
100
AcDbEntity
  8
BLOCKS
 62
     0
100
AcDbLine
 10
0.4552469376
 20
-0.0231481486
 30
0.0
 11
0.4899691594
 21
-0.0231481486
 31
0.0
  0
LINE
  5
B5
330
AC
100
AcDbEntity
  8
BLOCKS
 62
     0
100
AcDbLine
 10
0.4899691594
 20
-0.0231481486
 30
0.0
 11
0.4899691594
 21
-0.1784336481
 31
0.0
  0
LINE
  5
B6
330
AC
100
AcDbEntity
  8
BLOCKS
 62
     0
100
AcDbLine
 10
0.4899691594
 20
-0.1784336481
 30
0.0
 11
0.4552469376
 21
-0.1784336481
 31
0.0
  0
LINE
  5
B7
330
AC
100
AcDbEntity
  8
BLOCKS
 62
     0
100
AcDbLine
 10
0.9327426294
 20
-0.9133913004
 30
0.0
 11
0.9327426294
 21
0.1018518422
 31
0.0
  0
LINE
  5
B8
330
AC
100
AcDbEntity
  8
BLOCKS
 62
     0
100
AcDbLine
 10
0.6688602016
 20
-0.2653153354
 30
0.0
 11
0.6688602016
 21
0.1018518422
 31
0.0
  0
LINE
  5
B9
330
AC
100
AcDbEntity
  8
BLOCKS
 62
     0
100
AcDbLine
 10
0.9327426294
 20
-0.0231481578
 30
0.0
 11
1.1271943772
 21
-0.0231481578
 31
0.0
  0
LINE
  5
BA
330
AC
100
AcDbEntity
  8
BLOCKS
 62
     0
100
AcDbLine
 10
0.6688602016
 20
-0.0231481578
 30
0.0
 11
0.5639749262
 21
-0.0231481578
 31
0.0
  0
MTEXT
  5
BC
330
AC
100
AcDbEntity
  8
BLOCKS
 62
     0
100
AcDbMText
 10
0.0390625
 20
0.1342778896
 30
0.0
 40
0.1041666667
 41
0.0
 71
     1
 72
     1
  1

  7
SLDTEXTSTYLE0
 73
     1
 44
1.0
  0
MTEXT
  5
BD
330
AC
100
AcDbEntity
  8
BLOCKS
 62
     0
100
AcDbMText
 10
0.1851851982
 20
0.1342778896
 30
0.0
 40
0.1041666667
 41
0.0
 71
     1
 72
     1
  1
1/8
  7
SLDTEXTSTYLE0
 73
     1
 44
1.0
  0
MTEXT
  5
BE
330
AC
100
AcDbEntity
  8
BLOCKS
 62
     0
100
AcDbMText
 10
0.1080246921
 20
-0.0441557517
 30
0.0
 40
0.1041666667
 41
0.0
 71
     1
 72
     1
  1
3.200
  7
SLDTEXTSTYLE0
 73
     1
 44
1.0
  0
MTEXT
  5
BF
330
AC
100
AcDbEntity
  8
BLOCKS
 62
     0
100
AcDbMText
 10
0.5637539087
 20
0.1342778896
 30
0.0
 40
0.1041666667
 41
0.0
 71
     1
 72
     1
  1

  7
SLDTEXTSTYLE0
 73
     1
 44
1.0
  0
ENDBLK
  5
AE
330
AC
100
AcDbEntity
  8
0
100
AcDbBlockEnd
  0
BLOCK
  5
C6
330
C5
100
AcDbEntity
  8
0
100
AcDbBlockBegin
  2
SW_NOTE_0
 70
     0
 10
0.0
 20
0.0
 30
0.0
  3
SW_NOTE_0
  1

  0
MTEXT
  5
C8
330
C5
100
AcDbEntity
  8
0
  6
Continuous
 62
     0
370
     0
100
AcDbMText
 10
6.0042317708
 20
0.9399452269
 30
0.0
 40
0.7291666667
 41
0.0
 71
     2
 72
     1
  1
TEMPLATE #: 1000005207
  7
SLDTEXTSTYLE0
 73
     1
 44
1.0
  0
MTEXT
  5
C9
330
C5
100
AcDbEntity
  8
0
  6
Continuous
 62
     0
370
     0
100
AcDbMText
 10
5.9706135969
 20
-0.0165995549
 30
0.0
 40
0.375
 41
0.0
 71
     2
 72
     1
  1
TOP MOUNT TEMPLATE "Sink Size"
  7
SLDTEXTSTYLE0
 73
     1
 44
1.0
  0
ENDBLK
  5
C7
330
C5
100
AcDbEntity
  8
0
100
AcDbBlockEnd
  0
BLOCK
  5
CC
330
CB
100
AcDbEntity
  8
0
100
AcDbBlockBegin
  2
SW_NOTE_1
 70
     0
 10
0.0
 20
0.0
 30
0.0
  3
SW_NOTE_1
  1

  0
MTEXT
  5
CE
330
CB
100
AcDbEntity
  8
NOTES
 62
     0
100
AcDbMText
 10
0.0
 20
0.2417002012
 30
0.0
 40
0.1875
 41
0.0
 71
     1
 72
     1
  1
NOTES:
  7
SLDTEXTSTYLE0
 73
     1
 44
1.0
  0
MTEXT
  5
CF
330
CB
100
AcDbEntity
  8
NOTES
 62
     0
100
AcDbMText
 10
0.3937007786
 20
-0.2582997928
 30
0.0
 40
0.1875
 41
0.0
 71
     1
 72
     1
  1
THOROUGHLY READ ALL  INSTALLATION INSTRUCTIONS
  7
SLDTEXTSTYLE0
 73
     1
 44
1.0
  0
MTEXT
  5
D0
330
CB
100
AcDbEntity
  8
NOTES
 62
     0
100
AcDbMText
 10
0.0
 20
-0.2582997928
 30
0.0
 40
0.1875
 41
0.0
 71
     1
 72
     1
  1
1.
  7
SLDTEXTSTYLE0
 73
     1
 44
1.0
  0
MTEXT
  5
D1
330
CB
100
AcDbEntity
  8
NOTES
 62
     0
100
AcDbMText
 10
0.0
 20
-0.5082997897
 30
0.0
 40
0.1875
 41
0.0
 71
     1
 72
     1
  1
BEFORE CUTTING COUNTERTOP.
  7
SLDTEXTSTYLE0
 73
     1
 44
1.0
  0
MTEXT
  5
D2
330
CB
100
AcDbEntity
  8
NOTES
 62
     0
100
AcDbMText
 10
0.0
 20
-1.0082997837
 30
0.0
 40
0.1875
 41
0.0
 71
     1
 72
     1
  1
2.  DIMENSIONS ARE IN INCHES [MM].
  7
SLDTEXTSTYLE0
 73
     1
 44
1.0
  0
MTEXT
  5
D3
330
CB
100
AcDbEntity
  8
NOTES
 62
     0
100
AcDbMText
 10
0.0
 20
-1.7582997746
 30
0.0
 40
0.1875
 41
0.0
 71
     1
 72
     1
  1
PLEASE CHECK TEMPLATE AGAINST PHYSICAL SINK FOR
  7
SLDTEXTSTYLE0
 73
     1
 44
1.0
  0
MTEXT
  5
D4
330
CB
100
AcDbEntity
  8
NOTES
 62
     0
100
AcDbMText
 10
0.0
 20
-2.0082997716
 30
0.0
 40
0.1875
 41
0.0
 71
     1
 72
     1
  1
MOST ACCURATE CUT.
  7
SLDTEXTSTYLE0
 73
     1
 44
1.0
  0
MTEXT
  5
D5
330
CB
100
AcDbEntity
  8
NOTES
 62
     0
100
AcDbMText
 10
0.0
 20
-3.0082997595
 30
0.0
 40
0.1875
 41
0.0
 71
     1
 72
     1
  1
NOTAS:
  7
SLDTEXTSTYLE0
 73
     1
 44
1.0
  0
MTEXT
  5
D6
330
CB
100
AcDbEntity
  8
NOTES
 62
     0
100
AcDbMText
 10
0.0
 20
-3.5082997535
 30
0.0
 40
0.1875
 41
0.0
 71
     1
 72
     1
  1
1.  LEA ATENTAMENTE LAS INSTRUCCIONES DE
  7
SLDTEXTSTYLE0
 73
     1
 44
1.0
  0
MTEXT
  5
D7
330
CB
100
AcDbEntity
  8
NOTES
 62
     0
100
AcDbMText
 10
0.0
 20
-3.7582997505
 30
0.0
 40
0.1875
 41
0.0
 71
     1
 72
     1
  1
INSTALACIÓN ANTES DE CORTAR LA ENCIMERA.
  7
SLDTEXTSTYLE0
 73
     1
 44
1.0
  0
MTEXT
  5
D8
330
CB
100
AcDbEntity
  8
NOTES
 62
     0
100
AcDbMText
 10
0.0
 20
-4.2582997444
 30
0.0
 40
0.1875
 41
0.0
 71
     1
 72
     1
  1
2.  DIMENSIONES EN PULGADAS [MM].
  7
SLDTEXTSTYLE0
 73
     1
 44
1.0
  0
MTEXT
  5
D9
330
CB
100
AcDbEntity
  8
NOTES
 62
     0
100
AcDbMText
 10
0.0
 20
-5.0082997353
 30
0.0
 40
0.1875
 41
0.0
 71
     1
 72
     1
  1
POR FAVOR COMPRUEBE PLANTILLA CONTRA FREGADERO
  7
SLDTEXTSTYLE0
 73
     1
 44
1.0
  0
MTEXT
  5
DA
330
CB
100
AcDbEntity
  8
NOTES
 62
     0
100
AcDbMText
 10
0.0
 20
-5.2582997323
 30
0.0
 40
0.1875
 41
0.0
 71
     1
 72
     1
  1
FÍSICO PARA CORTE MÁS EXACTO.
  7
SLDTEXTSTYLE0
 73
     1
 44
1.0
  0
ENDBLK
  5
CD
330
CB
100
AcDbEntity
  8
0
100
AcDbBlockEnd
  0
BLOCK
  5
DD
330
DC
100
AcDbEntity
  8
0
100
AcDbBlockBegin
  2
SW_NOTE_2
 70
     0
 10
0.0
 20
0.0
 30
0.0
  3
SW_NOTE_2
  1

  0
MTEXT
  5
DF
330
DC
100
AcDbEntity
  8
NOTES
 62
     0
100
AcDbMText
 10
-0.8891438996
 20
0.6858069685
 30
0.0
 40
0.2083333333
 41
0.0
 71
     2
 72
     1
  1
TEMPLATE
  7
SLDTEXTSTYLE0
 73
     1
 44
1.0
  0
MTEXT
  5
E0
330
DC
100
AcDbEntity
  8
NOTES
 62
     0
100
AcDbMText
 10
-0.8860092294
 20
0.4080291941
 30
0.0
 40
0.2083333333
 41
0.0
 71
     2
 72
     1
  1
CENTERLINE
  7
SLDTEXTSTYLE0
 73
     1
 44
1.0
  0
MTEXT
  5
E1
330
DC
100
AcDbEntity
  8
NOTES
 62
     0
100
AcDbMText
 10
-0.8858886913
 20
-0.1475263547
 30
0.0
 40
0.2083333333
 41
0.0
 71
     2
 72
     1
  1
PLANTILLA
  7
SLDTEXTSTYLE0
 73
     1
 44
1.0
  0
MTEXT
  5
E2
330
DC
100
AcDbEntity
  8
NOTES
 62
     0
100
AcDbMText
 10
-0.8889027568
 20
-0.4253041292
 30
0.0
 40
0.2083333333
 41
0.0
 71
     2
 72
     1
  1
CENTRAL
  7
SLDTEXTSTYLE0
 73
     1
 44
1.0
  0
ENDBLK
  5
DE
330
DC
100
AcDbEntity
  8
0
100
AcDbBlockEnd
  0
BLOCK
  5
F4
330
F3
100
AcDbEntity
  8
0
100
AcDbBlockBegin
  2
_D
 70
     0
 10
0.0
 20
0.0
 30
0.0
  3
_D
  1

  0
SOLID
  5
F6
330
F3
100
AcDbEntity
  8
OBJECTS
 62
     1
100
AcDbTrace
 10
29.262099616
 20
20.2545964981
 30
0.0
 11
29.2060975126
 21
19.8905828263
 31
0.0
 12
29.3181017193
 22
19.8905828263
 32
0.0
 13
29.3181017193
 23
19.8905828263
 33
0.0
  0
SOLID
  5
F7
330
F3
100
AcDbEntity
  8
OBJECTS
 62
     1
100
AcDbTrace
 10
29.262099616
 20
1.2791409973
 30
0.0
 11
29.3181017193
 21
1.6431546692
 31
0.0
 12
29.2060975126
 22
1.6431546692
 32
0.0
 13
29.2060975126
 23
1.6431546692
 33
0.0
  0
LINE
  5
F8
330
F3
100
AcDbEntity
  8
OBJECTS
 62
     1
100
AcDbLine
 10
28.3593218766
 20
9.2423084181
 30
0.0
 11
28.2343218781
 21
9.2423084181
 31
0.0
  0
LINE
  5
F9
330
F3
100
AcDbEntity
  8
OBJECTS
 62
     1
100
AcDbLine
 10
28.2343218781
 20
9.2423084181
 30
0.0
 11
28.2343218781
 21
8.6832806494
 31
0.0
  0
LINE
  5
FA
330
F3
100
AcDbEntity
  8
OBJECTS
 62
     1
100
AcDbLine
 10
28.2343218781
 20
8.6832806494
 30
0.0
 11
28.3593218766
 21
8.6832806494
 31
0.0
  0
LINE
  5
FB
330
F3
100
AcDbEntity
  8
OBJECTS
 62
     1
100
AcDbLine
 10
30.164877392
 20
9.2423084181
 30
0.0
 11
30.2898773905
 21
9.2423084181
 31
0.0
  0
LINE
  5
FC
330
F3
100
AcDbEntity
  8
OBJECTS
 62
     1
100
AcDbLine
 10
30.2898773905
 20
9.2423084181
 30
0.0
 11
30.2898773905
 21
8.6832806494
 31
0.0
  0
LINE
  5
FD
330
F3
100
AcDbEntity
  8
OBJECTS
 62
     1
100
AcDbLine
 10
30.2898773905
 20
8.6832806494
 30
0.0
 11
30.164877392
 21
8.6832806494
 31
0.0
  0
LINE
  5
FE
330
F3
100
AcDbEntity
  8
OBJECTS
 62
     1
100
AcDbLine
 10
29.262099616
 20
20.2545964981
 30
0.0
 11
29.262099616
 21
9.8256417261
 31
0.0
  0
LINE
  5
FF
330
F3
100
AcDbEntity
  8
OBJECTS
 62
     1
100
AcDbLine
 10
29.262099616
 20
1.2791409973
 30
0.0
 11
29.262099616
 21
8.5999472988
 31
0.0
  0
MTEXT
  5
100
330
F3
100
AcDbEntity
  8
OBJECTS
 62
     1
100
AcDbMText
 10
28.8954329317
 20
9.8090421437
 30
0.0
 40
0.375
 41
0.0
 71
     1
 72
     1
  1
19"
  7
SLDTEXTSTYLE0
 73
     1
 44
1.0
  0
MTEXT
  5
101
330
F3
100
AcDbEntity
  8
OBJECTS
 62
     1
100
AcDbMText
 10
28.3593218766
 20
9.166681061
 30
0.0
 40
0.375
 41
0.0
 71
     1
 72
     1
  1
481.977
  7
SLDTEXTSTYLE0
 73
     1
 44
1.0
  0
ENDBLK
  5
F5
330
F3
100
AcDbEntity
  8
0
100
AcDbBlockEnd
  0
BLOCK
  5
104
330
103
100
AcDbEntity
  8
0
100
AcDbBlockBegin
  2
_D_1
 70
     0
 10
0.0
 20
0.0
 30
0.0
  3
_D_1
  1

  0
SOLID
  5
106
330
103
100
AcDbEntity
  8
OBJECTS
 62
     1
100
AcDbTrace
 10
35.3229600202
 20
5.0939479511
 30
0.0
 11
34.9589463483
 21
5.1499500544
 31
0.0
 12
34.9589463483
 22
5.0379458477
 32
0.0
 13
34.9589463483
 23
5.0379458477
 33
0.0
  0
SOLID
  5
107
330
103
100
AcDbEntity
  8
OBJECTS
 62
     1
100
AcDbTrace
 10
2.3475045194
 20
5.0939479511
 30
0.0
 11
2.7115181912
 21
5.0379458477
 31
0.0
 12
2.7115181912
 22
5.1499500544
 32
0.0
 13
2.7115181912
 23
5.1499500544
 33
0.0
  0
LINE
  5
108
330
103
100
AcDbEntity
  8
OBJECTS
 62
     1
100
AcDbLine
 10
24.1925653594
 20
5.1234618568
 30
0.0
 11
24.0675653609
 21
5.1234618568
 31
0.0
  0
LINE
  5
109
330
103
100
AcDbEntity
  8
OBJECTS
 62
     1
100
AcDbLine
 10
24.0675653609
 20
5.1234618568
 30
0.0
 11
24.0675653609
 21
4.564434088
 31
0.0
  0
LINE
  5
10A
330
103
100
AcDbEntity
  8
OBJECTS
 62
     1
100
AcDbLine
 10
24.0675653609
 20
4.564434088
 30
0.0
 11
24.1925653594
 21
4.564434088
 31
0.0
  0
LINE
  5
10B
330
103
100
AcDbEntity
  8
OBJECTS
 62
     1
100
AcDbLine
 10
25.9981208748
 20
5.1234618568
 30
0.0
 11
26.1231208732
 21
5.1234618568
 31
0.0
  0
LINE
  5
10C
330
103
100
AcDbEntity
  8
OBJECTS
 62
     1
100
AcDbLine
 10
26.1231208732
 20
5.1234618568
 30
0.0
 11
26.1231208732
 21
4.564434088
 31
0.0
  0
LINE
  5
10D
330
103
100
AcDbEntity
  8
OBJECTS
 62
     1
100
AcDbLine
 10
26.1231208732
 20
4.564434088
 30
0.0
 11
25.9981208748
 21
4.564434088
 31
0.0
  0
LINE
  5
10E
330
103
100
AcDbEntity
  8
OBJECTS
 62
     1
100
AcDbLine
 10
35.3229600202
 20
5.0939479511
 30
0.0
 11
26.3315073579
 21
5.0939479511
 31
0.0
  0
LINE
  5
10F
330
103
100
AcDbEntity
  8
OBJECTS
 62
     1
100
AcDbLine
 10
2.3475045194
 20
5.0939479511
 30
0.0
 11
23.8591788396
 21
5.0939479511
 31
0.0
  0
MTEXT
  5
110
330
103
100
AcDbEntity
  8
OBJECTS
 62
     1
100
AcDbMText
 10
24.7286764145
 20
5.6901955824
 30
0.0
 40
0.375
 41
0.0
 71
     1
 72
     1
  1
33"
  7
SLDTEXTSTYLE0
 73
     1
 44
1.0
  0
MTEXT
  5
111
330
103
100
AcDbEntity
  8
OBJECTS
 62
     1
100
AcDbMText
 10
24.1925653594
 20
5.0478344996
 30
0.0
 40
0.375
 41
0.0
 71
     1
 72
     1
  1
837.577
  7
SLDTEXTSTYLE0
 73
     1
 44
1.0
  0
ENDBLK
  5
105
330
103
100
AcDbEntity
  8
0
100
AcDbBlockEnd
  0
BLOCK
  5
115
330
114
100
AcDbEntity
  8
0
100
AcDbBlockBegin
  2
_D_2
 70
     0
 10
0.0
 20
0.0
 30
0.0
  3
_D_2
  1

  0
SOLID
  5
117
330
114
100
AcDbEntity
  8
OBJECTS
100
AcDbTrace
 10
2.4596180907
 20
1.6975545417
 30
0.0
 11
2.1163719518
 21
1.56404695
 31
0.0
 12
2.1723740552
 22
1.4670484616
 32
0.0
 13
2.1723740552
 23
1.4670484616
 33
0.0
  0
LINE
  5
118
330
114
100
AcDbEntity
  8
OBJECTS
100
AcDbLine
 10
6.09060588
 20
3.6023575131
 30
0.0
 11
6.7524114381
 21
3.6023575131
 31
0.0
  0
LINE
  5
119
330
114
100
AcDbEntity
  8
OBJECTS
100
AcDbLine
 10
5.5659531909
 20
2.9765242069
 30
0.0
 11
5.4409531924
 21
2.9765242069
 31
0.0
  0
LINE
  5
11A
330
114
100
AcDbEntity
  8
OBJECTS
100
AcDbLine
 10
5.4409531924
 20
2.9765242069
 30
0.0
 11
5.4409531924
 21
2.4174964382
 31
0.0
  0
LINE
  5
11B
330
114
100
AcDbEntity
  8
OBJECTS
100
AcDbLine
 10
5.4409531924
 20
2.4174964382
 30
0.0
 11
5.5659531909
 21
2.4174964382
 31
0.0
  0
LINE
  5
11C
330
114
100
AcDbEntity
  8
OBJECTS
100
AcDbLine
 10
7.0937308219
 20
2.9765242069
 30
0.0
 11
7.2187308203
 21
2.9765242069
 31
0.0
  0
LINE
  5
11D
330
114
100
AcDbEntity
  8
OBJECTS
100
AcDbLine
 10
7.2187308203
 20
2.9765242069
 30
0.0
 11
7.2187308203
 21
2.4174964382
 31
0.0
  0
LINE
  5
11E
330
114
100
AcDbEntity
  8
OBJECTS
100
AcDbLine
 10
7.2187308203
 20
2.4174964382
 30
0.0
 11
7.0937308219
 21
2.4174964382
 31
0.0
  0
LINE
  5
11F
330
114
100
AcDbEntity
  8
OBJECTS
100
AcDbLine
 10
2.4596180907
 20
1.6975545417
 30
0.0
 11
5.0659531939
 21
3.2023228152
 31
0.0
  0
LINE
  5
120
330
114
100
AcDbEntity
  8
OBJECTS
100
AcDbLine
 10
2.4596180907
 20
1.6975545417
 30
0.0
 11
1.8533775384
 21
1.3475413957
 31
0.0
  0
LINE
  5
121
330
114
100
AcDbEntity
  8
OBJECTS
100
AcDbLine
 10
5.0659531939
 20
3.2023228152
 30
0.0
 11
5.3159531939
 21
3.2023228152
 31
0.0
  0
MTEXT
  5
122
330
114
100
AcDbEntity
  8
OBJECTS
100
AcDbMText
 10
5.6763697503
 20
3.7984054484
 30
0.0
 40
0.375
 41
0.0
 71
     1
 72
     1
  1
R
  7
SLDTEXTSTYLE0
 73
     1
 44
1.0
  0
MTEXT
  5
123
330
114
100
AcDbEntity
  8
OBJECTS
100
AcDbMText
 10
6.1437308847
 20
4.0538829237
 30
0.0
 40
0.375
 41
0.0
 71
     1
 72
     1
  1
13
  7
SLDTEXTSTYLE0
 73
     1
 44
1.0
  0
MTEXT
  5
124
330
114
100
AcDbEntity
  8
OBJECTS
100
AcDbMText
 10
6.1437308847
 20
3.5432579291
 30
0.0
 40
0.375
 41
0.0
 71
     1
 72
     1
  1
16
  7
SLDTEXTSTYLE0
 73
     1
 44
1.0
  0
MTEXT
  5
125
330
114
100
AcDbEntity
  8
OBJECTS
100
AcDbMText
 10
6.8055364794
 20
3.7984054484
 30
0.0
 40
0.375
 41
0.0
 71
     1
 72
     1
  1
"
  7
SLDTEXTSTYLE0
 73
     1
 44
1.0
  0
MTEXT
  5
126
330
114
100
AcDbEntity
  8
OBJECTS
100
AcDbMText
 10
5.5659531909
 20
2.9008968498
 30
0.0
 40
0.375
 41
0.0
 71
     1
 72
     1
  1
21.255
  7
SLDTEXTSTYLE0
 73
     1
 44
1.0
  0
ENDBLK
  5
116
330
114
100
AcDbEntity
  8
0
100
AcDbBlockEnd
  0
BLOCK
  5
128
330
127
100
AcDbEntity
  8
0
100
AcDbBlockBegin
  2
SW_NOTE_3
 70
     0
 10
0.0
 20
0.0
 30
0.0
  3
SW_NOTE_3
  1

  0
MTEXT
  5
12A
330
127
100
AcDbEntity
  8
OBJECTS
 62
     0
100
AcDbMText
 10
2.1740126944
 20
0.235844545
 30
0.0
 40
0.2083333333
 41
0.0
 71
     3
 72
     1
  1
1/8" REVEAL
  7
SLDTEXTSTYLE0
 73
     1
 44
1.0
  0
MTEXT
  5
12B
330
127
100
AcDbEntity
  8
OBJECTS
 62
     0
100
AcDbMText
 10
2.1770510595
 20
-0.0813033146
 30
0.0
 40
0.2083333333
 41
0.0
 71
     3
 72
     1
  1
[3.2 REVELADO]
  7
SLDTEXTSTYLE0
 73
     1
 44
1.0
  0
ENDBLK
  5
129
330
127
100
AcDbEntity
  8
0
100
AcDbBlockEnd
  0
ENDSEC
  0
SECTION
  2
ENTITIES
  0
LINE
  5
C1
330
1F
100
AcDbEntity
  8
OBJECTS
  6
CENTERX2
 62
     5
100
AcDbLine
 10
1.6773501131
 20
10.8502545597
 30
0.0
 11
3.5235131909
 21
10.8502545597
 31
0.0
  0
LINE
  5
C2
330
1F
100
AcDbEntity
  8
OBJECTS
  6
CENTERX2
 62
     5
100
AcDbLine
 10
35.3241950934
 20
10.8502545597
 30
0.0
 11
33.4780320156
 21
10.8502545597
 31
0.0
  0
LINE
  5
C3
330
1F
100
AcDbEntity
  8
OBJECTS
  6
CENTERX2
 62
     5
100
AcDbLine
 10
18.5007728211
 20
20.64710718
 30
0.0
 11
18.5007728211
 21
19.8579721778
 31
0.0
  0
LINE
  5
C4
330
1F
100
AcDbEntity
  8
OBJECTS
  6
CENTERX2
 62
     5
100
AcDbLine
 10
18.5007728211
 20
1.0538601512
 30
0.0
 11
18.5007728211
 21
1.8429951533
 31
0.0
  0
INSERT
  5
CA
330
1F
100
AcDbEntity
  8
0
  6
Continuous
 62
     7
370
     0
100
AcDbBlockReference
  2
SW_NOTE_0
 10
12.1698941007
 20
10.5878949562
 30
0.0
  0
INSERT
  5
DB
330
1F
100
AcDbEntity
  8
NOTES
 62
     7
100
AcDbBlockReference
  2
SW_NOTE_1
 10
4.6744377695
 20
19.8178943976
 30
0.0
  0
INSERT
  5
E3
102
{ACAD_REACTORS
330
E5
330
E6
102
}
330
1F
100
AcDbEntity
  8
NOTES
100
AcDbBlockReference
  2
SW_NOTE_2
 10
27.0368486243
 20
15.3941431478
 30
0.0
  0
LEADER
  5
E5
330
1F
100
AcDbEntity
  8
NOTES
100
AcDbLeader
  3
SLDDIMSTYLE0
 73
     2
 76
     3
 10
34.0569455193
 20
10.8502545597
 30
0.0
 10
27.2868486243
 20
15.3941431478
 30
0.0
 10
27.0368486243
 20
15.3941431478
 30
0.0
340
E3
  0
LEADER
  5
E6
330
1F
100
AcDbEntity
  8
NOTES
100
AcDbLeader
  3
SLDDIMSTYLE0
 73
     2
 76
     3
 10
18.5007728211
 20
20.0756299811
 30
0.0
 10
24.9913076174
 20
15.3941431478
 30
0.0
 10
25.2413076174
 20
15.3941431478
 30
0.0
340
E3
212
-1.79554100681235
222
0.0
232
0.0
  0
LINE
  5
E7
330
1F
100
AcDbEntity
  8
OBJECTS
 62
     5
100
AcDbLine
 10
3.1843316082
 20
1.2791409973
 30
0.0
 11
34.4861329313
 21
1.2791409973
 31
0.0
  0
LINE
  5
E8
330
1F
100
AcDbEntity
  8
OBJECTS
 62
     5
100
AcDbLine
 10
35.3229600202
 20
2.1159680862
 30
0.0
 11
35.3229600202
 21
19.4177694092
 31
0.0
  0
LINE
  5
E9
330
1F
100
AcDbEntity
  8
OBJECTS
 62
     5
100
AcDbLine
 10
34.4861329313
 20
20.2545964981
 30
0.0
 11
3.1843316082
 21
20.2545964981
 31
0.0
  0
LINE
  5
EA
330
1F
100
AcDbEntity
  8
OBJECTS
 62
     5
100
AcDbLine
 10
2.3475045194
 20
19.4177694092
 30
0.0
 11
2.3475045194
 21
2.1159680862
 31
0.0
  0
ARC
  5
EB
330
1F
100
AcDbEntity
  8
OBJECTS
 62
     5
100
AcDbCircle
 10
3.1843316082
 20
2.1159680862
 30
0.0
 40
0.8368270888895726
100
AcDbArc
 50
180.0
 51
270.0
  0
ARC
  5
EC
330
1F
100
AcDbEntity
  8
OBJECTS
100
AcDbCircle
 10
3.1843316082
 20
2.1159680862
 30
0.0
 40
0.8368270888895726
100
AcDbArc
 50
180.0
 51
270.0
  0
SPLINE
  5
ED
330
1F
100
AcDbEntity
  8
OBJECTS
 62
     5
100
AcDbSpline
210
0.0
220
0.0
230
1.0
 70
     8
 71
     3
 72
    30
 73
    26
 74
     0
 42
0.000000001
 43
0.00000001
 40
0.0
 40
0.0
 40
0.0
 40
0.0
 40
0.1249999999999883
 40
0.1249999999999883
 40
0.1874999999999852
 40
0.1874999999999852
 40
0.2499999999999821
 40
0.2499999999999821
 40
0.3749999999999813
 40
0.3749999999999813
 40
0.4374999999999817
 40
0.4374999999999817
 40
0.499999999999982
 40
0.499999999999982
 40
0.6249999999999862
 40
0.6249999999999862
 40
0.6874999999999882
 40
0.6874999999999882
 40
0.7499999999999905
 40
0.7499999999999905
 40
0.8124999999999926
 40
0.8124999999999926
 40
0.8749999999999948
 40
0.8749999999999948
 40
1.0
 40
1.0
 40
1.0
 40
1.0
 10
34.48613293131929
 20
1.279140997275226
 30
0.0
 10
34.54141606436551
 20
1.279140997275227
 30
0.0
 10
34.59573894848065
 20
1.284516415988692
 30
0.0
 10
34.67584124736847
 20
1.300316053925441
 30
0.0
 10
34.70230999394234
 20
1.306881433066758
 30
0.0
 10
34.75477314319697
 20
1.322667541391593
 30
0.0
 10
34.78091170665459
 20
1.331954358762668
 30
0.0
 10
34.85715791296356
 20
1.363378292002426
 30
0.0
 10
34.9052786914958
 20
1.389018352905372
 30
0.0
 10
34.97346566779422
 20
1.434391973580772
 30
0.0
 10
34.99552430068145
 20
1.450676835755778
 30
0.0
 10
35.03825402225389
 20
1.485648254547577
 30
0.0
 10
35.05866819764331
 20
1.504133480761914
 30
0.0
 10
35.11668587968704
 20
1.56208796365363
 30
0.0
 10
35.1513014293554
 20
1.604201116815511
 30
0.0
 10
35.19706366258004
 20
1.672643200808824
 30
0.0
 10
35.21133161752345
 20
1.696455052061424
 30
0.0
 10
35.23718637827063
 20
1.744888819480402
 30
0.0
 10
35.24884590525221
 20
1.769598544555786
 30
0.0
 10
35.26968575340949
 20
1.81998171431594
 30
0.0
 10
35.27886597654481
 20
1.845655197111074
 30
0.0
 10
35.29473220490715
 20
1.897971717831705
 30
0.0
 10
35.30142718764164
 20
1.924659477672249
 30
0.0
 10
35.31758363714268
 20
2.005943951942399
 30
0.0
 10
35.32296002020886
 20
2.060682497140959
 30
0.0
 10
35.32296002020886
 20
2.115968086164797
 30
0.0
  0
SPLINE
  5
EE
330
1F
100
AcDbEntity
  8
OBJECTS
 62
     5
100
AcDbSpline
210
0.0
220
0.0
230
1.0
 70
     8
 71
     3
 72
    30
 73
    26
 74
     0
 42
0.000000001
 43
0.00000001
 40
0.0
 40
0.0
 40
0.0
 40
0.0
 40
0.1250000000000044
 40
0.1250000000000044
 40
0.1875000000000079
 40
0.1875000000000079
 40
0.2500000000000113
 40
0.2500000000000113
 40
0.3750000000000163
 40
0.3750000000000163
 40
0.4375000000000174
 40
0.4375000000000174
 40
0.5000000000000185
 40
0.5000000000000185
 40
0.6250000000000172
 40
0.6250000000000172
 40
0.6875000000000145
 40
0.6875000000000145
 40
0.7500000000000119
 40
0.7500000000000119
 40
0.8125000000000092
 40
0.8125000000000092
 40
0.8750000000000066
 40
0.8750000000000066
 40
1.0
 40
1.0
 40
1.0
 40
1.0
 10
35.32296002020886
 20
19.41776940924133
 30
0.0
 10
35.32296002020886
 20
19.47305254228755
 30
0.0
 10
35.31758460149539
 20
19.52737542640269
 30
0.0
 10
35.30178496355865
 20
19.6074777252905
 30
0.0
 10
35.29521958441733
 20
19.63394647186438
 30
0.0
 10
35.27943347609249
 20
19.68640962111901
 30
0.0
 10
35.27014665872142
 20
19.71254818457662
 30
0.0
 10
35.23872272548166
 20
19.78879439088559
 30
0.0
 10
35.21308266457871
 20
19.83691516941784
 30
0.0
 10
35.16770904390331
 20
19.90510214571625
 30
0.0
 10
35.15142418172831
 20
19.92716077860349
 30
0.0
 10
35.11645276293651
 20
19.96989050017593
 30
0.0
 10
35.09796753672217
 20
19.99030467556534
 30
0.0
 10
35.04001305383046
 20
20.04832235760908
 30
0.0
 10
34.99789990066857
 20
20.08293790727743
 30
0.0
 10
34.92945781667526
 20
20.12870014050207
 30
0.0
 10
34.90564596542266
 20
20.14296809544549
 30
0.0
 10
34.85721219800369
 20
20.16882285619267
 30
0.0
 10
34.83250247292831
 20
20.18048238317425
 30
0.0
 10
34.78211930316814
 20
20.20132223133152
 30
0.0
 10
34.75644582037302
 20
20.21050245446684
 30
0.0
 10
34.70412929965239
 20
20.22636868282918
 30
0.0
 10
34.67744153981184
 20
20.23306366556367
 30
0.0
 10
34.5961570655417
 20
20.24922011506471
 30
0.0
 10
34.54141852034313
 20
20.25459649813089
 30
0.0
 10
34.48613293131929
 20
20.25459649813089
 30
0.0
  0
SPLINE
  5
EF
330
1F
100
AcDbEntity
  8
OBJECTS
 62
     5
100
AcDbSpline
210
0.0
220
0.0
230
1.0
 70
     8
 71
     3
 72
    30
 73
    26
 74
     0
 42
0.000000001
 43
0.00000001
 40
0.0
 40
0.0
 40
0.0
 40
0.0
 40
0.1249999999999968
 40
0.1249999999999968
 40
0.1874999999999976
 40
0.1874999999999976
 40
0.2499999999999984
 40
0.2499999999999984
 40
0.3749999999999982
 40
0.3749999999999982
 40
0.4374999999999967
 40
0.4374999999999967
 40
0.4999999999999952
 40
0.4999999999999952
 40
0.6249999999999993
 40
0.6249999999999993
 40
0.6874999999999992
 40
0.6874999999999992
 40
0.7499999999999991
 40
0.7499999999999991
 40
0.8124999999999991
 40
0.8124999999999991
 40
0.874999999999999
 40
0.874999999999999
 40
1.0
 40
1.0
 40
1.0
 40
1.0
 10
3.184331608242764
 20
20.25459649813089
 30
0.0
 10
3.129048475196536
 20
20.25459649813089
 30
0.0
 10
3.074725591081404
 20
20.24922107941742
 30
0.0
 10
2.994623292193582
 20
20.23342144148068
 30
0.0
 10
2.968154545619709
 20
20.22685606233937
 30
0.0
 10
2.91569139636508
 20
20.21106995401453
 30
0.0
 10
2.88955283290746
 20
20.20178313664346
 30
0.0
 10
2.813306626598501
 20
20.1703592034037
 30
0.0
 10
2.765185848066247
 20
20.14471914250075
 30
0.0
 10
2.696998871767843
 20
20.09934552182535
 30
0.0
 10
2.6749402388806
 20
20.08306065965034
 30
0.0
 10
2.632210517308168
 20
20.04808924085854
 30
0.0
 10
2.611796341918747
 20
20.02960401464421
 30
0.0
 10
2.553778659875011
 20
19.97164953175249
 30
0.0
 10
2.519163110206658
 20
19.92953637859061
 30
0.0
 10
2.473400876982018
 20
19.8610942945973
 30
0.0
 10
2.459132922038598
 20
19.83728244334469
 30
0.0
 10
2.433278161291418
 20
19.78884867592572
 30
0.0
 10
2.421618634309834
 20
19.76413895085034
 30
0.0
 10
2.400778786152566
 20
19.71375578109018
 30
0.0
 10
2.391598563017248
 20
19.68808229829504
 30
0.0
 10
2.375732334654912
 20
19.63576577757442
 30
0.0
 10
2.369037351920416
 20
19.60907801773388
 30
0.0
 10
2.352880902419379
 20
19.52779354346372
 30
0.0
 10
2.347504519353191
 20
19.47305499826517
 30
0.0
 10
2.347504519353191
 20
19.41776940924133
 30
0.0
  0
INSERT
  5
F0
330
1F
100
AcDbEntity
  8
0
  6
Continuous
 62
     7
100
AcDbBlockReference
  2
REVEAL - .125
 10
16.0012619701
 20
14.6829198895
 30
0.0
  0
DIMENSION
  5
F1
330
1F
100
AcDbEntity
  8
OBJECTS
 62
     1
100
AcDbDimension
  2
_D
 10
29.262099616
 20
1.2791409973
 30
0.0
 11
29.262099616
 21
9.2127945124
 31
0.0
 70
   160
  1
<>
 71
     2
 42
-1.0
  3
SLDDIMSTYLE1
100
AcDbAlignedDimension
 13
34.4861329313
 23
20.2545964981
 33
0.0
 14
34.4861329313
 24
1.2791409973
 34
0.0
 50
90.0
100
AcDbRotatedDimension
  0
DIMENSION
  5
102
330
1F
100
AcDbEntity
  8
OBJECTS
 62
     1
100
AcDbDimension
  2
_D_1
 10
2.3475045194
 20
5.0939479511
 30
0.0
 11
25.0953430987
 21
5.0939479511
 31
0.0
 70
   160
  1
<>
 71
     2
 42
-1.0
  3
SLDDIMSTYLE1
100
AcDbAlignedDimension
 13
35.3229600202
 23
2.1159680862
 33
0.0
 14
2.3475045194
 24
2.1159680862
 34
0.0
 50
0.0
100
AcDbRotatedDimension
  0
DIMENSION
  5
112
330
1F
100
AcDbEntity
  8
OBJECTS
100
AcDbDimension
  2
_D_2
 10
3.1843316082
 20
2.1159680862
 30
0.0
 11
6.329841988
 21
3.2023228152
 31
0.0
 70
   164
  1
<>
 71
     1
 42
-1.0
  3
SLDDIMSTYLE2
100
AcDbRadialDimension
 15
2.4596180907
 25
1.6975545417
 35
0.0
 40
0.0
  0
INSERT
  5
12C
102
{ACAD_REACTORS
330
12D
102
}
330
1F
100
AcDbEntity
  8
OBJECTS
100
AcDbBlockReference
  2
SW_NOTE_3
 10
11.7784036005
 20
3.4370408929
 30
0.0
  0
LEADER
  5
12D
330
1F
100
AcDbEntity
  8
OBJECTS
100
AcDbLeader
  3
SLDDIMSTYLE0
 73
     2
 76
     3
 10
10.1454565342
 20
1.2791409973
 30
0.0
 10
11.5284036005
 20
3.4370408929
 30
0.0
 10
11.7784036005
 20
3.4370408929
 30
0.0
340
12C
  0
ENDSEC
  0
SECTION
  2
OBJECTS
  0
DICTIONARY
  5
C
330
0
100
AcDbDictionary
281
     1
  3
ACAD_GROUP
350
D
  3
ACAD_LAYOUT
350
1A
  3
ACAD_MLINESTYLE
350
17
  3
ACAD_PLOTSETTINGS
350
19
  3
ACAD_PLOTSTYLENAME
350
E
  3
ACAD_SCALELIST
350
47
  0
DICTIONARY
  5
D
102
{ACAD_REACTORS
330
C
102
}
330
C
100
AcDbDictionary
281
     1
  0
DICTIONARY
  5
1A
102
{ACAD_REACTORS
330
C
102
}
330
C
100
AcDbDictionary
281
     1
  3
Layout1
350
1E
  3
Layout2
350
26
  3
Model
350
22
  0
DICTIONARY
  5
17
102
{ACAD_REACTORS
330
C
102
}
330
C
100
AcDbDictionary
281
     1
  3
Standard
350
18
  0
DICTIONARY
  5
19
102
{ACAD_REACTORS
330
C
102
}
330
C
100
AcDbDictionary
281
     1
  0
ACDBDICTIONARYWDFLT
  5
E
102
{ACAD_REACTORS
330
C
102
}
330
C
100
AcDbDictionary
281
     1
  3
Normal
350
F
100
AcDbDictionaryWithDefault
340
F
  0
DICTIONARY
  5
47
102
{ACAD_REACTORS
330
C
102
}
330
C
100
AcDbDictionary
281
     1
  3
A0
350
48
  3
A1
350
49
  3
A2
350
4A
  3
A3
350
4B
  3
A4
350
4C
  3
A5
350
4D
  3
A6
350
4E
  3
A7
350
4F
  3
A8
350
50
  3
A9
350
51
  3
B0
350
52
  3
B1
350
53
  3
B2
350
54
  3
B3
350
55
  3
B4
350
56
  3
B5
350
57
  3
B6
350
58
  3
B7
350
59
  3
B8
350
5A
  3
B9
350
5B
  3
C0
350
5C
  3
C1
350
5D
  3
C2
350
5E
  3
C3
350
5F
  3
C4
350
60
  3
C5
350
61
  3
C6
350
62
  3
C7
350
63
  3
C8
350
64
  3
C9
350
65
  3
D0
350
66
  3
D1
350
67
  3
D2
350
68
  0
LAYOUT
  5
1E
102
{ACAD_REACTORS
330
1A
102
}
330
1A
100
AcDbPlotSettings
  1

  2
none_device
  4

  6

 40
0.0
 41
0.0
 42
0.0
 43
0.0
 44
0.0
 45
0.0
 46
0.0
 47
0.0
 48
0.0
 49
0.0
140
0.0
141
0.0
142
1.0
143
1.0
 70
   688
 72
     0
 73
     0
 74
     5
  7

 75
    16
147
1.0
148
0.0
149
0.0
100
AcDbLayout
  1
Layout1
 70
     1
 71
     1
 10
0.0
 20
0.0
 11
12.0
 21
9.0
 12
0.0
 22
0.0
 32
0.0
 14
1.0000000000E+20
 24
1.0000000000E+20
 34
1.0000000000E+20
 15
-1.0000000000E+20
 25
-1.0000000000E+20
 35
-1.0000000000E+20
146
0.0
 13
0.0
 23
0.0
 33
0.0
 16
1.0
 26
0.0
 36
0.0
 17
0.0
 27
1.0
 37
0.0
 76
     0
330
1B
  0
LAYOUT
  5
26
102
{ACAD_REACTORS
330
1A
102
}
330
1A
100
AcDbPlotSettings
  1

  2
none_device
  4

  6

 40
0.0
 41
0.0
 42
0.0
 43
0.0
 44
0.0
 45
0.0
 46
0.0
 47
0.0
 48
0.0
 49
0.0
140
0.0
141
0.0
142
1.0
143
1.0
 70
   688
 72
     0
 73
     0
 74
     5
  7

 75
    16
147
1.0
148
0.0
149
0.0
100
AcDbLayout
  1
Layout2
 70
     1
 71
     2
 10
0.0
 20
0.0
 11
0.0
 21
0.0
 12
0.0
 22
0.0
 32
0.0
 14
0.0
 24
0.0
 34
0.0
 15
0.0
 25
0.0
 35
0.0
146
0.0
 13
0.0
 23
0.0
 33
0.0
 16
1.0
 26
0.0
 36
0.0
 17
0.0
 27
1.0
 37
0.0
 76
     0
330
23
  0
LAYOUT
  5
22
102
{ACAD_REACTORS
330
1A
102
}
330
1A
100
AcDbPlotSettings
  1

  2
none_device
  4
Letter_(8.50_x_11.00_Inches)
  6

 40
6.35
 41
6.35
 42
6.35000508
 43
6.35000508
 44
215.9
 45
279.4
 46
0.0
 47
0.0
 48
0.0
 49
0.0
140
0.0
141
0.0
142
1.0
143
1.0
 70
  1712
 72
     0
 73
     0
 74
     0
  7

 75
     0
147
1.0
148
0.0
149
0.0
100
AcDbLayout
  1
Model
 70
     1
 71
     0
 10
0.0
 20
0.0
 11
38.0
 21
22.0
 12
0.0
 22
0.0
 32
0.0
 14
0.0
 24
0.0
 34
0.0
 15
38.0
 25
22.0
 35
0.0
146
0.0
 13
0.0
 23
0.0
 33
0.0
 16
1.0
 26
0.0
 36
0.0
 17
0.0
 27
1.0
 37
0.0
 76
     0
330
1F
331
29
  0
MLINESTYLE
  5
18
102
{ACAD_REACTORS
330
17
102
}
330
17
100
AcDbMlineStyle
  2
Standard
 70
     0
  3

 62
   256
 51
90.0
 52
90.0
 71
     2
 49
0.5
 62
   256
  6
BYLAYER
 49
-0.5
 62
   256
  6
BYLAYER
  0
ACDBPLACEHOLDER
  5
F
102
{ACAD_REACTORS
330
E
102
}
330
E
  0
SCALE
  5
48
102
{ACAD_REACTORS
330
47
102
}
330
47
100
AcDbScale
 70
     0
300
1:1
140
1.0
141
1.0
290
     1
  0
SCALE
  5
49
102
{ACAD_REACTORS
330
47
102
}
330
47
100
AcDbScale
 70
     0
300
1:2
140
1.0
141
2.0
290
     0
  0
SCALE
  5
4A
102
{ACAD_REACTORS
330
47
102
}
330
47
100
AcDbScale
 70
     0
300
1:4
140
1.0
141
4.0
290
     0
  0
SCALE
  5
4B
102
{ACAD_REACTORS
330
47
102
}
330
47
100
AcDbScale
 70
     0
300
1:5
140
1.0
141
5.0
290
     0
  0
SCALE
  5
4C
102
{ACAD_REACTORS
330
47
102
}
330
47
100
AcDbScale
 70
     0
300
1:8
140
1.0
141
8.0
290
     0
  0
SCALE
  5
4D
102
{ACAD_REACTORS
330
47
102
}
330
47
100
AcDbScale
 70
     0
300
1:10
140
1.0
141
10.0
290
     0
  0
SCALE
  5
4E
102
{ACAD_REACTORS
330
47
102
}
330
47
100
AcDbScale
 70
     0
300
1:16
140
1.0
141
16.0
290
     0
  0
SCALE
  5
4F
102
{ACAD_REACTORS
330
47
102
}
330
47
100
AcDbScale
 70
     0
300
1:20
140
1.0
141
20.0
290
     0
  0
SCALE
  5
50
102
{ACAD_REACTORS
330
47
102
}
330
47
100
AcDbScale
 70
     0
300
1:30
140
1.0
141
30.0
290
     0
  0
SCALE
  5
51
102
{ACAD_REACTORS
330
47
102
}
330
47
100
AcDbScale
 70
     0
300
1:40
140
1.0
141
40.0
290
     0
  0
SCALE
  5
52
102
{ACAD_REACTORS
330
47
102
}
330
47
100
AcDbScale
 70
     0
300
1:50
140
1.0
141
50.0
290
     0
  0
SCALE
  5
53
102
{ACAD_REACTORS
330
47
102
}
330
47
100
AcDbScale
 70
     0
300
1:100
140
1.0
141
100.0
290
     0
  0
SCALE
  5
54
102
{ACAD_REACTORS
330
47
102
}
330
47
100
AcDbScale
 70
     0
300
2:1
140
2.0
141
1.0
290
     0
  0
SCALE
  5
55
102
{ACAD_REACTORS
330
47
102
}
330
47
100
AcDbScale
 70
     0
300
4:1
140
4.0
141
1.0
290
     0
  0
SCALE
  5
56
102
{ACAD_REACTORS
330
47
102
}
330
47
100
AcDbScale
 70
     0
300
8:1
140
8.0
141
1.0
290
     0
  0
SCALE
  5
57
102
{ACAD_REACTORS
330
47
102
}
330
47
100
AcDbScale
 70
     0
300
10:1
140
10.0
141
1.0
290
     0
  0
SCALE
  5
58
102
{ACAD_REACTORS
330
47
102
}
330
47
100
AcDbScale
 70
     0
300
100:1
140
100.0
141
1.0
290
     0
  0
SCALE
  5
59
102
{ACAD_REACTORS
330
47
102
}
330
47
100
AcDbScale
 70
     0
300
1/128" = 1'-0"
140
0.0078125
141
12.0
290
     0
  0
SCALE
  5
5A
102
{ACAD_REACTORS
330
47
102
}
330
47
100
AcDbScale
 70
     0
300
1/64" = 1'-0"
140
0.015625
141
12.0
290
     0
  0
SCALE
  5
5B
102
{ACAD_REACTORS
330
47
102
}
330
47
100
AcDbScale
 70
     0
300
1/32" = 1'-0"
140
0.03125
141
12.0
290
     0
  0
SCALE
  5
5C
102
{ACAD_REACTORS
330
47
102
}
330
47
100
AcDbScale
 70
     0
300
1/16" = 1'-0"
140
0.0625
141
12.0
290
     0
  0
SCALE
  5
5D
102
{ACAD_REACTORS
330
47
102
}
330
47
100
AcDbScale
 70
     0
300
3/32" = 1'-0"
140
0.09375
141
12.0
290
     0
  0
SCALE
  5
5E
102
{ACAD_REACTORS
330
47
102
}
330
47
100
AcDbScale
 70
     0
300
1/8" = 1'-0"
140
0.125
141
12.0
290
     0
  0
SCALE
  5
5F
102
{ACAD_REACTORS
330
47
102
}
330
47
100
AcDbScale
 70
     0
300
3/16" = 1'-0"
140
0.1875
141
12.0
290
     0
  0
SCALE
  5
60
102
{ACAD_REACTORS
330
47
102
}
330
47
100
AcDbScale
 70
     0
300
1/4" = 1'-0"
140
0.25
141
12.0
290
     0
  0
SCALE
  5
61
102
{ACAD_REACTORS
330
47
102
}
330
47
100
AcDbScale
 70
     0
300
3/8" = 1'-0"
140
0.375
141
12.0
290
     0
  0
SCALE
  5
62
102
{ACAD_REACTORS
330
47
102
}
330
47
100
AcDbScale
 70
     0
300
1/2" = 1'-0"
140
0.5
141
12.0
290
     0
  0
SCALE
  5
63
102
{ACAD_REACTORS
330
47
102
}
330
47
100
AcDbScale
 70
     0
300
3/4" = 1'-0"
140
0.75
141
12.0
290
     0
  0
SCALE
  5
64
102
{ACAD_REACTORS
330
47
102
}
330
47
100
AcDbScale
 70
     0
300
1" = 1'-0"
140
1.0
141
12.0
290
     0
  0
SCALE
  5
65
102
{ACAD_REACTORS
330
47
102
}
330
47
100
AcDbScale
 70
     0
300
1-1/2" = 1'-0"
140
1.5
141
12.0
290
     0
  0
SCALE
  5
66
102
{ACAD_REACTORS
330
47
102
}
330
47
100
AcDbScale
 70
     0
300
3" = 1'-0"
140
3.0
141
12.0
290
     0
  0
SCALE
  5
67
102
{ACAD_REACTORS
330
47
102
}
330
47
100
AcDbScale
 70
     0
300
6" = 1'-0"
140
6.0
141
12.0
290
     0
  0
SCALE
  5
68
102
{ACAD_REACTORS
330
47
102
}
330
47
100
AcDbScale
 70
     0
300
1'-0" = 1'-0"
140
12.0
141
12.0
290
     0
  0
ENDSEC
  0
EOF
