  0
SECTION
  2
HEADER
  9
$ACADVER
  1
AC1027
  9
$ACADMAINTVER
 70
    82
  9
$DWGCODEPAGE
  3
ANSI_1252
  9
$LASTSAVEDBY
  1
harrison.sanders
  9
$REQUIREDVERSIONS
160
                 0
  9
$INSBASE
 10
0.0
 20
0.0
 30
0.0
  9
$EXTMIN
 10
0.4062195620571885
 20
0.7738037677176806
 30
-0.0015258207003583
  9
$EXTMAX
 10
33.40701301792521
 20
22.77575689039165
 30
0.0000000349246037
  9
$LIMMIN
 10
0.0
 20
0.0
  9
$LIMMAX
 10
34.0
 20
24.0
  9
$ORTHOMODE
 70
     0
  9
$REGENMODE
 70
     1
  9
$FILLMODE
 70
     1
  9
$QTEXTMODE
 70
     0
  9
$MIRRTEXT
 70
     1
  9
$LTSCALE
 40
1.0
  9
$ATTMODE
 70
     1
  9
$TEXTSIZE
 40
0.2777777778
  9
$TRACEWID
 40
0.05
  9
$TEXTSTYLE
  7
Standard
  9
$CLAYER
  8
0
  9
$CELTYPE
  6
ByLayer
  9
$CECOLOR
 62
   256
  9
$CELTSCALE
 40
1.0
  9
$DISPSILH
 70
     0
  9
$DIMSCALE
 40
1.0
  9
$DIMASZ
 40
0.3640136719
  9
$DIMEXO
 40
0.05
  9
$DIMDLI
 40
0.38
  9
$DIMRND
 40
0.0
  9
$DIMDLE
 40
0.0
  9
$DIMEXE
 40
0.125
  9
$DIMTP
 40
0.0
  9
$DIMTM
 40
0.0
  9
$DIMTXT
 40
0.5
  9
$DIMCEN
 40
0.09
  9
$DIMTSZ
 40
0.0
  9
$DIMTOL
 70
     0
  9
$DIMLIM
 70
     0
  9
$DIMTIH
 70
     1
  9
$DIMTOH
 70
     1
  9
$DIMSE1
 70
     0
  9
$DIMSE2
 70
     0
  9
$DIMTAD
 70
     0
  9
$DIMZIN
 70
     0
  9
$DIMBLK
  1

  9
$DIMASO
 70
     1
  9
$DIMSHO
 70
     1
  9
$DIMPOST
  1

  9
$DIMAPOST
  1

  9
$DIMALT
 70
     0
  9
$DIMALTD
 70
     2
  9
$DIMALTF
 40
25.4
  9
$DIMLFAC
 40
1.0
  9
$DIMTOFL
 70
     0
  9
$DIMTVP
 40
0.0
  9
$DIMTIX
 70
     0
  9
$DIMSOXD
 70
     0
  9
$DIMSAH
 70
     0
  9
$DIMBLK1
  1

  9
$DIMBLK2
  1

  9
$DIMSTYLE
  2
Standard
  9
$DIMCLRD
 70
     0
  9
$DIMCLRE
 70
     0
  9
$DIMCLRT
 70
     0
  9
$DIMTFAC
 40
1.0
  9
$DIMGAP
 40
0.06
  9
$DIMJUST
 70
     0
  9
$DIMSD1
 70
     0
  9
$DIMSD2
 70
     0
  9
$DIMTOLJ
 70
     1
  9
$DIMTZIN
 70
     0
  9
$DIMALTZ
 70
     0
  9
$DIMALTTZ
 70
     0
  9
$DIMUPT
 70
     0
  9
$DIMDEC
 70
     3
  9
$DIMTDEC
 70
     3
  9
$DIMALTU
 70
     2
  9
$DIMALTTD
 70
     2
  9
$DIMTXSTY
  7
Standard
  9
$DIMAUNIT
 70
     0
  9
$DIMADEC
 70
     2
  9
$DIMALTRND
 40
0.0
  9
$DIMAZIN
 70
     0
  9
$DIMDSEP
 70
    46
  9
$DIMATFIT
 70
     3
  9
$DIMFRAC
 70
     0
  9
$DIMLDRBLK
  1

  9
$DIMLUNIT
 70
     2
  9
$DIMLWD
 70
    -2
  9
$DIMLWE
 70
    -2
  9
$DIMTMOVE
 70
     0
  9
$DIMFXL
 40
1.0
  9
$DIMFXLON
 70
     0
  9
$DIMJOGANG
 40
0.7853981633974483
  9
$DIMTFILL
 70
     0
  9
$DIMTFILLCLR
 70
     0
  9
$DIMARCSYM
 70
     0
  9
$DIMLTYPE
  6

  9
$DIMLTEX1
  6

  9
$DIMLTEX2
  6

  9
$DIMTXTDIRECTION
 70
     0
  9
$LUNITS
 70
     2
  9
$LUPREC
 70
     3
  9
$SKETCHINC
 40
0.1
  9
$FILLETRAD
 40
0.5
  9
$AUNITS
 70
     0
  9
$AUPREC
 70
     2
  9
$MENU
  1
.
  9
$ELEVATION
 40
0.0
  9
$PELEVATION
 40
0.0
  9
$THICKNESS
 40
0.0
  9
$LIMCHECK
 70
     0
  9
$CHAMFERA
 40
0.0
  9
$CHAMFERB
 40
0.0
  9
$CHAMFERC
 40
0.0
  9
$CHAMFERD
 40
0.0
  9
$SKPOLY
 70
     0
  9
$TDCREATE
 40
2458360.618757662
  9
$TDUCREATE
 40
2458360.827090996
  9
$TDUPDATE
 40
2458360.624501413
  9
$TDUUPDATE
 40
2458360.832834745
  9
$TDINDWG
 40
0.0055405208
  9
$TDUSRTIMER
 40
0.0055404977
  9
$USRTIMER
 70
     1
  9
$ANGBASE
 50
0.0
  9
$ANGDIR
 70
     0
  9
$PDMODE
 70
     0
  9
$PDSIZE
 40
-1.0
  9
$PLINEWID
 40
0.0
  9
$SPLFRAME
 70
     0
  9
$SPLINETYPE
 70
     6
  9
$SPLINESEGS
 70
     8
  9
$HANDSEED
  5
7BA
  9
$SURFTAB1
 70
     6
  9
$SURFTAB2
 70
     6
  9
$SURFTYPE
 70
     6
  9
$SURFU
 70
     6
  9
$SURFV
 70
     6
  9
$UCSBASE
  2

  9
$UCSNAME
  2

  9
$UCSORG
 10
0.0
 20
0.0
 30
0.0
  9
$UCSXDIR
 10
1.0
 20
0.0
 30
0.0
  9
$UCSYDIR
 10
0.0
 20
1.0
 30
0.0
  9
$UCSORTHOREF
  2

  9
$UCSORTHOVIEW
 70
     0
  9
$UCSORGTOP
 10
0.0
 20
0.0
 30
0.0
  9
$UCSORGBOTTOM
 10
0.0
 20
0.0
 30
0.0
  9
$UCSORGLEFT
 10
0.0
 20
0.0
 30
0.0
  9
$UCSORGRIGHT
 10
0.0
 20
0.0
 30
0.0
  9
$UCSORGFRONT
 10
0.0
 20
0.0
 30
0.0
  9
$UCSORGBACK
 10
0.0
 20
0.0
 30
0.0
  9
$PUCSBASE
  2

  9
$PUCSNAME
  2

  9
$PUCSORG
 10
0.0
 20
0.0
 30
0.0
  9
$PUCSXDIR
 10
1.0
 20
0.0
 30
0.0
  9
$PUCSYDIR
 10
0.0
 20
1.0
 30
0.0
  9
$PUCSORTHOREF
  2

  9
$PUCSORTHOVIEW
 70
     0
  9
$PUCSORGTOP
 10
0.0
 20
0.0
 30
0.0
  9
$PUCSORGBOTTOM
 10
0.0
 20
0.0
 30
0.0
  9
$PUCSORGLEFT
 10
0.0
 20
0.0
 30
0.0
  9
$PUCSORGRIGHT
 10
0.0
 20
0.0
 30
0.0
  9
$PUCSORGFRONT
 10
0.0
 20
0.0
 30
0.0
  9
$PUCSORGBACK
 10
0.0
 20
0.0
 30
0.0
  9
$USERI1
 70
     0
  9
$USERI2
 70
     0
  9
$USERI3
 70
     0
  9
$USERI4
 70
     0
  9
$USERI5
 70
     0
  9
$USERR1
 40
0.0
  9
$USERR2
 40
0.0
  9
$USERR3
 40
0.0
  9
$USERR4
 40
0.0
  9
$USERR5
 40
0.0
  9
$WORLDVIEW
 70
     1
  9
$SHADEDGE
 70
     3
  9
$SHADEDIF
 70
    70
  9
$TILEMODE
 70
     1
  9
$MAXACTVP
 70
    64
  9
$PINSBASE
 10
0.0
 20
0.0
 30
0.0
  9
$PLIMCHECK
 70
     0
  9
$PEXTMIN
 10
1.000000000000000E+20
 20
1.000000000000000E+20
 30
1.000000000000000E+20
  9
$PEXTMAX
 10
-1.000000000000000E+20
 20
-1.000000000000000E+20
 30
-1.000000000000000E+20
  9
$PLIMMIN
 10
0.0
 20
0.0
  9
$PLIMMAX
 10
12.0
 20
9.0
  9
$UNITMODE
 70
     0
  9
$VISRETAIN
 70
     1
  9
$PLINEGEN
 70
     0
  9
$PSLTSCALE
 70
     1
  9
$TREEDEPTH
 70
  3020
  9
$CMLSTYLE
  2
Standard
  9
$CMLJUST
 70
     0
  9
$CMLSCALE
 40
1.0
  9
$PROXYGRAPHICS
 70
     1
  9
$MEASUREMENT
 70
     0
  9
$CELWEIGHT
370
    -1
  9
$ENDCAPS
280
     0
  9
$JOINSTYLE
280
     0
  9
$LWDISPLAY
290
     1
  9
$INSUNITS
 70
     1
  9
$HYPERLINKBASE
  1

  9
$STYLESHEET
  1

  9
$XEDIT
290
     1
  9
$CEPSNTYPE
380
     0
  9
$PSTYLEMODE
290
     1
  9
$FINGERPRINTGUID
  2
{98BF38E8-3FF1-41E3-B3AE-EB9B5CE18CAB}
  9
$VERSIONGUID
  2
{A5E2BA2E-F2A8-4B60-9887-54C9F2FE1B19}
  9
$EXTNAMES
290
     1
  9
$PSVPSCALE
 40
0.0
  9
$OLESTARTUP
290
     0
  9
$SORTENTS
280
   127
  9
$INDEXCTL
280
     0
  9
$HIDETEXT
280
     0
  9
$XCLIPFRAME
280
     2
  9
$HALOGAP
280
     0
  9
$OBSCOLOR
 70
   257
  9
$OBSLTYPE
280
     0
  9
$INTERSECTIONDISPLAY
280
     0
  9
$INTERSECTIONCOLOR
 70
   257
  9
$DIMASSOC
280
     1
  9
$PROJECTNAME
  1

  9
$CAMERADISPLAY
290
     0
  9
$LENSLENGTH
 40
50.0
  9
$CAMERAHEIGHT
 40
0.0
  9
$STEPSPERSEC
 40
2.0
  9
$STEPSIZE
 40
6.0
  9
$3DDWFPREC
 40
2.0
  9
$PSOLWIDTH
 40
0.25
  9
$PSOLHEIGHT
 40
4.0
  9
$LOFTANG1
 40
1.570796326794896
  9
$LOFTANG2
 40
1.570796326794896
  9
$LOFTMAG1
 40
0.0
  9
$LOFTMAG2
 40
0.0
  9
$LOFTPARAM
 70
     7
  9
$LOFTNORMALS
280
     1
  9
$LATITUDE
 40
37.795
  9
$LONGITUDE
 40
-122.394
  9
$NORTHDIRECTION
 40
0.0
  9
$TIMEZONE
 70
 -8000
  9
$LIGHTGLYPHDISPLAY
280
     1
  9
$TILEMODELIGHTSYNCH
280
     1
  9
$CMATERIAL
347
1FD
  9
$SOLIDHIST
280
     0
  9
$SHOWHIST
280
     1
  9
$DWFFRAME
280
     2
  9
$DGNFRAME
280
     0
  9
$REALWORLDSCALE
290
     1
  9
$INTERFERECOLOR
 62
     1
  9
$INTERFEREOBJVS
345
21F
  9
$INTERFEREVPVS
346
21C
  9
$CSHADOW
280
     0
  9
$SHADOWPLANELOCATION
 40
0.0
  0
ENDSEC
  0
SECTION
  2
CLASSES
  0
CLASS
  1
ACDBDICTIONARYWDFLT
  2
AcDbDictionaryWithDefault
  3
ObjectDBX Classes
 90
        0
 91
        1
280
     0
281
     0
  0
CLASS
  1
VISUALSTYLE
  2
AcDbVisualStyle
  3
ObjectDBX Classes
 90
     4095
 91
       24
280
     0
281
     0
  0
CLASS
  1
MATERIAL
  2
AcDbMaterial
  3
ObjectDBX Classes
 90
     1153
 91
        3
280
     0
281
     0
  0
CLASS
  1
SCALE
  2
AcDbScale
  3
ObjectDBX Classes
 90
     1153
 91
       33
280
     0
281
     0
  0
CLASS
  1
TABLESTYLE
  2
AcDbTableStyle
  3
ObjectDBX Classes
 90
     4095
 91
        1
280
     0
281
     0
  0
CLASS
  1
MLEADERSTYLE
  2
AcDbMLeaderStyle
  3
ACDB_MLEADERSTYLE_CLASS
 90
     4095
 91
        1
280
     0
281
     0
  0
CLASS
  1
SUN
  2
AcDbSun
  3
SCENEOE
 90
     1153
 91
        0
280
     0
281
     0
  0
CLASS
  1
ACDBSECTIONVIEWSTYLE
  2
AcDbSectionViewStyle
  3
ObjectDBX Classes
 90
     1025
 91
        1
280
     0
281
     0
  0
CLASS
  1
ACDBDETAILVIEWSTYLE
  2
AcDbDetailViewStyle
  3
ObjectDBX Classes
 90
     1025
 91
        1
280
     0
281
     0
  0
CLASS
  1
DICTIONARYVAR
  2
AcDbDictionaryVar
  3
ObjectDBX Classes
 90
        0
 91
        9
280
     0
281
     0
  0
CLASS
  1
CELLSTYLEMAP
  2
AcDbCellStyleMap
  3
ObjectDBX Classes
 90
     1152
 91
        1
280
     0
281
     0
  0
ENDSEC
  0
SECTION
  2
TABLES
  0
TABLE
  2
VPORT
  5
8
330
0
100
AcDbSymbolTable
 70
     1
  0
VPORT
  5
29
330
8
100
AcDbSymbolTableRecord
100
AcDbViewportTableRecord
  2
*Active
 70
     0
 10
0.0
 20
0.0
 11
1.0
 21
1.0
 12
16.90661628999119
 22
11.77478032905466
 13
0.0
 23
0.0
 14
0.5
 24
0.5
 15
0.5
 25
0.5
 16
0.0
 26
0.0
 36
1.0
 17
0.0
 27
0.0
 37
0.0
 40
22.16594283538955
 41
1.665422885572139
 42
50.0
 43
0.0
 44
0.0
 50
0.0
 51
0.0
 71
     0
 72
  2000
 73
     1
 74
     3
 75
     0
 76
     0
 77
     0
 78
     0
281
     0
 65
     1
110
0.0
120
0.0
130
0.0
111
1.0
121
0.0
131
0.0
112
0.0
122
1.0
132
0.0
 79
     0
146
0.0
348
21B
 60
     3
 61
     5
292
     1
282
     1
141
0.0
142
0.0
 63
   250
421
  3355443
1001
ACAD_NAV_VCDISPLAY
1070
     3
  0
ENDTAB
  0
TABLE
  2
LTYPE
  5
5
330
0
100
AcDbSymbolTable
 70
     6
  0
LTYPE
  5
14
330
5
100
AcDbSymbolTableRecord
100
AcDbLinetypeTableRecord
  2
ByBlock
 70
     0
  3

 72
    65
 73
     0
 40
0.0
  0
LTYPE
  5
15
330
5
100
AcDbSymbolTableRecord
100
AcDbLinetypeTableRecord
  2
ByLayer
 70
     0
  3

 72
    65
 73
     0
 40
0.0
  0
LTYPE
  5
16
330
5
100
AcDbSymbolTableRecord
100
AcDbLinetypeTableRecord
  2
Continuous
 70
     0
  3
Solid line
 72
    65
 73
     0
 40
0.0
  0
LTYPE
  5
6E
330
5
100
AcDbSymbolTableRecord
100
AcDbLinetypeTableRecord
  2
HIDDEN
 70
     0
  3
Hidden __ __ __ __ __ __ __ __ __ __ __ __ __ __
 72
    65
 73
     2
 40
0.075
 49
0.05
 74
     0
 49
-0.025
 74
     0
  0
LTYPE
  5
6F
330
5
100
AcDbSymbolTableRecord
100
AcDbLinetypeTableRecord
  2
PHANTOM
 70
     0
  3
Phantom ______  __  __  ______  __  __  ______
 72
    65
 73
     6
 40
0.5
 49
0.25
 74
     0
 49
-0.05
 74
     0
 49
0.05
 74
     0
 49
-0.05
 74
     0
 49
0.05
 74
     0
 49
-0.05
 74
     0
  0
LTYPE
  5
70
330
5
100
AcDbSymbolTableRecord
100
AcDbLinetypeTableRecord
  2
CENTER
 70
     0
  3
Center ____ _ ____ _ ____ _ ____ _ ____ _ ____
 72
    65
 73
     4
 40
0.4
 49
0.25
 74
     0
 49
-0.05
 74
     0
 49
0.05
 74
     0
 49
-0.05
 74
     0
  0
LTYPE
  5
71
330
5
100
AcDbSymbolTableRecord
100
AcDbLinetypeTableRecord
  2
CENTERX2
 70
     0
  3
Center (2x) ________  __  ________  __  _____
 72
    65
 73
     4
 40
0.8
 49
0.5
 74
     0
 49
-0.1
 74
     0
 49
0.1
 74
     0
 49
-0.1
 74
     0
  0
LTYPE
  5
72
330
5
100
AcDbSymbolTableRecord
100
AcDbLinetypeTableRecord
  2
DOT2
 70
     0
  3
Dot (.5x) ........................................
 72
    65
 73
     2
 40
0.025
 49
0.0
 74
     0
 49
-0.025
 74
     0
  0
ENDTAB
  0
TABLE
  2
LAYER
  5
2
102
{ACAD_XDICTIONARY
360
245
102
}
330
0
100
AcDbSymbolTable
 70
     9
  0
LAYER
  5
10
102
{ACAD_XDICTIONARY
360
798
102
}
330
2
100
AcDbSymbolTableRecord
100
AcDbLayerTableRecord
  2
0
 70
     0
 62
     7
  6
Continuous
370
    -3
390
F
347
20D
348
0
  0
LAYER
  5
73
102
{ACAD_XDICTIONARY
360
79A
102
}
330
2
100
AcDbSymbolTableRecord
100
AcDbLayerTableRecord
  2
SLD-0
 70
     0
 62
   179
  6
Continuous
370
    -3
390
F
347
20D
348
0
  0
LAYER
  5
74
102
{ACAD_XDICTIONARY
360
79C
102
}
330
2
100
AcDbSymbolTableRecord
100
AcDbLayerTableRecord
  2
OBJECTS
 70
     0
 62
     5
  6
Continuous
370
    -3
390
F
347
20D
348
0
  0
LAYER
  5
75
102
{ACAD_XDICTIONARY
360
79E
102
}
330
2
100
AcDbSymbolTableRecord
100
AcDbLayerTableRecord
  2
DIMS
 70
     0
 62
     1
  6
Continuous
370
    -3
390
F
347
20D
348
0
  0
LAYER
  5
76
102
{ACAD_XDICTIONARY
360
7A0
102
}
330
2
100
AcDbSymbolTableRecord
100
AcDbLayerTableRecord
  2
NOTES
 70
     0
 62
     7
  6
Continuous
370
    -3
390
F
347
20D
348
0
  0
LAYER
  5
77
102
{ACAD_XDICTIONARY
360
7A2
102
}
330
2
100
AcDbSymbolTableRecord
100
AcDbLayerTableRecord
  2
IMAGES
 70
     0
 62
     7
  6
Continuous
370
    -3
390
F
347
20D
348
0
  0
LAYER
  5
78
102
{ACAD_XDICTIONARY
360
7A4
102
}
330
2
100
AcDbSymbolTableRecord
100
AcDbLayerTableRecord
  2
CENTERLINES
 70
     0
 62
     7
  6
HIDDEN
370
    -3
390
F
347
20D
348
0
  0
LAYER
  5
79
102
{ACAD_XDICTIONARY
360
7A6
102
}
330
2
100
AcDbSymbolTableRecord
100
AcDbLayerTableRecord
  2
BLOCKS
 70
     0
 62
    16
  6
Continuous
370
    -3
390
F
347
20D
348
0
  0
LAYER
  5
241
102
{ACAD_XDICTIONARY
360
242
102
}
330
2
100
AcDbSymbolTableRecord
100
AcDbLayerTableRecord
  2
Layer 1
 70
     0
 62
     7
  6
Continuous
370
    -3
390
F
347
20D
348
0
  0
ENDTAB
  0
TABLE
  2
STYLE
  5
3
330
0
100
AcDbSymbolTable
 70
     3
  0
STYLE
  5
11
330
3
100
AcDbSymbolTableRecord
100
AcDbTextStyleTableRecord
  2
Standard
 70
     0
 40
0.0
 41
1.0
 50
0.0
 71
     0
 42
0.2777777778
  3
txt
  4

  0
STYLE
  5
BB
330
3
100
AcDbSymbolTableRecord
100
AcDbTextStyleTableRecord
  2
SLDTEXTSTYLE0
 70
     0
 40
0.0
 41
0.605
 50
0.0
 71
     0
 42
0.2777777778
  3
TXT
  4

  0
STYLE
  5
243
330
3
100
AcDbSymbolTableRecord
100
AcDbTextStyleTableRecord
  2
SLDTEXTSTYLE3
 70
     0
 40
0.0
 41
0.5262500000000001
 50
0.0
 71
     0
 42
0.2777777778
  3
TXT
  4

  0
ENDTAB
  0
TABLE
  2
VIEW
  5
6
330
0
100
AcDbSymbolTable
 70
     0
  0
ENDTAB
  0
TABLE
  2
UCS
  5
7
330
0
100
AcDbSymbolTable
 70
     0
  0
ENDTAB
  0
TABLE
  2
APPID
  5
9
330
0
100
AcDbSymbolTable
 70
     2
  0
APPID
  5
12
330
9
100
AcDbSymbolTableRecord
100
AcDbRegAppTableRecord
  2
ACAD
 70
     0
  0
APPID
  5
244
330
9
100
AcDbSymbolTableRecord
100
AcDbRegAppTableRecord
  2
ACAD_NAV_VCDISPLAY
 70
     0
  0
ENDTAB
  0
TABLE
  2
DIMSTYLE
  5
A
330
0
100
AcDbSymbolTable
 70
     5
100
AcDbDimStyleTable
 71
     0
  0
DIMSTYLE
105
27
330
A
100
AcDbSymbolTableRecord
100
AcDbDimStyleTableRecord
  2
Standard
 70
     0
340
11
  0
DIMSTYLE
105
D5
330
A
100
AcDbSymbolTableRecord
100
AcDbDimStyleTableRecord
  2
SLDDIMSTYLE0
 70
     0
 41
0.3640136719
 44
0.0
 45
0.000000001
146
0.3640136719
147
0.0
173
     1
271
     0
272
     0
276
     2
277
     5
340
11
  0
DIMSTYLE
105
10C
102
{ACAD_REACTORS
330
10B
330
121
330
136
330
14B
330
18A
102
}
330
A
100
AcDbSymbolTableRecord
100
AcDbDimStyleTableRecord
  2
SLDDIMSTYLE1
 70
     0
 41
0.3640136719
 44
0.0
 45
0.000000001
 78
    12
 79
     3
140
0.3640136719
147
0.091003418
148
0.000000001
170
     1
173
     1
271
     6
272
     3
276
     2
277
     5
284
    12
340
BB
  0
DIMSTYLE
105
161
102
{ACAD_REACTORS
330
160
330
1A2
102
}
330
A
100
AcDbSymbolTableRecord
100
AcDbDimStyleTableRecord
  2
SLDDIMSTYLE2
 70
     0
 41
0.3640136719
 44
0.0
 45
0.000000001
 78
    12
 79
     3
140
0.3640136719
141
0.0
147
0.091003418
148
0.000000001
170
     1
173
     1
271
     3
272
     3
276
     2
277
     5
279
     1
284
    12
340
BB
  0
DIMSTYLE
105
175
102
{ACAD_REACTORS
330
174
102
}
330
A
100
AcDbSymbolTableRecord
100
AcDbDimStyleTableRecord
  2
SLDDIMSTYLE3
 70
     0
 41
0.3640136719
 44
0.0
 45
0.000000001
 78
    12
 79
     3
140
0.3640136719
141
0.0
147
0.091003418
148
0.000000001
170
     1
173
     1
271
     3
272
     3
276
     2
277
     5
284
    12
340
BB
  0
ENDTAB
  0
TABLE
  2
BLOCK_RECORD
  5
1
330
0
100
AcDbSymbolTable
 70
    22
  0
BLOCK_RECORD
  5
1F
330
1
100
AcDbSymbolTableRecord
100
AcDbBlockTableRecord
  2
*Model_Space
340
22
 70
     0
280
     1
281
     0
  0
BLOCK_RECORD
  5
1B
330
1
100
AcDbSymbolTableRecord
100
AcDbBlockTableRecord
  2
*Paper_Space
340
1E
 70
     0
280
     1
281
     0
  0
BLOCK_RECORD
  5
23
330
1
100
AcDbSymbolTableRecord
100
AcDbBlockTableRecord
  2
*Paper_Space0
340
26
 70
     0
280
     1
281
     0
  0
BLOCK_RECORD
  5
7A
330
1
100
AcDbSymbolTableRecord
100
AcDbBlockTableRecord
  2
Block1
340
0
102
{BLKREFS
331
106
102
}
 70
     0
280
     1
281
     0
  0
BLOCK_RECORD
  5
AC
330
1
100
AcDbSymbolTableRecord
100
AcDbBlockTableRecord
  2
SW_BLOCK_DIMENSION_0
340
0
102
{BLKREFS
331
C2
102
}
 70
     0
280
     1
281
     0
  0
BLOCK_RECORD
  5
C7
330
1
100
AcDbSymbolTableRecord
100
AcDbBlockTableRecord
  2
SW_NOTE_0
340
0
102
{BLKREFS
331
CC
102
}
 70
     0
280
     1
281
     0
  0
BLOCK_RECORD
  5
CD
330
1
100
AcDbSymbolTableRecord
100
AcDbBlockTableRecord
  2
SW_NOTE_1
340
0
102
{BLKREFS
331
D4
102
}
 70
     0
280
     1
281
     0
  0
BLOCK_RECORD
  5
D8
330
1
100
AcDbSymbolTableRecord
100
AcDbBlockTableRecord
  2
SW_NOTE_2
340
0
102
{BLKREFS
331
E7
102
}
 70
     0
280
     1
281
     0
  0
BLOCK_RECORD
  5
10D
330
1
100
AcDbSymbolTableRecord
100
AcDbBlockTableRecord
  2
_D
340
0
 70
     0
280
     1
281
     0
  0
BLOCK_RECORD
  5
122
330
1
100
AcDbSymbolTableRecord
100
AcDbBlockTableRecord
  2
_D_1
340
0
 70
     0
280
     1
281
     0
  0
BLOCK_RECORD
  5
137
330
1
100
AcDbSymbolTableRecord
100
AcDbBlockTableRecord
  2
_D_2
340
0
 70
     0
280
     1
281
     0
  0
BLOCK_RECORD
  5
14C
330
1
100
AcDbSymbolTableRecord
100
AcDbBlockTableRecord
  2
_D_3
340
0
 70
     0
280
     1
281
     0
  0
BLOCK_RECORD
  5
162
330
1
100
AcDbSymbolTableRecord
100
AcDbBlockTableRecord
  2
_D_4
340
0
 70
     0
280
     1
281
     0
  0
BLOCK_RECORD
  5
176
330
1
100
AcDbSymbolTableRecord
100
AcDbBlockTableRecord
  2
_D_5
340
0
 70
     0
280
     1
281
     0
  0
BLOCK_RECORD
  5
18B
330
1
100
AcDbSymbolTableRecord
100
AcDbBlockTableRecord
  2
_D_6
340
0
 70
     0
280
     1
281
     0
  0
BLOCK_RECORD
  5
1A3
330
1
100
AcDbSymbolTableRecord
100
AcDbBlockTableRecord
  2
_D_7
340
0
 70
     0
280
     1
281
     0
  0
BLOCK_RECORD
  5
1B5
330
1
100
AcDbSymbolTableRecord
100
AcDbBlockTableRecord
  2
SW_NOTE_3
340
0
102
{BLKREFS
331
1BF
102
}
 70
     0
280
     1
281
     0
  0
BLOCK_RECORD
  5
1C0
330
1
100
AcDbSymbolTableRecord
100
AcDbBlockTableRecord
  2
SW_NOTE_4
340
0
102
{BLKREFS
331
1C5
102
}
 70
     0
280
     1
281
     0
  0
BLOCK_RECORD
  5
1C7
330
1
100
AcDbSymbolTableRecord
100
AcDbBlockTableRecord
  2
SW_NOTE_5
340
0
102
{BLKREFS
331
1D1
102
}
 70
     0
280
     1
281
     0
  0
BLOCK_RECORD
  5
1D3
330
1
100
AcDbSymbolTableRecord
100
AcDbBlockTableRecord
  2
SW_NOTE_6
340
0
102
{BLKREFS
331
1DC
102
}
 70
     0
280
     1
281
     0
  0
BLOCK_RECORD
  5
1DE
330
1
100
AcDbSymbolTableRecord
100
AcDbBlockTableRecord
  2
SW_NOTE_7
340
0
102
{BLKREFS
331
1E7
102
}
 70
     0
280
     1
281
     0
  0
BLOCK_RECORD
  5
1ED
330
1
100
AcDbSymbolTableRecord
100
AcDbBlockTableRecord
  2
SW_NOTE_8
340
0
102
{BLKREFS
331
4F2
102
}
 70
     0
280
     1
281
     0
  0
BLOCK_RECORD
  5
23A
330
1
100
AcDbSymbolTableRecord
100
AcDbBlockTableRecord
  2
block 35
340
0
102
{BLKREFS
331
677
102
}
 70
     0
280
     1
281
     0
  0
ENDTAB
  0
ENDSEC
  0
SECTION
  2
BLOCKS
  0
BLOCK
  5
20
330
1F
100
AcDbEntity
  8
0
100
AcDbBlockBegin
  2
*Model_Space
 70
     0
 10
0.0
 20
0.0
 30
0.0
  3
*Model_Space
  1

  0
ENDBLK
  5
21
330
1F
100
AcDbEntity
  8
0
100
AcDbBlockEnd
  0
BLOCK
  5
1C
330
1B
100
AcDbEntity
 67
     1
  8
0
100
AcDbBlockBegin
  2
*Paper_Space
 70
     0
 10
0.0
 20
0.0
 30
0.0
  3
*Paper_Space
  1

  0
ENDBLK
  5
1D
330
1B
100
AcDbEntity
 67
     1
  8
0
100
AcDbBlockEnd
  0
BLOCK
  5
24
330
23
100
AcDbEntity
 67
     1
  8
0
100
AcDbBlockBegin
  2
*Paper_Space0
 70
     0
 10
0.0
 20
0.0
 30
0.0
  3
*Paper_Space0
  1

  0
ENDBLK
  5
25
330
23
100
AcDbEntity
 67
     1
  8
0
100
AcDbBlockEnd
  0
BLOCK
  5
7B
330
7A
100
AcDbEntity
  8
0
100
AcDbBlockBegin
  2
Block1
 70
     0
 10
0.0
 20
0.0
 30
0.0
  3
Block1
  1

  0
ARC
  5
7D
330
7A
100
AcDbEntity
  8
0
  6
Continuous
 62
    16
370
    18
100
AcDbCircle
 10
21.0247390722
 20
26.9140495115
 30
0.0
 40
0.0659795528056719
100
AcDbArc
 50
0.0
 51
90.0
  0
ARC
  5
7E
330
7A
100
AcDbEntity
  8
0
  6
Continuous
 62
    16
370
    18
100
AcDbCircle
 10
20.0403577083
 20
26.4212514943
 30
0.0
 40
0.0881257319589152
100
AcDbArc
 50
200.9822712638
 51
339.0177287362
  0
ARC
  5
7F
330
7A
100
AcDbEntity
  8
0
  6
Continuous
 62
    16
370
    18
100
AcDbCircle
 10
20.731618625
 20
26.3139893982
 30
0.0
 40
0.1880000000000024
100
AcDbArc
 50
0.0
 51
90.0
  0
ARC
  5
80
330
7A
100
AcDbEntity
  8
0
  6
Continuous
 62
    16
370
    18
100
AcDbCircle
 10
20.731618625
 20
26.3139893982
 30
0.0
 40
0.2341000000000015
100
AcDbArc
 50
0.0
 51
90.0
  0
ARC
  5
81
330
7A
100
AcDbEntity
  8
BLOCKS
100
AcDbCircle
 10
21.3249668066
 20
26.3001927866
 30
0.0
 40
0.3686452378780193
100
AcDbArc
 50
129.4518716023
 51
170.6861521435
  0
LINE
  5
82
330
7A
100
AcDbEntity
  8
0
  6
Continuous
 62
    16
370
    18
100
AcDbLine
 10
19.4314231162
 20
26.5192257655
 30
0.0
 11
19.3788703567
 21
26.5738454846
 31
0.0
  0
LINE
  5
83
330
7A
100
AcDbEntity
  8
0
  6
Continuous
 62
    16
370
    18
100
AcDbLine
 10
20.0408120814
 20
26.8351846327
 30
0.0
 11
20.0797389734
 21
26.7799952517
 31
0.0
  0
LINE
  5
84
330
7A
100
AcDbEntity
  8
0
  6
Continuous
 62
    16
370
    18
100
AcDbLine
 10
19.3788703567
 20
26.5738454846
 30
0.0
 11
19.3364639969
 21
26.53304389760001
 31
0.0
  0
LINE
  5
85
330
7A
100
AcDbEntity
  8
0
  6
Continuous
 62
    16
370
    18
100
AcDbLine
 10
20.6725806187
 20
26.4527516548
 30
0.0
 11
20.7252404088
 21
26.5034186543
 31
0.0
  0
LINE
  5
86
330
7A
100
AcDbEntity
  8
0
  6
Continuous
 62
    16
370
    18
100
AcDbLine
 10
20.0797389734
 20
26.7799952517
 30
0.0
 11
20.0797389734
 21
26.3896955151
 31
0.0
  0
LINE
  5
87
330
7A
100
AcDbEntity
  8
0
  6
Continuous
 62
    16
370
    18
100
AcDbLine
 10
19.9814774532
 20
26.8652076206
 30
0.0
 11
19.9814774532
 21
26.5848453834
 31
0.0
  0
LINE
  5
88
330
7A
100
AcDbEntity
  8
0
  6
Continuous
 62
    16
370
    18
100
AcDbLine
 10
20.7678769055
 20
26.4591052159
 30
0.0
 11
20.6989695496
 21
26.392805503
 31
0.0
  0
LINE
  5
89
330
7A
100
AcDbEntity
  8
0
  6
Continuous
 62
    16
370
    18
100
AcDbLine
 10
21.0247390722
 20
26.9800290643
 30
0.0
 11
19.2446660374
 21
26.9800290643
 31
0.0
  0
LINE
  5
8A
330
7A
100
AcDbEntity
  8
0
  6
Continuous
 62
    16
370
    18
100
AcDbLine
 10
19.9670675999
 20
26.4905376331
 30
0.0
 11
19.9670675999
 21
26.4354028898
 31
0.0
  0
LINE
  5
8B
330
7A
100
AcDbEntity
  8
0
  6
Continuous
 62
    16
370
    18
100
AcDbLine
 10
20.1524880148
 20
26.4213577706
 30
0.0
 11
20.1506182011
 21
26.3892309097
 31
0.0
  0
LINE
  5
8C
330
7A
100
AcDbEntity
  8
0
  6
Continuous
 62
    16
370
    18
100
AcDbLine
 10
19.3364639969
 20
26.53304389760001
 30
0.0
 11
19.3985753063
 21
26.4684896798
 31
0.0
  0
LINE
  5
8D
330
7A
100
AcDbEntity
  8
0
  6
Continuous
 62
    16
370
    18
100
AcDbLine
 10
20.2906117643
 20
26.5019893982
 30
0.0
 11
20.2906117643
 21
26.5480893982
 31
0.0
  0
LINE
  5
8E
330
7A
100
AcDbEntity
  8
0
  6
Continuous
 62
    16
370
    18
100
AcDbLine
 10
19.4314231162
 20
26.5192257655
 30
0.0
 11
20.6725806187
 21
26.4527516548
 31
0.0
  0
LINE
  5
8F
330
7A
100
AcDbEntity
  8
0
  6
Continuous
 62
    16
370
    18
100
AcDbLine
 10
19.9400720233
 20
26.4337205825
 30
0.0
 11
20.1524880148
 21
26.4213577706
 31
0.0
  0
LINE
  5
90
330
7A
100
AcDbEntity
  8
0
  6
Continuous
 62
    16
370
    18
100
AcDbLine
 10
21.090718625
 20
26.5848453834
 30
0.0
 11
21.090718625
 21
26.9140495115
 31
0.0
  0
LINE
  5
91
330
7A
100
AcDbEntity
  8
0
  6
Continuous
 62
    16
370
    18
100
AcDbLine
 10
20.731618625
 20
26.5019893982
 30
0.0
 11
20.2906117643
 21
26.5019893982
 31
0.0
  0
LINE
  5
92
330
7A
100
AcDbEntity
  8
0
  6
Continuous
 62
    16
370
    18
100
AcDbLine
 10
20.919618625
 20
25.9230893982
 30
0.0
 11
20.919618625
 21
26.3139893982
 31
0.0
  0
LINE
  5
93
330
7A
100
AcDbEntity
  8
0
  6
Continuous
 62
    16
370
    18
100
AcDbLine
 10
19.9580754817
 20
26.3896955151
 30
0.0
 11
20.1226399348
 21
26.3896955151
 31
0.0
  0
LINE
  5
94
330
7A
100
AcDbEntity
  8
0
  6
Continuous
 62
    16
370
    18
100
AcDbLine
 10
20.1506182011
 20
26.3892309097
 30
0.0
 11
19.9382022095
 21
26.4015937216
 31
0.0
  0
LINE
  5
95
330
7A
100
AcDbEntity
  8
0
  6
Continuous
 62
    16
370
    18
100
AcDbLine
 10
20.965718625
 20
25.9230893982
 30
0.0
 11
20.919618625
 21
25.9230893982
 31
0.0
  0
LINE
  5
96
330
7A
100
AcDbEntity
  8
0
  6
Continuous
 62
    16
370
    18
100
AcDbLine
 10
20.965718625
 20
26.3139893982
 30
0.0
 11
20.965718625
 21
25.9230893982
 31
0.0
  0
LINE
  5
97
330
7A
100
AcDbEntity
  8
0
  6
Continuous
 62
    16
370
    18
100
AcDbLine
 10
20.6989695496
 20
26.392805503
 30
0.0
 11
19.3985753063
 21
26.4684896798
 31
0.0
  0
LINE
  5
98
330
7A
100
AcDbEntity
  8
0
  6
Continuous
 62
    16
370
    18
100
AcDbLine
 10
19.2743496911
 20
26.5848453834
 30
0.0
 11
21.090718625
 21
26.5848453834
 31
0.0
  0
LINE
  5
99
330
7A
100
AcDbEntity
  8
0
  6
Continuous
 62
    16
370
    18
100
AcDbLine
 10
20.0028471016
 20
26.7799952517
 30
0.0
 11
20.0408120814
 21
26.8351846327
 31
0.0
  0
LINE
  5
9A
330
7A
100
AcDbEntity
  8
0
  6
Continuous
 62
    16
370
    18
100
AcDbLine
 10
20.2906117643
 20
26.5480893982
 30
0.0
 11
20.731618625
 21
26.5480893982
 31
0.0
  0
LINE
  5
9B
330
7A
100
AcDbEntity
  8
0
  6
Continuous
 62
    16
370
    18
100
AcDbLine
 10
20.0028471016
 20
26.7799952517
 30
0.0
 11
20.0028471016
 21
26.3896955151
 31
0.0
  0
LINE
  5
9C
330
7A
100
AcDbEntity
  8
0
  6
Continuous
 62
    16
370
    18
100
AcDbLine
 10
20.1080144451
 20
26.8652076206
 30
0.0
 11
19.9814774532
 21
26.8652076206
 31
0.0
  0
LINE
  5
9D
330
7A
100
AcDbEntity
  8
0
  6
Continuous
 62
    16
370
    18
100
AcDbLine
 10
20.7252404088
 20
26.5034186543
 30
0.0
 11
20.7678769055
 21
26.4591052159
 31
0.0
  0
LINE
  5
9E
330
7A
100
AcDbEntity
  8
0
  6
Continuous
 62
    16
370
    18
100
AcDbLine
 10
19.9400720233
 20
26.4337205825
 30
0.0
 11
19.9382022095
 21
26.4015937216
 31
0.0
  0
LINE
  5
9F
330
7A
100
AcDbEntity
  8
0
  6
Continuous
 62
    16
370
    18
100
AcDbLine
 10
20.1080144451
 20
26.5848453834
 30
0.0
 11
20.1080144451
 21
26.8652076206
 31
0.0
  0
LINE
  5
A0
330
7A
100
AcDbEntity
  8
0
  6
Continuous
 62
    16
370
    18
100
AcDbLine
 10
20.1216872784
 20
26.4822564878
 30
0.0
 11
20.1216872784
 21
26.426403878
 31
0.0
  0
LINE
  5
A1
330
7A
100
AcDbEntity
  8
BLOCKS
100
AcDbLine
 10
20.2906117643
 20
26.5480893982
 30
0.0
 11
20.2368944426
 21
26.5848453834
 31
0.0
  0
SPLINE
  5
A2
330
7A
100
AcDbEntity
  8
0
  6
Continuous
 62
    16
370
    18
100
AcDbSpline
210
0.0
220
0.0
230
1.0
 70
     8
 71
     3
 72
     9
 73
     5
 74
     0
 42
0.000000001
 43
0.0000000001
 40
0.0
 40
0.0
 40
0.0
 40
0.0
 40
0.5928291688347104
 40
1.0
 40
1.0
 40
1.0
 40
1.0
 10
19.27434969107827
 20
26.58484538338648
 30
0.0
 10
19.22977403886498
 20
26.67067982455945
 30
0.0
 10
19.3092570011885
 20
26.78990333849607
 30
0.0
 10
19.29114417973896
 20
26.9441515837284
 30
0.0
 10
19.24466603742839
 20
26.98002906431008
 30
0.0
  0
HATCH
  5
A3
330
7A
100
AcDbEntity
  8
BLOCKS
 62
    16
100
AcDbHatch
 10
0.0
 20
0.0
 30
0.0
210
0.0
220
0.0
230
1.0
  2
ANSI36
 70
     0
 71
     0
 91
        1
 92
        0
 93
       10
 72
     4
 94
        3
 73
     1
 74
     0
 95
        9
 96
        5
 40
0.0
 40
0.0
 40
0.0
 40
0.0
 40
0.4071708311652897
 40
1.0
 40
1.0
 40
1.0
 40
1.0
 10
19.24466603742839
 20
26.98002906431008
 42
1.0
 10
19.29114417973896
 20
26.9441515837284
 42
1.0
 10
19.3092570011885
 20
26.78990333849607
 42
1.0
 10
19.22977403886498
 20
26.67067982455945
 42
1.0
 10
19.27434969107827
 20
26.58484538338648
 42
1.0
 97
        0
 72
     1
 10
19.27434969107827
 20
26.58484538338648
 11
19.98147745321076
 21
26.58484538338648
 72
     1
 10
19.98147745321076
 20
26.58484538338648
 11
19.98147745321076
 21
26.86520762058046
 72
     1
 10
19.98147745321076
 20
26.86520762058046
 11
20.10801444514525
 21
26.86520762058046
 72
     1
 10
20.10801444514525
 20
26.86520762058046
 11
20.10801444514525
 21
26.58484538338648
 72
     1
 10
20.10801444514525
 20
26.58484538338648
 11
20.23689444261453
 21
26.58484538338649
 72
     1
 10
20.23689444261453
 20
26.58484538338649
 11
21.0907186249667
 21
26.58484538338648
 72
     1
 10
21.0907186249667
 20
26.58484538338648
 11
21.0907186249667
 21
26.9140495115044
 72
     2
 10
21.02473907216103
 20
26.9140495115044
 40
0.0659795528056717
 50
0.0
 51
90.0
 73
     1
 72
     1
 10
21.02473907216103
 20
26.98002906431007
 11
19.24466603742839
 21
26.98002906431008
 97
        0
 75
     0
 76
     1
 52
0.0
 41
0.5
 77
     0
 78
     1
 53
45.0
 43
0.0
 44
0.0
 45
0.0331456303681194
 46
0.1215339780164378
 79
     4
 49
0.15625
 49
-0.03125
 49
0.0
 49
-0.03125
 98
        1
 10
0.0
 20
0.0
  0
HATCH
  5
A4
330
7A
100
AcDbEntity
  8
BLOCKS
 62
    16
100
AcDbHatch
 10
0.0
 20
0.0
 30
0.0
210
0.0
220
0.0
230
1.0
  2
ANSI32
 70
     0
 71
     0
 91
        1
 92
        0
 93
        4
 72
     1
 10
20.07973897339712
 20
26.58484538338648
 11
20.00284710159458
 21
26.58484538338648
 72
     1
 10
20.00284710159458
 20
26.58484538338648
 11
20.00284710159458
 21
26.48862134888004
 72
     1
 10
20.00284710159458
 20
26.48862134888004
 11
20.07973897339712
 21
26.48450316179581
 72
     1
 10
20.07973897339712
 20
26.48450316179581
 11
20.07973897339712
 21
26.58484538338648
 97
        0
 75
     0
 76
     1
 52
0.0
 41
0.2
 77
     0
 78
     2
 53
45.0
 43
0.0
 44
0.0
 45
-0.0530330085889911
 46
0.0530330085889911
 79
     0
 53
45.0
 43
0.035355339
 44
0.0
 45
-0.0530330085889911
 46
0.0530330085889911
 79
     0
 98
        1
 10
0.0
 20
0.0
  0
HATCH
  5
A5
330
7A
100
AcDbEntity
  8
BLOCKS
 62
    16
100
AcDbHatch
 10
0.0
 20
0.0
 30
0.0
210
0.0
220
0.0
230
1.0
  2
ANSI32
 70
     0
 71
     0
 91
        1
 92
        0
 93
        5
 72
     1
 10
20.04081208140756
 20
26.8351846326727
 11
20.00284710159458
 21
26.77999525166031
 72
     1
 10
20.00284710159458
 20
26.77999525166031
 11
20.00284710159458
 21
26.58484538338648
 72
     1
 10
20.00284710159458
 20
26.58484538338648
 11
20.07973897339712
 21
26.58484538338648
 72
     1
 10
20.07973897339712
 20
26.58484538338648
 11
20.07973897339712
 21
26.77999525166031
 72
     1
 10
20.07973897339712
 20
26.77999525166031
 11
20.04081208140756
 21
26.8351846326727
 97
        0
 75
     0
 76
     1
 52
0.0
 41
0.2
 77
     0
 78
     2
 53
45.0
 43
0.0
 44
0.0
 45
-0.0530330085889911
 46
0.0530330085889911
 79
     0
 53
45.0
 43
0.035355339
 44
0.0
 45
-0.0530330085889911
 46
0.0530330085889911
 79
     0
 98
        1
 10
0.0
 20
0.0
  0
HATCH
  5
A6
330
7A
100
AcDbEntity
  8
BLOCKS
 62
    16
100
AcDbHatch
 10
0.0
 20
0.0
 30
0.0
210
0.0
220
0.0
230
1.0
  2
ANSI32
 70
     0
 71
     0
 91
        1
 92
        0
 93
        4
 72
     1
 10
20.07973897339712
 20
26.48450316179581
 11
20.00284710159458
 21
26.48862134888004
 72
     1
 10
20.00284710159458
 20
26.48862134888004
 11
20.00284710159458
 21
26.43332048887585
 72
     1
 10
20.00284710159458
 20
26.43332048887585
 11
20.07973897339712
 21
26.42884530909641
 72
     1
 10
20.07973897339712
 20
26.42884530909641
 11
20.07973897339712
 21
26.48450316179581
 97
        0
 75
     0
 76
     1
 52
0.0
 41
0.2
 77
     0
 78
     2
 53
45.0
 43
0.0
 44
0.0
 45
-0.0530330085889911
 46
0.0530330085889911
 79
     0
 53
45.0
 43
0.035355339
 44
0.0
 45
-0.0530330085889911
 46
0.0530330085889911
 79
     0
 98
        1
 10
0.0
 20
0.0
  0
HATCH
  5
A7
330
7A
100
AcDbEntity
  8
BLOCKS
 62
    16
100
AcDbHatch
 10
0.0
 20
0.0
 30
0.0
210
0.0
220
0.0
230
1.0
  2
ANSI32
 70
     0
 71
     0
 91
        1
 92
        0
 93
        4
 72
     1
 10
20.00284710159458
 20
26.43006701346352
 11
19.94007202325873
 21
26.43372058249019
 72
     1
 10
19.94007202325873
 20
26.43372058249019
 11
19.93820220952023
 21
26.40159372159039
 72
     1
 10
19.93820220952023
 20
26.40159372159039
 11
20.00284710159458
 21
26.39783132763285
 72
     1
 10
20.00284710159458
 20
26.39783132763285
 11
20.00284710159458
 21
26.43006701346352
 97
        0
 75
     0
 76
     1
 52
0.0
 41
0.2
 77
     0
 78
     2
 53
45.0
 43
0.0
 44
0.0
 45
-0.0530330085889911
 46
0.0530330085889911
 79
     0
 53
45.0
 43
0.035355339
 44
0.0
 45
-0.0530330085889911
 46
0.0530330085889911
 79
     0
 98
        1
 10
0.0
 20
0.0
  0
HATCH
  5
A8
330
7A
100
AcDbEntity
  8
BLOCKS
 62
    16
100
AcDbHatch
 10
0.0
 20
0.0
 30
0.0
210
0.0
220
0.0
230
1.0
  2
ANSI32
 70
     0
 71
     0
 91
        1
 92
        0
 93
        4
 72
     1
 10
20.07973897339712
 20
26.42559183368408
 11
20.00284710159458
 21
26.43006701346352
 72
     1
 10
20.00284710159458
 20
26.43006701346352
 11
20.00284710159458
 21
26.39783132763285
 72
     1
 10
20.00284710159458
 20
26.39783132763285
 11
20.07973897339712
 21
26.39335614785342
 72
     1
 10
20.07973897339712
 20
26.39335614785342
 11
20.07973897339712
 21
26.42559183368408
 97
        0
 75
     0
 76
     1
 52
0.0
 41
0.2
 77
     0
 78
     2
 53
45.0
 43
0.0
 44
0.0
 45
-0.0530330085889911
 46
0.0530330085889911
 79
     0
 53
45.0
 43
0.035355339
 44
0.0
 45
-0.0530330085889911
 46
0.0530330085889911
 79
     0
 98
        1
 10
0.0
 20
0.0
  0
HATCH
  5
A9
330
7A
100
AcDbEntity
  8
BLOCKS
 62
    16
100
AcDbHatch
 10
0.0
 20
0.0
 30
0.0
210
0.0
220
0.0
230
1.0
  2
ANSI32
 70
     0
 71
     0
 91
        1
 92
        0
 93
        4
 72
     1
 10
20.07973897339712
 20
26.39335614785342
 11
20.15061820105523
 21
26.38923090965904
 72
     1
 10
20.15061820105523
 20
26.38923090965904
 11
20.15248801479373
 21
26.42135777055884
 72
     1
 10
20.15248801479373
 20
26.42135777055884
 11
20.07973897339712
 21
26.42559183368408
 72
     1
 10
20.07973897339712
 20
26.42559183368408
 11
20.07973897339712
 21
26.39335614785342
 97
        0
 75
     0
 76
     1
 52
0.0
 41
0.2
 77
     0
 78
     2
 53
45.0
 43
0.0
 44
0.0
 45
-0.0530330085889911
 46
0.0530330085889911
 79
     0
 53
45.0
 43
0.035355339
 44
0.0
 45
-0.0530330085889911
 46
0.0530330085889911
 79
     0
 98
        1
 10
0.0
 20
0.0
  0
HATCH
  5
AA
330
7A
100
AcDbEntity
  8
BLOCKS
 62
    16
100
AcDbHatch
 10
0.0
 20
0.0
 30
0.0
210
0.0
220
0.0
230
1.0
  2
ANSI32
 70
     0
 71
     0
 91
        1
 92
        0
 93
        4
 72
     1
 10
20.00284710159458
 20
26.38969551511265
 11
19.95807548170848
 21
26.38969551511265
 72
     2
 10
20.04035770827806
 20
26.42125149432493
 40
0.0881257319589163
 50
200.9822712637957
 51
339.0177287362059
 73
     1
 72
     1
 10
20.12263993484765
 20
26.38969551511265
 11
20.07973897339712
 21
26.38969551511265
 72
     1
 10
20.07973897339712
 20
26.38969551511265
 11
20.00284710159458
 21
26.38969551511265
 97
        0
 75
     0
 76
     1
 52
0.0
 41
0.2
 77
     0
 78
     2
 53
45.0
 43
0.0
 44
0.0
 45
-0.0530330085889911
 46
0.0530330085889911
 79
     0
 53
45.0
 43
0.035355339
 44
0.0
 45
-0.0530330085889911
 46
0.0530330085889911
 79
     0
 98
        1
 10
0.0
 20
0.0
  0
HATCH
  5
AB
330
7A
100
AcDbEntity
  8
BLOCKS
100
AcDbHatch
 10
0.0
 20
0.0
 30
0.0
210
0.0
220
0.0
230
1.0
  2
SOLID
 70
     1
 71
     0
 91
        1
 92
        0
 93
        5
 72
     2
 10
21.32496680656287
 20
26.30019278664964
 40
0.3686452378780171
 50
189.3138478564999
 51
230.5481283977413
 73
     0
 72
     1
 10
21.0907186249667
 20
26.58484538338648
 11
20.23689444261453
 21
26.58484538338649
 72
     1
 10
20.23689444261453
 20
26.58484538338649
 11
20.29061176430621
 21
26.54808939823214
 72
     1
 10
20.29061176430621
 20
26.54808939823214
 11
20.7316186249667
 21
26.54808939823214
 72
     2
 10
20.7316186249667
 20
26.31398939823214
 40
0.2341000000000018
 50
270.0000000000008
 51
348.7012977589557
 73
     0
 97
        0
 75
     0
 76
     1
 98
        1
 10
0.0
 20
0.0
450
        0
451
        0
460
0.0
461
0.0
452
        0
462
0.0
453
        0
470

  0
INSERT
  5
C2
330
7A
100
AcDbEntity
  8
BLOCKS
100
AcDbBlockReference
  2
SW_BLOCK_DIMENSION_0
 10
20.4071081795
 20
26.145611376
 30
0.0
  0
ENDBLK
  5
7C
330
7A
100
AcDbEntity
  8
0
100
AcDbBlockEnd
  0
BLOCK
  5
AD
330
AC
100
AcDbEntity
  8
0
100
AcDbBlockBegin
  2
SW_BLOCK_DIMENSION_0
 70
     0
 10
0.0
 20
0.0
 30
0.0
  3
SW_BLOCK_DIMENSION_0
  1

  0
SOLID
  5
AF
330
AC
100
AcDbEntity
  8
BLOCKS
 62
     0
100
AcDbTrace
 10
0.5586104454000001
 20
-0.0313006311
 30
0.0
 11
0.4574955366
 21
-0.0157444913
 31
0.0
 12
0.4574955366
 22
-0.0468567709
 32
0.0
 13
0.4574955366
 23
-0.0468567709
 33
0.0
  0
SOLID
  5
B0
330
AC
100
AcDbEntity
  8
BLOCKS
 62
     0
100
AcDbTrace
 10
0.6836104454000001
 20
-0.0313006311
 30
0.0
 11
0.7847253543000001
 21
-0.0468567709
 31
0.0
 12
0.7847253543000001
 22
-0.0157444913
 32
0.0
 13
0.7847253543000001
 23
-0.0157444913
 33
0.0
  0
LINE
  5
B1
330
AC
100
AcDbEntity
  8
BLOCKS
 62
     0
100
AcDbLine
 10
0.1650270144
 20
0.0798201425
 30
0.0
 11
0.2717013988
 21
0.0798201425
 31
0.0
  0
LINE
  5
B2
330
AC
100
AcDbEntity
  8
BLOCKS
 62
     0
100
AcDbLine
 10
0.1080246921
 20
-0.0940224566
 30
0.0
 11
0.0733024703
 21
-0.0940224566
 31
0.0
  0
LINE
  5
B3
330
AC
100
AcDbEntity
  8
BLOCKS
 62
     0
100
AcDbLine
 10
0.0733024703
 20
-0.0940224566
 30
0.0
 11
0.0733024703
 21
-0.249307956
 31
0.0
  0
LINE
  5
B4
330
AC
100
AcDbEntity
  8
BLOCKS
 62
     0
100
AcDbLine
 10
0.0733024703
 20
-0.249307956
 30
0.0
 11
0.1080246921
 21
-0.249307956
 31
0.0
  0
LINE
  5
B5
330
AC
100
AcDbEntity
  8
BLOCKS
 62
     0
100
AcDbLine
 10
0.3780864406
 20
-0.0940224566
 30
0.0
 11
0.4128086624
 21
-0.0940224566
 31
0.0
  0
LINE
  5
B6
330
AC
100
AcDbEntity
  8
BLOCKS
 62
     0
100
AcDbLine
 10
0.4128086624
 20
-0.0940224566
 30
0.0
 11
0.4128086624
 21
-0.249307956
 31
0.0
  0
LINE
  5
B7
330
AC
100
AcDbEntity
  8
BLOCKS
 62
     0
100
AcDbLine
 10
0.4128086624
 20
-0.249307956
 30
0.0
 11
0.3780864406
 21
-0.249307956
 31
0.0
  0
LINE
  5
B8
330
AC
100
AcDbEntity
  8
BLOCKS
 62
     0
100
AcDbLine
 10
0.6836104454000001
 20
0.3892340074
 30
0.0
 11
0.6836104454000001
 21
-0.1563006311
 31
0.0
  0
LINE
  5
B9
330
AC
100
AcDbEntity
  8
BLOCKS
 62
     0
100
AcDbLine
 10
0.5586104454000001
 20
-0.0313006311
 30
0.0
 11
0.4868001405
 21
-0.0313006311
 31
0.0
  0
LINE
  5
BA
330
AC
100
AcDbEntity
  8
BLOCKS
 62
     0
100
AcDbLine
 10
0.6836104454000001
 20
-0.0313006311
 30
0.0
 11
0.8780621931999998
 21
-0.0313006311
 31
0.0
  0
MTEXT
  5
BC
330
AC
100
AcDbEntity
  8
BLOCKS
 62
     0
100
AcDbMText
 10
0.0390625
 20
0.1342778896
 30
0.0
 40
0.1041666667
 41
0.0
 46
0.0
 71
     1
 72
     1
  1

  7
SLDTEXTSTYLE0
 73
     1
 44
1.0
  0
MTEXT
  5
BD
330
AC
100
AcDbEntity
  8
BLOCKS
 62
     0
100
AcDbMText
 10
0.1797839581
 20
0.2052438631
 30
0.0
 40
0.1041666667
 41
0.0
 46
0.0
 71
     1
 72
     1
  1
1
  7
SLDTEXTSTYLE0
 73
     1
 44
1.0
  0
MTEXT
  5
BE
330
AC
100
AcDbEntity
  8
BLOCKS
 62
     0
100
AcDbMText
 10
0.1797839581
 20
0.0634035871
 30
0.0
 40
0.1041666667
 41
0.0
 46
0.0
 71
     1
 72
     1
  1
8
  7
SLDTEXTSTYLE0
 73
     1
 44
1.0
  0
MTEXT
  5
BF
330
AC
100
AcDbEntity
  8
BLOCKS
 62
     0
100
AcDbMText
 10
0.2864583425
 20
0.1342778896
 30
0.0
 40
0.1041666667
 41
0.0
 46
0.0
 71
     1
 72
     1
  1
"
  7
SLDTEXTSTYLE0
 73
     1
 44
1.0
  0
MTEXT
  5
C0
330
AC
100
AcDbEntity
  8
BLOCKS
 62
     0
100
AcDbMText
 10
0.1080246921
 20
-0.1150300596
 30
0.0
 40
0.1041666667
 41
0.0
 46
0.0
 71
     1
 72
     1
  1
3.18
  7
SLDTEXTSTYLE0
 73
     1
 44
1.0
  0
MTEXT
  5
C1
330
AC
100
AcDbEntity
  8
BLOCKS
 62
     0
100
AcDbMText
 10
0.4865933934
 20
0.1342778896
 30
0.0
 40
0.1041666667
 41
0.0
 46
0.0
 71
     1
 72
     1
  1

  7
SLDTEXTSTYLE0
 73
     1
 44
1.0
  0
ENDBLK
  5
AE
330
AC
100
AcDbEntity
  8
0
100
AcDbBlockEnd
  0
BLOCK
  5
C8
330
C7
100
AcDbEntity
  8
0
100
AcDbBlockBegin
  2
SW_NOTE_0
 70
     0
 10
0.0
 20
0.0
 30
0.0
  3
SW_NOTE_0
  1

  0
MTEXT
  5
CA
330
C7
100
AcDbEntity
  8
0
  6
Continuous
 62
     0
370
     0
100
AcDbMText
 10
6.0042317708
 20
0.9399452268999999
 30
0.0
 40
0.7291666667
 41
0.0
 46
0.0
 71
     2
 72
     1
  1
TEMPLATE #: 1000004685
  7
SLDTEXTSTYLE0
 73
     1
 44
1.0
  0
MTEXT
  5
CB
330
C7
100
AcDbEntity
  8
0
  6
Continuous
 62
     0
370
     0
100
AcDbMText
 10
5.996523259199999
 20
-0.0165995549
 30
0.0
 40
0.375
 41
0.0
 46
0.0
 71
     2
 72
     1
  1
DUAL MOUNT TEMPLATE 33" X 22" W/ 5/8" RADIUS
  7
SLDTEXTSTYLE0
 73
     1
 44
1.0
  0
ENDBLK
  5
C9
330
C7
100
AcDbEntity
  8
0
100
AcDbBlockEnd
  0
BLOCK
  5
CE
330
CD
100
AcDbEntity
  8
0
100
AcDbBlockBegin
  2
SW_NOTE_1
 70
     0
 10
0.0
 20
0.0
 30
0.0
  3
SW_NOTE_1
  1

  0
MTEXT
  5
D0
330
CD
100
AcDbEntity
  8
NOTES
 62
     0
100
AcDbMText
 10
-0.8907885631999999
 20
0.6877078703000001
 30
0.0
 40
0.2083333333
 41
0.0
 46
0.0
 71
     2
 72
     1
  1
TEMPLATE
  7
SLDTEXTSTYLE0
 73
     1
 44
1.0
  0
MTEXT
  5
D1
330
CD
100
AcDbEntity
  8
NOTES
 62
     0
100
AcDbMText
 10
-0.8876538929999998
 20
0.4099300959
 30
0.0
 40
0.2083333333
 41
0.0
 46
0.0
 71
     2
 72
     1
  1
CENTERLINE
  7
SLDTEXTSTYLE0
 73
     1
 44
1.0
  0
MTEXT
  5
D2
330
CD
100
AcDbEntity
  8
NOTES
 62
     0
100
AcDbMText
 10
-0.8875333549
 20
-0.145625453
 30
0.0
 40
0.2083333333
 41
0.0
 46
0.0
 71
     2
 72
     1
  1
PLANTILLA
  7
SLDTEXTSTYLE0
 73
     1
 44
1.0
  0
MTEXT
  5
D3
330
CD
100
AcDbEntity
  8
NOTES
 62
     0
100
AcDbMText
 10
-0.8905474204
 20
-0.4234032274000001
 30
0.0
 40
0.2083333333
 41
0.0
 46
0.0
 71
     2
 72
     1
  1
CENTRAL
  7
SLDTEXTSTYLE0
 73
     1
 44
1.0
  0
ENDBLK
  5
CF
330
CD
100
AcDbEntity
  8
0
100
AcDbBlockEnd
  0
BLOCK
  5
D9
330
D8
100
AcDbEntity
  8
0
100
AcDbBlockBegin
  2
SW_NOTE_2
 70
     0
 10
0.0
 20
0.0
 30
0.0
  3
SW_NOTE_2
  1

  0
MTEXT
  5
DB
330
D8
100
AcDbEntity
  8
NOTES
 62
     0
100
AcDbMText
 10
0.0
 20
0.2417002012
 30
0.0
 40
0.1875
 41
0.0
 46
0.0
 71
     1
 72
     1
  1
NOTES:
  7
SLDTEXTSTYLE0
 73
     1
 44
1.0
  0
MTEXT
  5
DC
330
D8
100
AcDbEntity
  8
NOTES
 62
     0
100
AcDbMText
 10
0.3937007786
 20
-0.2582997928
 30
0.0
 40
0.1875
 41
0.0
 46
0.0
 71
     1
 72
     1
  1
THOROUGHLY READ ALL  INSTALLATION INSTRUCTIONS BEFORE CUTTING COUNTERTOP.
  7
SLDTEXTSTYLE0
 73
     1
 44
1.0
  0
MTEXT
  5
DD
330
D8
100
AcDbEntity
  8
NOTES
 62
     0
100
AcDbMText
 10
0.0
 20
-0.2582997928
 30
0.0
 40
0.1875
 41
0.0
 46
0.0
 71
     1
 72
     1
  1
1.
  7
SLDTEXTSTYLE0
 73
     1
 44
1.0
  0
MTEXT
  5
DE
330
D8
100
AcDbEntity
  8
NOTES
 62
     0
100
AcDbMText
 10
0.3937007786
 20
-0.7582997867
 30
0.0
 40
0.1875
 41
0.0
 46
0.0
 71
     1
 72
     1
  1
DIMENSIONS ARE IN INCHES [MM].
  7
SLDTEXTSTYLE0
 73
     1
 44
1.0
  0
MTEXT
  5
DF
330
D8
100
AcDbEntity
  8
NOTES
 62
     0
100
AcDbMText
 10
0.0
 20
-0.7582997867
 30
0.0
 40
0.1875
 41
0.0
 46
0.0
 71
     1
 72
     1
  1
2.
  7
SLDTEXTSTYLE0
 73
     1
 44
1.0
  0
MTEXT
  5
E0
330
D8
100
AcDbEntity
  8
NOTES
 62
     0
100
AcDbMText
 10
0.0
 20
-1.2582997807
 30
0.0
 40
0.1875
 41
0.0
 46
0.0
 71
     1
 72
     1
  1
PLEASE CHECK TEMPLATE AGAINST PHYSICAL SINK FOR MOST ACCURATE CUT.
  7
SLDTEXTSTYLE0
 73
     1
 44
1.0
  0
MTEXT
  5
E1
330
D8
100
AcDbEntity
  8
NOTES
 62
     0
100
AcDbMText
 10
0.0
 20
-1.7582997746
 30
0.0
 40
0.1875
 41
0.0
 46
0.0
 71
     1
 72
     1
  1
NOTAS:
  7
SLDTEXTSTYLE0
 73
     1
 44
1.0
  0
MTEXT
  5
E2
330
D8
100
AcDbEntity
  8
NOTES
 62
     0
100
AcDbMText
 10
0.3937007786
 20
-2.2582997686
 30
0.0
 40
0.1875
 41
0.0
 46
0.0
 71
     1
 72
     1
  1
LEA ATENTAMENTE LAS INSTRUCCIONES DE INSTALACIÓN ANTES DE CORTAR LA ENCIMERA.
  7
SLDTEXTSTYLE0
 73
     1
 44
1.0
  0
MTEXT
  5
E3
330
D8
100
AcDbEntity
  8
NOTES
 62
     0
100
AcDbMText
 10
0.0
 20
-2.2582997686
 30
0.0
 40
0.1875
 41
0.0
 46
0.0
 71
     1
 72
     1
  1
1.
  7
SLDTEXTSTYLE0
 73
     1
 44
1.0
  0
MTEXT
  5
E4
330
D8
100
AcDbEntity
  8
NOTES
 62
     0
100
AcDbMText
 10
0.3937007786
 20
-2.7582997625
 30
0.0
 40
0.1875
 41
0.0
 46
0.0
 71
     1
 72
     1
  1
DIMENSIONES EN PULGADAS [MM].
  7
SLDTEXTSTYLE0
 73
     1
 44
1.0
  0
MTEXT
  5
E5
330
D8
100
AcDbEntity
  8
NOTES
 62
     0
100
AcDbMText
 10
0.0
 20
-2.7582997625
 30
0.0
 40
0.1875
 41
0.0
 46
0.0
 71
     1
 72
     1
  1
2.
  7
SLDTEXTSTYLE0
 73
     1
 44
1.0
  0
MTEXT
  5
E6
330
D8
100
AcDbEntity
  8
NOTES
 62
     0
100
AcDbMText
 10
0.0
 20
-3.258299756499999
 30
0.0
 40
0.1875
 41
0.0
 46
0.0
 71
     1
 72
     1
  1
POR FAVOR COMPRUEBE PLANTILLA CONTRA FREGADERO FÍSICO PARA CORTE MÁS EXACTO.
  7
SLDTEXTSTYLE0
 73
     1
 44
1.0
  0
ENDBLK
  5
DA
330
D8
100
AcDbEntity
  8
0
100
AcDbBlockEnd
  0
BLOCK
  5
10E
330
10D
100
AcDbEntity
  8
0
100
AcDbBlockBegin
  2
_D
 70
     0
 10
0.0
 20
0.0
 30
0.0
  3
_D
  1

  0
SOLID
  5
110
330
10D
100
AcDbEntity
  8
DIMS
440
 16777216
100
AcDbTrace
 10
29.6056650945
 20
22.4619242717
 30
0.0
 11
29.5496629911
 21
22.0979105998
 31
0.0
 12
29.6616671979
 22
22.0979105998
 32
0.0
 13
29.6616671979
 23
22.0979105998
 33
0.0
  0
SOLID
  5
111
330
10D
100
AcDbEntity
  8
DIMS
440
 16777216
100
AcDbTrace
 10
29.6056650945
 20
1.0869242717
 30
0.0
 11
29.6616671979
 21
1.4509379436
 31
0.0
 12
29.5496629911
 22
1.4509379436
 32
0.0
 13
29.5496629911
 23
1.4509379436
 33
0.0
  0
LINE
  5
112
330
10D
100
AcDbEntity
  8
DIMS
440
 16777216
100
AcDbLine
 10
29.6025401223
 20
17.3827728296
 30
0.0
 11
29.986567906
 21
17.3827728296
 31
0.0
  0
LINE
  5
113
330
10D
100
AcDbEntity
  8
DIMS
440
 16777216
100
AcDbLine
 10
28.841776224
 20
16.7569395234
 30
0.0
 11
28.7167762255
 21
16.7569395234
 31
0.0
  0
LINE
  5
114
330
10D
100
AcDbEntity
  8
DIMS
440
 16777216
100
AcDbLine
 10
28.7167762255
 20
16.7569395234
 30
0.0
 11
28.7167762255
 21
16.1979117547
 31
0.0
  0
LINE
  5
115
330
10D
100
AcDbEntity
  8
DIMS
440
 16777216
100
AcDbLine
 10
28.7167762255
 20
16.1979117547
 30
0.0
 11
28.841776224
 21
16.1979117547
 31
0.0
  0
LINE
  5
116
330
10D
100
AcDbEntity
  8
DIMS
440
 16777216
100
AcDbLine
 10
30.3695540017
 20
16.7569395234
 30
0.0
 11
30.4945540002
 21
16.7569395234
 31
0.0
  0
LINE
  5
117
330
10D
100
AcDbEntity
  8
DIMS
440
 16777216
100
AcDbLine
 10
30.4945540002
 20
16.7569395234
 30
0.0
 11
30.4945540002
 21
16.1979117547
 31
0.0
  0
LINE
  5
118
330
10D
100
AcDbEntity
  8
DIMS
440
 16777216
100
AcDbLine
 10
30.4945540002
 20
16.1979117547
 30
0.0
 11
30.3695540017
 21
16.1979117547
 31
0.0
  0
LINE
  5
119
330
10D
100
AcDbEntity
  8
DIMS
440
 16777216
100
AcDbLine
 10
29.6056650945
 20
22.4619242717
 30
0.0
 11
29.6056650945
 21
17.8508978226
 31
0.0
  0
LINE
  5
11A
330
10D
100
AcDbEntity
  8
DIMS
440
 16777216
100
AcDbLine
 10
29.6056650945
 20
1.0869242717
 30
0.0
 11
29.6056650945
 21
15.555550672
 31
0.0
  0
MTEXT
  5
11B
330
10D
100
AcDbEntity
  8
DIMS
440
 16777216
100
AcDbMText
 10
28.9938595688
 20
17.5788207648
 30
0.0
 40
0.375
 41
0.0
 46
0.0
 71
     1
 72
     1
  1
21
  7
SLDTEXTSTYLE0
 73
     1
 44
1.0
  0
MTEXT
  5
11C
330
10D
100
AcDbEntity
  8
DIMS
440
 16777216
100
AcDbMText
 10
29.6556651269
 20
17.8342982402
 30
0.0
 40
0.375
 41
0.0
 46
0.0
 71
     1
 72
     1
  1
3
  7
SLDTEXTSTYLE0
 73
     1
 44
1.0
  0
MTEXT
  5
11D
330
10D
100
AcDbEntity
  8
DIMS
440
 16777216
100
AcDbMText
 10
29.6556651269
 20
17.3236732456
 30
0.0
 40
0.375
 41
0.0
 46
0.0
 71
     1
 72
     1
  1
8
  7
SLDTEXTSTYLE0
 73
     1
 44
1.0
  0
MTEXT
  5
11E
330
10D
100
AcDbEntity
  8
DIMS
440
 16777216
100
AcDbMText
 10
30.0396928739
 20
17.5788207648
 30
0.0
 40
0.375
 41
0.0
 46
0.0
 71
     1
 72
     1
  1
"
  7
SLDTEXTSTYLE0
 73
     1
 44
1.0
  0
MTEXT
  5
11F
330
10D
100
AcDbEntity
  8
DIMS
440
 16777216
100
AcDbMText
 10
28.841776224
 20
16.6813121663
 30
0.0
 40
0.375
 41
0.0
 46
0.0
 71
     1
 72
     1
  1
542.93
  7
SLDTEXTSTYLE0
 73
     1
 44
1.0
  0
MTEXT
  5
120
330
10D
100
AcDbEntity
  8
DIMS
440
 16777216
100
AcDbMText
 10
28.105665076
 20
16.0389510836
 30
0.0
 40
0.375
 41
0.0
 46
0.0
 71
     1
 72
     1
  1
TOP MOUNT
  7
SLDTEXTSTYLE0
 73
     1
 44
1.0
  0
ENDBLK
  5
10F
330
10D
100
AcDbEntity
  8
0
100
AcDbBlockEnd
  0
BLOCK
  5
123
330
122
100
AcDbEntity
  8
0
100
AcDbBlockBegin
  2
_D_1
 70
     0
 10
0.0
 20
0.0
 30
0.0
  3
_D_1
  1

  0
SOLID
  5
125
330
122
100
AcDbEntity
  8
DIMS
440
 16777216
100
AcDbTrace
 10
25.5561415471
 20
18.6494242717
 30
0.0
 11
25.5001394438
 21
18.2854105998
 31
0.0
 12
25.6121436505
 22
18.2854105998
 32
0.0
 13
25.6121436505
 23
18.2854105998
 33
0.0
  0
SOLID
  5
126
330
122
100
AcDbEntity
  8
DIMS
440
 16777216
100
AcDbTrace
 10
25.5561415471
 20
2.1494242717
 30
0.0
 11
25.6121436505
 21
2.5134379436
 31
0.0
 12
25.5001394438
 22
2.5134379436
 32
0.0
 13
25.5001394438
 23
2.5134379436
 33
0.0
  0
LINE
  5
127
330
122
100
AcDbEntity
  8
DIMS
440
 16777216
100
AcDbLine
 10
25.5530165749
 20
14.8403505067
 30
0.0
 11
25.9370443586
 21
14.8403505067
 31
0.0
  0
LINE
  5
128
330
122
100
AcDbEntity
  8
DIMS
440
 16777216
100
AcDbLine
 10
24.7922526766
 20
14.2145172005
 30
0.0
 11
24.6672526781
 21
14.2145172005
 31
0.0
  0
LINE
  5
129
330
122
100
AcDbEntity
  8
DIMS
440
 16777216
100
AcDbLine
 10
24.6672526781
 20
14.2145172005
 30
0.0
 11
24.6672526781
 21
13.6554894318
 31
0.0
  0
LINE
  5
12A
330
122
100
AcDbEntity
  8
DIMS
440
 16777216
100
AcDbLine
 10
24.6672526781
 20
13.6554894318
 30
0.0
 11
24.7922526766
 21
13.6554894318
 31
0.0
  0
LINE
  5
12B
330
122
100
AcDbEntity
  8
DIMS
440
 16777216
100
AcDbLine
 10
26.3200304543
 20
14.2145172005
 30
0.0
 11
26.4450304528
 21
14.2145172005
 31
0.0
  0
LINE
  5
12C
330
122
100
AcDbEntity
  8
DIMS
440
 16777216
100
AcDbLine
 10
26.4450304528
 20
14.2145172005
 30
0.0
 11
26.4450304528
 21
13.6554894318
 31
0.0
  0
LINE
  5
12D
330
122
100
AcDbEntity
  8
DIMS
440
 16777216
100
AcDbLine
 10
26.4450304528
 20
13.6554894318
 30
0.0
 11
26.3200304543
 21
13.6554894318
 31
0.0
  0
LINE
  5
12E
330
122
100
AcDbEntity
  8
DIMS
440
 16777216
100
AcDbLine
 10
25.5561415471
 20
18.6494242717
 30
0.0
 11
25.5561415471
 21
15.3084754997
 31
0.0
  0
LINE
  5
12F
330
122
100
AcDbEntity
  8
DIMS
440
 16777216
100
AcDbLine
 10
25.5561415471
 20
2.1494242717
 30
0.0
 11
25.5561415471
 21
13.0131283491
 31
0.0
  0
MTEXT
  5
130
330
122
100
AcDbEntity
  8
DIMS
440
 16777216
100
AcDbMText
 10
24.9443360214
 20
15.0363984419
 30
0.0
 40
0.375
 41
0.0
 46
0.0
 71
     1
 72
     1
  1
16
  7
SLDTEXTSTYLE0
 73
     1
 44
1.0
  0
MTEXT
  5
131
330
122
100
AcDbEntity
  8
DIMS
440
 16777216
100
AcDbMText
 10
25.6061415795
 20
15.2918759173
 30
0.0
 40
0.375
 41
0.0
 46
0.0
 71
     1
 72
     1
  1
1
  7
SLDTEXTSTYLE0
 73
     1
 44
1.0
  0
MTEXT
  5
132
330
122
100
AcDbEntity
  8
DIMS
440
 16777216
100
AcDbMText
 10
25.6061415795
 20
14.7812509226
 30
0.0
 40
0.375
 41
0.0
 46
0.0
 71
     1
 72
     1
  1
2
  7
SLDTEXTSTYLE0
 73
     1
 44
1.0
  0
MTEXT
  5
133
330
122
100
AcDbEntity
  8
DIMS
440
 16777216
100
AcDbMText
 10
25.9901693265
 20
15.0363984419
 30
0.0
 40
0.375
 41
0.0
 46
0.0
 71
     1
 72
     1
  1
"
  7
SLDTEXTSTYLE0
 73
     1
 44
1.0
  0
MTEXT
  5
134
330
122
100
AcDbEntity
  8
DIMS
440
 16777216
100
AcDbMText
 10
24.7922526766
 20
14.1388898434
 30
0.0
 40
0.375
 41
0.0
 46
0.0
 71
     1
 72
     1
  1
419.10
  7
SLDTEXTSTYLE0
 73
     1
 44
1.0
  0
MTEXT
  5
135
330
122
100
AcDbEntity
  8
DIMS
440
 16777216
100
AcDbMText
 10
23.7505858851
 20
13.4965287606
 30
0.0
 40
0.375
 41
0.0
 46
0.0
 71
     1
 72
     1
  1
UNDERMOUNT
  7
SLDTEXTSTYLE0
 73
     1
 44
1.0
  0
ENDBLK
  5
124
330
122
100
AcDbEntity
  8
0
100
AcDbBlockEnd
  0
BLOCK
  5
138
330
137
100
AcDbEntity
  8
0
100
AcDbBlockBegin
  2
_D_2
 70
     0
 10
0.0
 20
0.0
 30
0.0
  3
_D_2
  1

  0
SOLID
  5
13A
330
137
100
AcDbEntity
  8
DIMS
440
 16777216
100
AcDbTrace
 10
32.0319248775
 20
6.542781753599999
 30
0.0
 11
31.6679112057
 21
6.598783857
 31
0.0
 12
31.6679112057
 22
6.486779650299999
 32
0.0
 13
31.6679112057
 23
6.486779650299999
 33
0.0
  0
SOLID
  5
13B
330
137
100
AcDbEntity
  8
DIMS
440
 16777216
100
AcDbTrace
 10
1.7819248775
 20
6.542781753599999
 30
0.0
 11
2.145938549399999
 21
6.486779650299999
 31
0.0
 12
2.145938549399999
 22
6.598783857
 32
0.0
 13
2.145938549399999
 23
6.598783857
 33
0.0
  0
LINE
  5
13C
330
137
100
AcDbEntity
  8
DIMS
440
 16777216
100
AcDbLine
 10
19.8794187614
 20
7.2223303359
 30
0.0
 11
20.2634465451
 21
7.2223303359
 31
0.0
  0
LINE
  5
13D
330
137
100
AcDbEntity
  8
DIMS
440
 16777216
100
AcDbLine
 10
19.1186548631
 20
6.5964970298
 30
0.0
 11
18.9936548646
 21
6.5964970298
 31
0.0
  0
LINE
  5
13E
330
137
100
AcDbEntity
  8
DIMS
440
 16777216
100
AcDbLine
 10
18.9936548646
 20
6.5964970298
 30
0.0
 11
18.9936548646
 21
6.037469261
 31
0.0
  0
LINE
  5
13F
330
137
100
AcDbEntity
  8
DIMS
440
 16777216
100
AcDbLine
 10
18.9936548646
 20
6.037469261
 30
0.0
 11
19.1186548631
 21
6.037469261
 31
0.0
  0
LINE
  5
140
330
137
100
AcDbEntity
  8
DIMS
440
 16777216
100
AcDbLine
 10
20.6464326408
 20
6.5964970298
 30
0.0
 11
20.7714326393
 21
6.5964970298
 31
0.0
  0
LINE
  5
141
330
137
100
AcDbEntity
  8
DIMS
440
 16777216
100
AcDbLine
 10
20.7714326393
 20
6.5964970298
 30
0.0
 11
20.7714326393
 21
6.037469261
 31
0.0
  0
LINE
  5
142
330
137
100
AcDbEntity
  8
DIMS
440
 16777216
100
AcDbLine
 10
20.7714326393
 20
6.037469261
 30
0.0
 11
20.6464326408
 21
6.037469261
 31
0.0
  0
LINE
  5
143
330
137
100
AcDbEntity
  8
DIMS
440
 16777216
100
AcDbLine
 10
32.0319248775
 20
6.542781753599999
 30
0.0
 11
21.7713686852
 21
6.542781753599999
 31
0.0
  0
LINE
  5
144
330
137
100
AcDbEntity
  8
DIMS
440
 16777216
100
AcDbLine
 10
1.7819248775
 20
6.542781753599999
 30
0.0
 11
17.9937187821
 21
6.542781753599999
 31
0.0
  0
MTEXT
  5
145
330
137
100
AcDbEntity
  8
DIMS
440
 16777216
100
AcDbMText
 10
19.2707382079
 20
7.418378271199999
 30
0.0
 40
0.375
 41
0.0
 46
0.0
 71
     1
 72
     1
  1
30
  7
SLDTEXTSTYLE0
 73
     1
 44
1.0
  0
MTEXT
  5
146
330
137
100
AcDbEntity
  8
DIMS
440
 16777216
100
AcDbMText
 10
19.932543766
 20
7.673855746599999
 30
0.0
 40
0.375
 41
0.0
 46
0.0
 71
     1
 72
     1
  1
1
  7
SLDTEXTSTYLE0
 73
     1
 44
1.0
  0
MTEXT
  5
147
330
137
100
AcDbEntity
  8
DIMS
440
 16777216
100
AcDbMText
 10
19.932543766
 20
7.1632307519
 30
0.0
 40
0.375
 41
0.0
 46
0.0
 71
     1
 72
     1
  1
4
  7
SLDTEXTSTYLE0
 73
     1
 44
1.0
  0
MTEXT
  5
148
330
137
100
AcDbEntity
  8
DIMS
440
 16777216
100
AcDbMText
 10
20.316571513
 20
7.418378271199999
 30
0.0
 40
0.375
 41
0.0
 46
0.0
 71
     1
 72
     1
  1
"
  7
SLDTEXTSTYLE0
 73
     1
 44
1.0
  0
MTEXT
  5
149
330
137
100
AcDbEntity
  8
DIMS
440
 16777216
100
AcDbMText
 10
19.1186548631
 20
6.520869672599999
 30
0.0
 40
0.375
 41
0.0
 46
0.0
 71
     1
 72
     1
  1
768.35
  7
SLDTEXTSTYLE0
 73
     1
 44
1.0
  0
MTEXT
  5
14A
330
137
100
AcDbEntity
  8
DIMS
440
 16777216
100
AcDbMText
 10
18.0769880715
 20
5.8785085899
 30
0.0
 40
0.375
 41
0.0
 46
0.0
 71
     1
 72
     1
  1
UNDERMOUNT
  7
SLDTEXTSTYLE0
 73
     1
 44
1.0
  0
ENDBLK
  5
139
330
137
100
AcDbEntity
  8
0
100
AcDbBlockEnd
  0
BLOCK
  5
14D
330
14C
100
AcDbEntity
  8
0
100
AcDbBlockBegin
  2
_D_3
 70
     0
 10
0.0
 20
0.0
 30
0.0
  3
_D_3
  1

  0
SOLID
  5
14F
330
14C
100
AcDbEntity
  8
DIMS
440
 16777216
100
AcDbTrace
 10
0.7194248775
 20
8.517426938999999
 30
0.0
 11
1.0834385494
 21
8.461424835599999
 31
0.0
 12
1.0834385494
 22
8.5734290424
 32
0.0
 13
1.0834385494
 23
8.5734290424
 33
0.0
  0
SOLID
  5
150
330
14C
100
AcDbEntity
  8
DIMS
440
 16777216
100
AcDbTrace
 10
33.09442487750001
 20
8.517426938999999
 30
0.0
 11
32.7304112057
 21
8.5734290424
 31
0.0
 12
32.7304112057
 22
8.461424835599999
 32
0.0
 13
32.7304112057
 23
8.461424835599999
 33
0.0
  0
LINE
  5
151
330
14C
100
AcDbEntity
  8
DIMS
440
 16777216
100
AcDbLine
 10
8.755788990900001
 20
9.1969755213
 30
0.0
 11
9.139816774599999
 21
9.1969755213
 31
0.0
  0
LINE
  5
152
330
14C
100
AcDbEntity
  8
DIMS
440
 16777216
100
AcDbLine
 10
7.995025092599999
 20
8.5711422151
 30
0.0
 11
7.870025094099999
 21
8.5711422151
 31
0.0
  0
LINE
  5
153
330
14C
100
AcDbEntity
  8
DIMS
440
 16777216
100
AcDbLine
 10
7.870025094099999
 20
8.5711422151
 30
0.0
 11
7.870025094099999
 21
8.0121144464
 31
0.0
  0
LINE
  5
154
330
14C
100
AcDbEntity
  8
DIMS
440
 16777216
100
AcDbLine
 10
7.870025094099999
 20
8.0121144464
 30
0.0
 11
7.995025092599999
 21
8.0121144464
 31
0.0
  0
LINE
  5
155
330
14C
100
AcDbEntity
  8
DIMS
440
 16777216
100
AcDbLine
 10
9.522802870299999
 20
8.5711422151
 30
0.0
 11
9.647802868799999
 21
8.5711422151
 31
0.0
  0
LINE
  5
156
330
14C
100
AcDbEntity
  8
DIMS
440
 16777216
100
AcDbLine
 10
9.647802868799999
 20
8.5711422151
 30
0.0
 11
9.647802868799999
 21
8.0121144464
 31
0.0
  0
LINE
  5
157
330
14C
100
AcDbEntity
  8
DIMS
440
 16777216
100
AcDbLine
 10
9.647802868799999
 20
8.0121144464
 30
0.0
 11
9.522802870299999
 21
8.0121144464
 31
0.0
  0
LINE
  5
158
330
14C
100
AcDbEntity
  8
DIMS
440
 16777216
100
AcDbLine
 10
0.7194248775
 20
8.517426938999999
 30
0.0
 11
7.1756446551
 21
8.517426938999999
 31
0.0
  0
LINE
  5
159
330
14C
100
AcDbEntity
  8
DIMS
440
 16777216
100
AcDbLine
 10
33.09442487750001
 20
8.517426938999999
 30
0.0
 11
10.3421832711
 21
8.517426938999999
 31
0.0
  0
MTEXT
  5
15A
330
14C
100
AcDbEntity
  8
DIMS
440
 16777216
100
AcDbMText
 10
8.1471084374
 20
9.393023456599999
 30
0.0
 40
0.375
 41
0.0
 46
0.0
 71
     1
 72
     1
  1
32
  7
SLDTEXTSTYLE0
 73
     1
 44
1.0
  0
MTEXT
  5
15B
330
14C
100
AcDbEntity
  8
DIMS
440
 16777216
100
AcDbMText
 10
8.808913995499999
 20
9.648500931900001
 30
0.0
 40
0.375
 41
0.0
 46
0.0
 71
     1
 72
     1
  1
3
  7
SLDTEXTSTYLE0
 73
     1
 44
1.0
  0
MTEXT
  5
15C
330
14C
100
AcDbEntity
  8
DIMS
440
 16777216
100
AcDbMText
 10
8.808913995499999
 20
9.1378759373
 30
0.0
 40
0.375
 41
0.0
 46
0.0
 71
     1
 72
     1
  1
8
  7
SLDTEXTSTYLE0
 73
     1
 44
1.0
  0
MTEXT
  5
15D
330
14C
100
AcDbEntity
  8
DIMS
440
 16777216
100
AcDbMText
 10
9.1929417425
 20
9.393023456599999
 30
0.0
 40
0.375
 41
0.0
 46
0.0
 71
     1
 72
     1
  1
"
  7
SLDTEXTSTYLE0
 73
     1
 44
1.0
  0
MTEXT
  5
15E
330
14C
100
AcDbEntity
  8
DIMS
440
 16777216
100
AcDbMText
 10
7.995025092599999
 20
8.495514857999999
 30
0.0
 40
0.375
 41
0.0
 46
0.0
 71
     1
 72
     1
  1
822.33
  7
SLDTEXTSTYLE0
 73
     1
 44
1.0
  0
MTEXT
  5
15F
330
14C
100
AcDbEntity
  8
DIMS
440
 16777216
100
AcDbMText
 10
7.2589139446
 20
7.8531537753
 30
0.0
 40
0.375
 41
0.0
 46
0.0
 71
     1
 72
     1
  1
TOP MOUNT
  7
SLDTEXTSTYLE0
 73
     1
 44
1.0
  0
ENDBLK
  5
14E
330
14C
100
AcDbEntity
  8
0
100
AcDbBlockEnd
  0
BLOCK
  5
163
330
162
100
AcDbEntity
  8
0
100
AcDbBlockBegin
  2
_D_4
 70
     0
 10
0.0
 20
0.0
 30
0.0
  3
_D_4
  1

  0
SOLID
  5
165
330
162
100
AcDbEntity
  8
DIMS
440
 16777216
100
AcDbTrace
 10
1.919218573899999
 20
18.5121305754
 30
0.0
 11
2.137015642599999
 21
18.2151345725
 31
0.0
 12
2.216214576699999
 22
18.2943335066
 32
0.0
 13
2.216214576699999
 23
18.2943335066
 33
0.0
  0
LINE
  5
166
330
162
100
AcDbEntity
  8
DIMS
440
 16777216
100
AcDbLine
 10
4.333848429599999
 20
17.5221881038
 30
0.0
 11
4.717876213299999
 21
17.5221881038
 31
0.0
  0
LINE
  5
167
330
162
100
AcDbEntity
  8
DIMS
440
 16777216
100
AcDbLine
 10
3.8091957404
 20
16.8963547976
 30
0.0
 11
3.684195741899999
 21
16.8963547976
 31
0.0
  0
LINE
  5
168
330
162
100
AcDbEntity
  8
DIMS
440
 16777216
100
AcDbLine
 10
3.684195741899999
 20
16.8963547976
 30
0.0
 11
3.684195741899999
 21
16.3373270289
 31
0.0
  0
LINE
  5
169
330
162
100
AcDbEntity
  8
DIMS
440
 16777216
100
AcDbLine
 10
3.684195741899999
 20
16.3373270289
 30
0.0
 11
3.8091957404
 21
16.3373270289
 31
0.0
  0
LINE
  5
16A
330
162
100
AcDbEntity
  8
DIMS
440
 16777216
100
AcDbLine
 10
5.059195633599999
 20
16.8963547976
 30
0.0
 11
5.184195632099999
 21
16.8963547976
 31
0.0
  0
LINE
  5
16B
330
162
100
AcDbEntity
  8
DIMS
440
 16777216
100
AcDbLine
 10
5.184195632099999
 20
16.8963547976
 30
0.0
 11
5.184195632099999
 21
16.3373270289
 31
0.0
  0
LINE
  5
16C
330
162
100
AcDbEntity
  8
DIMS
440
 16777216
100
AcDbLine
 10
5.184195632099999
 20
16.3373270289
 30
0.0
 11
5.059195633599999
 21
16.3373270289
 31
0.0
  0
LINE
  5
16D
330
162
100
AcDbEntity
  8
DIMS
440
 16777216
100
AcDbLine
 10
1.919218573899999
 20
18.5121305754
 30
0.0
 11
3.309195743399999
 21
17.1221534058
 31
0.0
  0
LINE
  5
16E
330
162
100
AcDbEntity
  8
DIMS
440
 16777216
100
AcDbLine
 10
3.309195743399999
 20
17.1221534058
 30
0.0
 11
3.559195743399999
 21
17.1221534058
 31
0.0
  0
MTEXT
  5
16F
330
162
100
AcDbEntity
  8
DIMS
440
 16777216
100
AcDbMText
 10
3.9196122999
 20
17.718236039
 30
0.0
 40
0.375
 41
0.0
 46
0.0
 71
     1
 72
     1
  1
R
  7
SLDTEXTSTYLE0
 73
     1
 44
1.0
  0
MTEXT
  5
170
330
162
100
AcDbEntity
  8
DIMS
440
 16777216
100
AcDbMText
 10
4.386973434199999
 20
17.9737135144
 30
0.0
 40
0.375
 41
0.0
 46
0.0
 71
     1
 72
     1
  1
1
  7
SLDTEXTSTYLE0
 73
     1
 44
1.0
  0
MTEXT
  5
171
330
162
100
AcDbEntity
  8
DIMS
440
 16777216
100
AcDbMText
 10
4.386973434199999
 20
17.4630885197
 30
0.0
 40
0.375
 41
0.0
 46
0.0
 71
     1
 72
     1
  1
2
  7
SLDTEXTSTYLE0
 73
     1
 44
1.0
  0
MTEXT
  5
172
330
162
100
AcDbEntity
  8
DIMS
440
 16777216
100
AcDbMText
 10
4.7710012179
 20
17.718236039
 30
0.0
 40
0.375
 41
0.0
 46
0.0
 71
     1
 72
     1
  1
"
  7
SLDTEXTSTYLE0
 73
     1
 44
1.0
  0
MTEXT
  5
173
330
162
100
AcDbEntity
  8
DIMS
440
 16777216
100
AcDbMText
 10
3.8091957404
 20
16.8207274405
 30
0.0
 40
0.375
 41
0.0
 46
0.0
 71
     1
 72
     1
  1
11.91
  7
SLDTEXTSTYLE0
 73
     1
 44
1.0
  0
ENDBLK
  5
164
330
162
100
AcDbEntity
  8
0
100
AcDbBlockEnd
  0
BLOCK
  5
177
330
176
100
AcDbEntity
  8
0
100
AcDbBlockBegin
  2
_D_5
 70
     0
 10
0.0
 20
0.0
 30
0.0
  3
_D_5
  1

  0
SOLID
  5
179
330
176
100
AcDbEntity
  8
DIMS
440
 16777216
100
AcDbTrace
 10
19.0344691186
 20
20.1650492717
 30
0.0
 11
18.6912229797
 21
20.03154168
 31
0.0
 12
18.7472250831
 22
19.9345431916
 32
0.0
 13
18.7472250831
 23
19.9345431916
 33
0.0
  0
LINE
  5
17A
330
176
100
AcDbEntity
  8
DIMS
440
 16777216
100
AcDbLine
 10
11.3022064337
 20
17.3827728296
 30
0.0
 11
11.9640119918
 21
17.3827728296
 31
0.0
  0
LINE
  5
17B
330
176
100
AcDbEntity
  8
DIMS
440
 16777216
100
AcDbLine
 10
10.6925711096
 20
16.7569395234
 30
0.0
 11
10.5675711111
 21
16.7569395234
 31
0.0
  0
LINE
  5
17C
330
176
100
AcDbEntity
  8
DIMS
440
 16777216
100
AcDbLine
 10
10.5675711111
 20
16.7569395234
 30
0.0
 11
10.5675711111
 21
16.1979117547
 31
0.0
  0
LINE
  5
17D
330
176
100
AcDbEntity
  8
DIMS
440
 16777216
100
AcDbLine
 10
10.5675711111
 20
16.1979117547
 30
0.0
 11
10.6925711096
 21
16.1979117547
 31
0.0
  0
LINE
  5
17E
330
176
100
AcDbEntity
  8
DIMS
440
 16777216
100
AcDbLine
 10
11.9425710029
 20
16.7569395234
 30
0.0
 11
12.0675710013
 21
16.7569395234
 31
0.0
  0
LINE
  5
17F
330
176
100
AcDbEntity
  8
DIMS
440
 16777216
100
AcDbLine
 10
12.0675710013
 20
16.7569395234
 30
0.0
 11
12.0675710013
 21
16.1979117547
 31
0.0
  0
LINE
  5
180
330
176
100
AcDbEntity
  8
DIMS
440
 16777216
100
AcDbLine
 10
12.0675710013
 20
16.1979117547
 30
0.0
 11
11.9425710029
 21
16.1979117547
 31
0.0
  0
LINE
  5
181
330
176
100
AcDbEntity
  8
DIMS
440
 16777216
100
AcDbLine
 10
19.0344691186
 20
20.1650492717
 30
0.0
 11
12.4761648161
 21
16.3786105172
 31
0.0
  0
LINE
  5
182
330
176
100
AcDbEntity
  8
DIMS
440
 16777216
100
AcDbLine
 10
12.4761648161
 20
16.3786105172
 30
0.0
 11
12.2574148161
 21
16.3786105172
 31
0.0
  0
MTEXT
  5
183
330
176
100
AcDbEntity
  8
DIMS
440
 16777216
100
AcDbMText
 10
10.4402272597
 20
17.5788207648
 30
0.0
 40
0.375
 41
0.0
 46
0.0
 71
     1
 72
     1
  1
%%c
  7
SLDTEXTSTYLE0
 73
     1
 44
1.0
  0
MTEXT
  5
184
330
176
100
AcDbEntity
  8
DIMS
440
 16777216
100
AcDbMText
 10
10.9713036547
 20
17.5788207648
 30
0.0
 40
0.375
 41
0.0
 46
0.0
 71
     1
 72
     1
  1
1
  7
SLDTEXTSTYLE0
 73
     1
 44
1.0
  0
MTEXT
  5
185
330
176
100
AcDbEntity
  8
DIMS
440
 16777216
100
AcDbMText
 10
11.4942203256
 20
17.8342982402
 30
0.0
 40
0.375
 41
0.0
 46
0.0
 71
     1
 72
     1
  1
7
  7
SLDTEXTSTYLE0
 73
     1
 44
1.0
  0
MTEXT
  5
186
330
176
100
AcDbEntity
  8
DIMS
440
 16777216
100
AcDbMText
 10
11.3553314384
 20
17.3236732456
 30
0.0
 40
0.375
 41
0.0
 46
0.0
 71
     1
 72
     1
  1
16
  7
SLDTEXTSTYLE0
 73
     1
 44
1.0
  0
MTEXT
  5
187
330
176
100
AcDbEntity
  8
DIMS
440
 16777216
100
AcDbMText
 10
12.0171370698
 20
17.5788207648
 30
0.0
 40
0.375
 41
0.0
 46
0.0
 71
     1
 72
     1
  1
"
  7
SLDTEXTSTYLE0
 73
     1
 44
1.0
  0
MTEXT
  5
188
330
176
100
AcDbEntity
  8
DIMS
440
 16777216
100
AcDbMText
 10
10.6925711096
 20
16.6813121663
 30
0.0
 40
0.375
 41
0.0
 46
0.0
 71
     1
 72
     1
  1
36.51
  7
SLDTEXTSTYLE0
 73
     1
 44
1.0
  0
MTEXT
  5
189
330
176
100
AcDbEntity
  8
DIMS
440
 16777216
100
AcDbMText
 10
10.8314599235
 20
16.0389510836
 30
0.0
 40
0.375
 41
0.0
 46
0.0
 71
     1
 72
     1
  1
TYP
  7
SLDTEXTSTYLE0
 73
     1
 44
1.0
  0
ENDBLK
  5
178
330
176
100
AcDbEntity
  8
0
100
AcDbBlockEnd
  0
BLOCK
  5
18C
330
18B
100
AcDbEntity
  8
0
100
AcDbBlockBegin
  2
_D_6
 70
     0
 10
0.0
 20
0.0
 30
0.0
  3
_D_6
  1

  0
SOLID
  5
18E
330
18B
100
AcDbEntity
  8
DIMS
440
 16777216
100
AcDbTrace
 10
16.9069248775
 20
17.05332992609999
 30
0.0
 11
17.2709385494
 21
16.9973278227
 31
0.0
 12
17.2709385494
 22
17.1093320295
 32
0.0
 13
17.2709385494
 23
17.1093320295
 33
0.0
  0
SOLID
  5
18F
330
18B
100
AcDbEntity
  8
DIMS
440
 16777216
100
AcDbTrace
 10
19.6569248775
 20
17.05332992609999
 30
0.0
 11
19.2929112057
 21
17.1093320295
 31
0.0
 12
19.2929112057
 22
16.9973278227
 32
0.0
 13
19.2929112057
 23
16.9973278227
 33
0.0
  0
LINE
  5
190
330
18B
100
AcDbEntity
  8
DIMS
440
 16777216
100
AcDbLine
 10
20.8888523393
 20
18.0123923928
 30
0.0
 11
21.272880123
 21
18.0123923928
 31
0.0
  0
LINE
  5
191
330
18B
100
AcDbEntity
  8
DIMS
440
 16777216
100
AcDbLine
 10
20.8079495572
 20
17.3865590866
 30
0.0
 11
20.6829495587
 21
17.3865590866
 31
0.0
  0
LINE
  5
192
330
18B
100
AcDbEntity
  8
DIMS
440
 16777216
100
AcDbLine
 10
20.6829495587
 20
17.3865590866
 30
0.0
 11
20.6829495587
 21
16.8275313179
 31
0.0
  0
LINE
  5
193
330
18B
100
AcDbEntity
  8
DIMS
440
 16777216
100
AcDbLine
 10
20.6829495587
 20
16.8275313179
 30
0.0
 11
20.8079495572
 21
16.8275313179
 31
0.0
  0
LINE
  5
194
330
18B
100
AcDbEntity
  8
DIMS
440
 16777216
100
AcDbLine
 10
22.0579494504
 20
17.3865590866
 30
0.0
 11
22.1829494489
 21
17.3865590866
 31
0.0
  0
LINE
  5
195
330
18B
100
AcDbEntity
  8
DIMS
440
 16777216
100
AcDbLine
 10
22.1829494489
 20
17.3865590866
 30
0.0
 11
22.1829494489
 21
16.8275313179
 31
0.0
  0
LINE
  5
196
330
18B
100
AcDbEntity
  8
DIMS
440
 16777216
100
AcDbLine
 10
22.1829494489
 20
16.8275313179
 30
0.0
 11
22.0579494504
 21
16.8275313179
 31
0.0
  0
LINE
  5
197
330
18B
100
AcDbEntity
  8
DIMS
440
 16777216
100
AcDbLine
 10
16.9069248775
 20
18.5994242717
 30
0.0
 11
16.9069248775
 21
16.9283299261
 31
0.0
  0
LINE
  5
198
330
18B
100
AcDbEntity
  8
DIMS
440
 16777216
100
AcDbLine
 10
19.6569248775
 20
19.6525647448
 30
0.0
 11
19.6569248775
 21
16.9283299261
 31
0.0
  0
LINE
  5
199
330
18B
100
AcDbEntity
  8
DIMS
440
 16777216
100
AcDbLine
 10
16.9069248775
 20
17.05332992609999
 30
0.0
 11
19.6569248775
 21
17.05332992609999
 31
0.0
  0
LINE
  5
19A
330
18B
100
AcDbEntity
  8
DIMS
440
 16777216
100
AcDbLine
 10
19.6569248775
 20
17.05332992609999
 30
0.0
 11
20.4746802708
 21
17.05332992609999
 31
0.0
  0
MTEXT
  5
19B
330
18B
100
AcDbEntity
  8
DIMS
440
 16777216
100
AcDbMText
 10
20.5579495602
 20
18.208440328
 30
0.0
 40
0.375
 41
0.0
 46
0.0
 71
     1
 72
     1
  1
2
  7
SLDTEXTSTYLE0
 73
     1
 44
1.0
  0
MTEXT
  5
19C
330
18B
100
AcDbEntity
  8
DIMS
440
 16777216
100
AcDbMText
 10
20.9419773439
 20
18.4639178034
 30
0.0
 40
0.375
 41
0.0
 46
0.0
 71
     1
 72
     1
  1
3
  7
SLDTEXTSTYLE0
 73
     1
 44
1.0
  0
MTEXT
  5
19D
330
18B
100
AcDbEntity
  8
DIMS
440
 16777216
100
AcDbMText
 10
20.9419773439
 20
17.9532928088
 30
0.0
 40
0.375
 41
0.0
 46
0.0
 71
     1
 72
     1
  1
4
  7
SLDTEXTSTYLE0
 73
     1
 44
1.0
  0
MTEXT
  5
19E
330
18B
100
AcDbEntity
  8
DIMS
440
 16777216
100
AcDbMText
 10
21.3260051276
 20
18.208440328
 30
0.0
 40
0.375
 41
0.0
 46
0.0
 71
     1
 72
     1
  1
"
  7
SLDTEXTSTYLE0
 73
     1
 44
1.0
  0
MTEXT
  5
19F
330
18B
100
AcDbEntity
  8
DIMS
440
 16777216
100
AcDbMText
 10
20.8079495572
 20
17.3109317295
 30
0.0
 40
0.375
 41
0.0
 46
0.0
 71
     1
 72
     1
  1
69.85
  7
SLDTEXTSTYLE0
 73
     1
 44
1.0
  0
MTEXT
  5
1A0
330
18B
100
AcDbEntity
  8
DIMS
440
 16777216
100
AcDbMText
 10
20.5579495602
 20
16.6685706467
 30
0.0
 40
0.375
 41
0.0
 46
0.0
 71
     1
 72
     1
  1
OFF TEMPLATE
  7
SLDTEXTSTYLE0
 73
     1
 44
1.0
  0
MTEXT
  5
1A1
330
18B
100
AcDbEntity
  8
DIMS
440
 16777216
100
AcDbMText
 10
20.5579495602
 20
16.109542878
 30
0.0
 40
0.375
 41
0.0
 46
0.0
 71
     1
 72
     1
  1
CENTERLINE
  7
SLDTEXTSTYLE0
 73
     1
 44
1.0
  0
ENDBLK
  5
18D
330
18B
100
AcDbEntity
  8
0
100
AcDbBlockEnd
  0
BLOCK
  5
1A4
330
1A3
100
AcDbEntity
  8
0
100
AcDbBlockBegin
  2
_D_7
 70
     0
 10
0.0
 20
0.0
 30
0.0
  3
_D_7
  1

  0
SOLID
  5
1A6
330
1A3
100
AcDbEntity
  8
DIMS
440
 16777216
100
AcDbTrace
 10
0.8109540083999998
 20
22.3703951408
 30
0.0
 11
1.028751077199999
 21
22.073399138
 31
0.0
 12
1.1079500113
 22
22.1525980721
 32
0.0
 13
1.1079500113
 23
22.1525980721
 33
0.0
  0
LINE
  5
1A7
330
1A3
100
AcDbEntity
  8
DIMS
440
 16777216
100
AcDbLine
 10
3.2700422194
 20
21.0582165761
 30
0.0
 11
3.931847777499999
 21
21.0582165761
 31
0.0
  0
LINE
  5
1A8
330
1A3
100
AcDbEntity
  8
DIMS
440
 16777216
100
AcDbLine
 10
3.023167267999999
 20
20.43238327
 30
0.0
 11
2.8981672695
 21
20.43238327
 31
0.0
  0
LINE
  5
1A9
330
1A3
100
AcDbEntity
  8
DIMS
440
 16777216
100
AcDbLine
 10
2.8981672695
 20
20.43238327
 30
0.0
 11
2.8981672695
 21
19.8733555013
 31
0.0
  0
LINE
  5
1AA
330
1A3
100
AcDbEntity
  8
DIMS
440
 16777216
100
AcDbLine
 10
2.8981672695
 20
19.8733555013
 30
0.0
 11
3.023167267999999
 21
19.8733555013
 31
0.0
  0
LINE
  5
1AB
330
1A3
100
AcDbEntity
  8
DIMS
440
 16777216
100
AcDbLine
 10
3.9953894235
 20
20.43238327
 30
0.0
 11
4.120389421999999
 21
20.43238327
 31
0.0
  0
LINE
  5
1AC
330
1A3
100
AcDbEntity
  8
DIMS
440
 16777216
100
AcDbLine
 10
4.120389421999999
 20
20.43238327
 30
0.0
 11
4.120389421999999
 21
19.8733555013
 31
0.0
  0
LINE
  5
1AD
330
1A3
100
AcDbEntity
  8
DIMS
440
 16777216
100
AcDbLine
 10
4.120389421999999
 20
19.8733555013
 30
0.0
 11
3.9953894235
 21
19.8733555013
 31
0.0
  0
LINE
  5
1AE
330
1A3
100
AcDbEntity
  8
DIMS
440
 16777216
100
AcDbLine
 10
0.8109540083999998
 20
22.3703951408
 30
0.0
 11
2.5231672711
 21
20.6581818782
 31
0.0
  0
LINE
  5
1AF
330
1A3
100
AcDbEntity
  8
DIMS
440
 16777216
100
AcDbLine
 10
2.5231672711
 20
20.6581818782
 30
0.0
 11
2.7731672711
 21
20.6581818782
 31
0.0
  0
MTEXT
  5
1B0
330
1A3
100
AcDbEntity
  8
DIMS
440
 16777216
100
AcDbMText
 10
2.8558060897
 20
21.2542645114
 30
0.0
 40
0.375
 41
0.0
 46
0.0
 71
     1
 72
     1
  1
R
  7
SLDTEXTSTYLE0
 73
     1
 44
1.0
  0
MTEXT
  5
1B1
330
1A3
100
AcDbEntity
  8
DIMS
440
 16777216
100
AcDbMText
 10
3.462056111299999
 20
21.5097419868
 30
0.0
 40
0.375
 41
0.0
 46
0.0
 71
     1
 72
     1
  1
5
  7
SLDTEXTSTYLE0
 73
     1
 44
1.0
  0
MTEXT
  5
1B2
330
1A3
100
AcDbEntity
  8
DIMS
440
 16777216
100
AcDbMText
 10
3.3231672241
 20
20.9991169921
 30
0.0
 40
0.375
 41
0.0
 46
0.0
 71
     1
 72
     1
  1
16
  7
SLDTEXTSTYLE0
 73
     1
 44
1.0
  0
MTEXT
  5
1B3
330
1A3
100
AcDbEntity
  8
DIMS
440
 16777216
100
AcDbMText
 10
3.984972818799999
 20
21.2542645114
 30
0.0
 40
0.375
 41
0.0
 46
0.0
 71
     1
 72
     1
  1
"
  7
SLDTEXTSTYLE0
 73
     1
 44
1.0
  0
MTEXT
  5
1B4
330
1A3
100
AcDbEntity
  8
DIMS
440
 16777216
100
AcDbMText
 10
3.023167267999999
 20
20.3567559128
 30
0.0
 40
0.375
 41
0.0
 46
0.0
 71
     1
 72
     1
  1
7.94
  7
SLDTEXTSTYLE0
 73
     1
 44
1.0
  0
ENDBLK
  5
1A5
330
1A3
100
AcDbEntity
  8
0
100
AcDbBlockEnd
  0
BLOCK
  5
1B6
330
1B5
100
AcDbEntity
  8
0
100
AcDbBlockBegin
  2
SW_NOTE_3
 70
     0
 10
0.0
 20
0.0
 30
0.0
  3
SW_NOTE_3
  1

  0
MTEXT
  5
1B8
330
1B5
100
AcDbEntity
  8
NOTES
 62
     0
100
AcDbMText
 10
0.0
 20
0.2685557791
 30
0.0
 40
0.2083333333
 41
0.0
 46
0.0
 71
     1
 72
     1
  1
REFER TO SINK BEING INSTALLED FOR CORRECT HOLE NUMBER
  7
SLDTEXTSTYLE0
 73
     1
 44
1.0
  0
MTEXT
  5
1B9
330
1B5
100
AcDbEntity
  8
NOTES
 62
     0
100
AcDbMText
 10
0.0
 20
-0.0485920805
 30
0.0
 40
0.2083333333
 41
0.0
 46
0.0
 71
     1
 72
     1
  1
AND LOCATIONS,THEN USE THIS DIAGRAM TO DETERMINE
  7
SLDTEXTSTYLE0
 73
     1
 44
1.0
  0
MTEXT
  5
1BA
330
1B5
100
AcDbEntity
  8
NOTES
 62
     0
100
AcDbMText
 10
0.0
 20
-0.3657399401
 30
0.0
 40
0.2083333333
 41
0.0
 46
0.0
 71
     1
 72
     1
  1
WHERE TO DRILL 1-7/16" HOLES.
  7
SLDTEXTSTYLE0
 73
     1
 44
1.0
  0
MTEXT
  5
1BB
330
1B5
100
AcDbEntity
  8
NOTES
 62
     0
100
AcDbMText
 10
0.0
 20
-1.0000356593
 30
0.0
 40
0.2083333333
 41
0.0
 46
0.0
 71
     1
 72
     1
  1
CONSULTE EL FREGADERO QUE ESTÁ INSTALADO PARA EL
  7
SLDTEXTSTYLE0
 73
     1
 44
1.0
  0
MTEXT
  5
1BC
330
1B5
100
AcDbEntity
  8
NOTES
 62
     0
100
AcDbMText
 10
0.0
 20
-1.317183519
 30
0.0
 40
0.2083333333
 41
0.0
 46
0.0
 71
     1
 72
     1
  1
NÚMEROS CORRECTO DE AGUJEROS Y UBICACIONES
  7
SLDTEXTSTYLE0
 73
     1
 44
1.0
  0
MTEXT
  5
1BD
330
1B5
100
AcDbEntity
  8
NOTES
 62
     0
100
AcDbMText
 10
0.0
 20
-1.6343313786
 30
0.0
 40
0.2083333333
 41
0.0
 46
0.0
 71
     1
 72
     1
  1
CORRESPONDIENTES, ENTONCES UTILICE ESTE DIAGRAMA PARA
  7
SLDTEXTSTYLE0
 73
     1
 44
1.0
  0
MTEXT
  5
1BE
330
1B5
100
AcDbEntity
  8
NOTES
 62
     0
100
AcDbMText
 10
0.0
 20
-1.951479238199999
 30
0.0
 40
0.2083333333
 41
0.0
 46
0.0
 71
     1
 72
     1
  1
DETERMINAR DONDE HACER LAS PERFORACIONES DE 36.51mm.
  7
SLDTEXTSTYLE0
 73
     1
 44
1.0
  0
ENDBLK
  5
1B7
330
1B5
100
AcDbEntity
  8
0
100
AcDbBlockEnd
  0
BLOCK
  5
1C1
330
1C0
100
AcDbEntity
  8
0
100
AcDbBlockBegin
  2
SW_NOTE_4
 70
     0
 10
0.0
 20
0.0
 30
0.0
  3
SW_NOTE_4
  1

  0
MTEXT
  5
1C3
330
1C0
100
AcDbEntity
  8
NOTES
 62
     0
100
AcDbMText
 10
0.0210421018
 20
0.2396463492
 30
0.0
 40
0.2083333333
 41
0.0
 46
0.0
 71
     1
 72
     1
  1
1/8" OVERHANG
  7
SLDTEXTSTYLE0
 73
     1
 44
1.0
  0
MTEXT
  5
1C4
330
1C0
100
AcDbEntity
  8
NOTES
 62
     0
100
AcDbMText
 10
0.0210421018
 20
-0.0775015104
 30
0.0
 40
0.2083333333
 41
0.0
 46
0.0
 71
     1
 72
     1
  1
[3.2 SOBRESALIENTE]
  7
SLDTEXTSTYLE0
 73
     1
 44
1.0
  0
ENDBLK
  5
1C2
330
1C0
100
AcDbEntity
  8
0
100
AcDbBlockEnd
  0
BLOCK
  5
1C8
330
1C7
100
AcDbEntity
  8
0
100
AcDbBlockBegin
  2
SW_NOTE_5
 70
     0
 10
0.0
 20
0.0
 30
0.0
  3
SW_NOTE_5
  1

  0
MTEXT
  5
1CA
330
1C7
100
AcDbEntity
  8
NOTES
 62
     0
100
AcDbMText
 10
-0.0927673096
 20
1.194469391499999
 30
0.0
 40
0.2083333333
 41
0.0
 46
0.0
 71
     3
 72
     1
  1
FOR TOP MOUNT
  7
SLDTEXTSTYLE0
 73
     1
 44
1.0
  0
MTEXT
  5
1CB
330
1C7
100
AcDbEntity
  8
NOTES
 62
     0
100
AcDbMText
 10
0.0036833062
 20
0.8773215319
 30
0.0
 40
0.2083333333
 41
0.0
 46
0.0
 71
     3
 72
     1
  1
INSTALLATION CUT
  7
SLDTEXTSTYLE0
 73
     1
 44
1.0
  0
MTEXT
  5
1CC
330
1C7
100
AcDbEntity
  8
NOTES
 62
     0
100
AcDbMText
 10
0.0032010338
 20
0.5601736722
 30
0.0
 40
0.2083333333
 41
0.0
 46
0.0
 71
     3
 72
     1
  1
ALONG THIS LINE
  7
SLDTEXTSTYLE0
 73
     1
 44
1.0
  0
MTEXT
  5
1CD
330
1C7
100
AcDbEntity
  8
NOTES
 62
     0
100
AcDbMText
 10
0.0258675809
 20
-0.074122047
 30
0.0
 40
0.2083333333
 41
0.0
 46
0.0
 71
     3
 72
     1
  1
PARA LA INSTALACIÓN DE
  7
SLDTEXTSTYLE0
 73
     1
 44
1.0
  0
MTEXT
  5
1CE
330
1C7
100
AcDbEntity
  8
NOTES
 62
     0
100
AcDbMText
 10
0.0065769803
 20
-0.3912699065999999
 30
0.0
 40
0.2083333333
 41
0.0
 46
0.0
 71
     3
 72
     1
  1
MONTAJE SUPERIOR
  7
SLDTEXTSTYLE0
 73
     1
 44
1.0
  0
MTEXT
  5
1CF
330
1C7
100
AcDbEntity
  8
NOTES
 62
     0
100
AcDbMText
 10
-0.0001746459
 20
-0.7084177662000001
 30
0.0
 40
0.2083333333
 41
0.0
 46
0.0
 71
     3
 72
     1
  1
CORTE A LO LARGO
  7
SLDTEXTSTYLE0
 73
     1
 44
1.0
  0
MTEXT
  5
1D0
330
1C7
100
AcDbEntity
  8
NOTES
 62
     0
100
AcDbMText
 10
0.0123637817
 20
-1.025565625799999
 30
0.0
 40
0.2083333333
 41
0.0
 46
0.0
 71
     3
 72
     1
  1
DE ESTA LÍNEA
  7
SLDTEXTSTYLE0
 73
     1
 44
1.0
  0
ENDBLK
  5
1C9
330
1C7
100
AcDbEntity
  8
0
100
AcDbBlockEnd
  0
BLOCK
  5
1D4
330
1D3
100
AcDbEntity
  8
0
100
AcDbBlockBegin
  2
SW_NOTE_6
 70
     0
 10
0.0
 20
0.0
 30
0.0
  3
SW_NOTE_6
  1

  0
MTEXT
  5
1D6
330
1D3
100
AcDbEntity
  8
NOTES
 62
     0
100
AcDbMText
 10
0.0238599749
 20
1.035902017199999
 30
0.0
 40
0.2083333333
 41
0.0
 46
0.0
 71
     1
 72
     1
  1
FOR UNDERMOUNT
  7
SLDTEXTSTYLE0
 73
     1
 44
1.0
  0
MTEXT
  5
1D7
330
1D3
100
AcDbEntity
  8
NOTES
 62
     0
100
AcDbMText
 10
0.0238599749
 20
0.7187541576000001
 30
0.0
 40
0.2083333333
 41
0.0
 46
0.0
 71
     1
 72
     1
  1
INSTALLATION CUT
  7
SLDTEXTSTYLE0
 73
     1
 44
1.0
  0
MTEXT
  5
1D8
330
1D3
100
AcDbEntity
  8
NOTES
 62
     0
100
AcDbMText
 10
0.0238599749
 20
0.401606298
 30
0.0
 40
0.2083333333
 41
0.0
 46
0.0
 71
     1
 72
     1
  1
ALONG THIS LINE
  7
SLDTEXTSTYLE0
 73
     1
 44
1.0
  0
MTEXT
  5
1D9
330
1D3
100
AcDbEntity
  8
NOTES
 62
     0
100
AcDbMText
 10
0.0238599749
 20
-0.2326894212
 30
0.0
 40
0.2083333333
 41
0.0
 46
0.0
 71
     1
 72
     1
  1
PARA LA INSTALACIÓN
  7
SLDTEXTSTYLE0
 73
     1
 44
1.0
  0
MTEXT
  5
1DA
330
1D3
100
AcDbEntity
  8
NOTES
 62
     0
100
AcDbMText
 10
0.0238599749
 20
-0.5498372808
 30
0.0
 40
0.2083333333
 41
0.0
 46
0.0
 71
     1
 72
     1
  1
INFERIOR CORTE A LO
  7
SLDTEXTSTYLE0
 73
     1
 44
1.0
  0
MTEXT
  5
1DB
330
1D3
100
AcDbEntity
  8
NOTES
 62
     0
100
AcDbMText
 10
0.0238599749
 20
-0.8669851404999999
 30
0.0
 40
0.2083333333
 41
0.0
 46
0.0
 71
     1
 72
     1
  1
LARGO DE ESTA LÍNEA
  7
SLDTEXTSTYLE0
 73
     1
 44
1.0
  0
ENDBLK
  5
1D5
330
1D3
100
AcDbEntity
  8
0
100
AcDbBlockEnd
  0
BLOCK
  5
1DF
330
1DE
100
AcDbEntity
  8
0
100
AcDbBlockBegin
  2
SW_NOTE_7
 70
     0
 10
0.0
 20
0.0
 30
0.0
  3
SW_NOTE_7
  1

  0
MTEXT
  5
1E1
330
1DE
100
AcDbEntity
  8
NOTES
 62
     0
100
AcDbMText
 10
0.0197348289
 20
1.036104402199999
 30
0.0
 40
0.2083333333
 41
0.0
 46
0.0
 71
     1
 72
     1
  1
EDGE OF SINK,
  7
SLDTEXTSTYLE0
 73
     1
 44
1.0
  0
MTEXT
  5
1E2
330
1DE
100
AcDbEntity
  8
NOTES
 62
     0
100
AcDbMText
 10
0.0197348289
 20
0.7189565426000001
 30
0.0
 40
0.2083333333
 41
0.0
 46
0.0
 71
     1
 72
     1
  1
REFERENCE ONLY
  7
SLDTEXTSTYLE0
 73
     1
 44
1.0
  0
MTEXT
  5
1E3
330
1DE
100
AcDbEntity
  8
NOTES
 62
     0
100
AcDbMText
 10
0.0197348289
 20
0.401808683
 30
0.0
 40
0.2083333333
 41
0.0
 46
0.0
 71
     1
 72
     1
  1
DO NOT CUT
  7
SLDTEXTSTYLE0
 73
     1
 44
1.0
  0
MTEXT
  5
1E4
330
1DE
100
AcDbEntity
  8
NOTES
 62
     0
100
AcDbMText
 10
0.0197348289
 20
-0.2324870362
 30
0.0
 40
0.2083333333
 41
0.0
 46
0.0
 71
     1
 72
     1
  1
BORDE DEL FREGADERO,
  7
SLDTEXTSTYLE0
 73
     1
 44
1.0
  0
MTEXT
  5
1E5
330
1DE
100
AcDbEntity
  8
NOTES
 62
     0
100
AcDbMText
 10
0.0197348289
 20
-0.5496348958000001
 30
0.0
 40
0.2083333333
 41
0.0
 46
0.0
 71
     1
 72
     1
  1
SÓLO REFERENCIA
  7
SLDTEXTSTYLE0
 73
     1
 44
1.0
  0
MTEXT
  5
1E6
330
1DE
100
AcDbEntity
  8
NOTES
 62
     0
100
AcDbMText
 10
0.0197348289
 20
-0.8667827554
 30
0.0
 40
0.2083333333
 41
0.0
 46
0.0
 71
     1
 72
     1
  1
NO CORTE
  7
SLDTEXTSTYLE0
 73
     1
 44
1.0
  0
ENDBLK
  5
1E0
330
1DE
100
AcDbEntity
  8
0
100
AcDbBlockEnd
  0
BLOCK
  5
1EE
330
1ED
100
AcDbEntity
  8
0
100
AcDbBlockBegin
  2
SW_NOTE_8
 70
     0
 10
0.0
 20
0.0
 30
0.0
  3
SW_NOTE_8
  1

  0
MTEXT
  5
1F0
330
1ED
100
AcDbEntity
  8
NOTES
 62
     0
100
AcDbMText
 10
1.893229166699999
 20
0.2148446233
 30
0.0
 40
0.1666666667
 41
0.0
 46
0.0
 71
     2
 72
     1
  1
HOLE DRILLING CONFIGURATIONS
  7
SLDTEXTSTYLE0
 73
     1
 44
1.0
  0
MTEXT
  5
1F1
330
1ED
100
AcDbEntity
  8
NOTES
 62
     0
100
AcDbMText
 10
1.913002375599999
 20
-0.2295998158
 30
0.0
 40
0.1666666667
 41
0.0
 46
0.0
 71
     2
 72
     1
  1
CONFIGURACIONES DE LAS PERFORACIÓNES DE AGUJEROS
  7
SLDTEXTSTYLE0
 73
     1
 44
1.0
  0
ENDBLK
  5
1EF
330
1ED
100
AcDbEntity
  8
0
100
AcDbBlockEnd
  0
BLOCK
  5
23B
330
23A
100
AcDbEntity
  8
0
100
AcDbBlockBegin
  2
block 35
 70
     0
 10
0.0
 20
0.0
 30
0.0
  3
block 35
  1

  0
POLYLINE
  5
23C
330
23A
100
AcDbEntity
  8
Layer 1
 62
   250
420
  2301728
370
    20
100
AcDb2dPolyline
 66
     1
 10
0.0
 20
0.0
 30
0.0
  0
VERTEX
  5
23D
330
23C
100
AcDbEntity
  8
Layer 1
 62
   250
420
  2301728
370
    20
100
AcDbVertex
100
AcDb2dVertex
 10
379.7360292197445
 20
186.8649368169316
 30
0.0
  0
VERTEX
  5
23E
330
23C
100
AcDbEntity
  8
Layer 1
 62
   250
420
  2301728
370
    20
100
AcDbVertex
100
AcDb2dVertex
 10
379.7360292197445
 20
188.7996875264998
 30
0.0
  0
SEQEND
  5
23F
330
23C
100
AcDbEntity
  8
Layer 1
 62
   250
420
  2301728
370
    20
  0
ENDBLK
  5
240
330
23A
100
AcDbEntity
  8
0
100
AcDbBlockEnd
  0
ENDSEC
  0
SECTION
  2
ENTITIES
  0
LINE
  5
C3
330
1F
100
AcDbEntity
  8
OBJECTS
  6
CENTERX2
 62
     5
100
AcDbLine
 10
1.7819248775
 20
10.3994242717
 30
0.0
 11
4.697202460199999
 21
10.3994242717
 31
0.0
  0
LINE
  5
C4
330
1F
100
AcDbEntity
  8
OBJECTS
  6
CENTERX2
 62
     5
100
AcDbLine
 10
32.0319248775
 20
10.3994242717
 30
0.0
 11
29.1166472949
 21
10.3994242717
 31
0.0
  0
LINE
  5
C5
330
1F
100
AcDbEntity
  8
OBJECTS
  6
CENTERX2
 62
     5
100
AcDbLine
 10
16.9069248775
 20
18.6494242717
 30
0.0
 11
16.9069248775
 21
15.4928842633
 31
0.0
  0
LINE
  5
C6
330
1F
100
AcDbEntity
  8
OBJECTS
  6
CENTERX2
 62
     5
100
AcDbLine
 10
16.9069248775
 20
2.1494242717
 30
0.0
 11
16.9069248775
 21
5.305964280099999
 31
0.0
  0
INSERT
  5
CC
330
1F
100
AcDbEntity
  8
0
  6
Continuous
 62
     7
370
     0
100
AcDbBlockReference
  2
SW_NOTE_0
 10
11.3835924003
 20
9.5547704236
 30
0.0
  0
INSERT
  5
D4
102
{ACAD_REACTORS
330
D6
330
D7
102
}
330
1F
100
AcDbEntity
  8
NOTES
100
AcDbBlockReference
  2
SW_NOTE_1
 10
22.9682345379
 20
12.6570313165
 30
0.0
  0
LEADER
  5
D6
330
1F
100
AcDbEntity
  8
NOTES
100
AcDbLeader
  3
SLDDIMSTYLE0
 73
     2
 76
     3
 10
29.227372261
 20
10.3994242717
 30
0.0
 10
23.2182345379
 20
12.6570313165
 30
0.0
 10
22.9682345379
 20
12.6570313165
 30
0.0
340
D4
  0
LEADER
  5
D7
330
1F
100
AcDbEntity
  8
NOTES
100
AcDbLeader
  3
SLDDIMSTYLE0
 73
     2
 76
     3
 10
16.9069248775
 20
15.6685205782
 30
0.0
 10
20.9206808708
 20
12.6570313165
 30
0.0
 10
21.1706808708
 20
12.6570313165
 30
0.0
340
D4
212
-1.797553667136146
222
0.0
232
0.0
  0
INSERT
  5
E7
330
1F
100
AcDbEntity
  8
NOTES
 62
     7
100
AcDbBlockReference
  2
SW_NOTE_2
 10
6.5121361839
 20
14.925177495
 30
0.0
  0
LINE
  5
E8
330
1F
100
AcDbEntity
  8
OBJECTS
  6
CENTERX2
100
AcDbLine
 10
0.7194248775
 20
22.1494242717
 30
0.0
 11
0.7194248775
 21
1.399424271699999
 31
0.0
  0
LINE
  5
E9
330
1F
100
AcDbEntity
  8
OBJECTS
  6
CENTERX2
100
AcDbLine
 10
1.0319248775
 20
1.0869242717
 30
0.0
 11
32.78192487750001
 21
1.0869242717
 31
0.0
  0
LINE
  5
EA
330
1F
100
AcDbEntity
  8
OBJECTS
  6
CENTERX2
100
AcDbLine
 10
33.09442487750001
 20
1.399424271699999
 30
0.0
 11
33.09442487750001
 21
22.1494242717
 31
0.0
  0
LINE
  5
EB
330
1F
100
AcDbEntity
  8
OBJECTS
  6
CENTERX2
100
AcDbLine
 10
32.78192487750001
 20
22.4619242717
 30
0.0
 11
1.0319248775
 21
22.4619242717
 31
0.0
  0
LINE
  5
EC
330
1F
100
AcDbEntity
  8
OBJECTS
  6
CENTERX2
100
AcDbLine
 10
1.7819248775
 20
18.1806742717
 30
0.0
 11
1.7819248775
 21
2.6181742717
 31
0.0
  0
LINE
  5
ED
330
1F
100
AcDbEntity
  8
OBJECTS
  6
CENTERX2
100
AcDbLine
 10
2.250674877499999
 20
2.1494242717
 30
0.0
 11
31.5631748775
 21
2.1494242717
 31
0.0
  0
LINE
  5
EE
330
1F
100
AcDbEntity
  8
OBJECTS
  6
CENTERX2
100
AcDbLine
 10
32.0319248775
 20
18.1806742717
 30
0.0
 11
32.0319248775
 21
2.6181742717
 31
0.0
  0
LINE
  5
EF
330
1F
100
AcDbEntity
  8
OBJECTS
  6
CENTERX2
100
AcDbLine
 10
2.250674877499999
 20
18.6494242717
 30
0.0
 11
31.5631748775
 21
18.6494242717
 31
0.0
  0
LINE
  5
F0
330
1F
100
AcDbEntity
  8
OBJECTS
100
AcDbLine
 10
15.6569248775
 20
19.7025647448
 30
0.0
 11
15.6569248775
 21
21.3462837986
 31
0.0
  0
LINE
  5
F1
330
1F
100
AcDbEntity
  8
OBJECTS
100
AcDbLine
 10
19.6569248775
 20
19.7025647448
 30
0.0
 11
19.6569248775
 21
21.3462837986
 31
0.0
  0
LINE
  5
F2
330
1F
100
AcDbEntity
  8
OBJECTS
100
AcDbLine
 10
23.6569248775
 20
19.7025647448
 30
0.0
 11
23.6569248775
 21
21.3462837986
 31
0.0
  0
LINE
  5
F3
330
1F
100
AcDbEntity
  8
OBJECTS
100
AcDbLine
 10
30.6569248775
 20
19.7025647448
 30
0.0
 11
30.6569248775
 21
21.3462837986
 31
0.0
  0
LINE
  5
F4
330
1F
100
AcDbEntity
  8
OBJECTS
100
AcDbLine
 10
14.7633361932
 20
20.5244242717
 30
0.0
 11
31.3633998675
 21
20.5244242717
 31
0.0
  0
LINE
  5
F5
330
1F
100
AcDbEntity
  8
NOTES
100
AcDbLine
 10
32.8131748775
 20
22.7744242717
 30
0.0
 11
1.0006748775
 21
22.7744242717
 31
0.0
  0
LINE
  5
F6
330
1F
100
AcDbEntity
  8
NOTES
100
AcDbLine
 10
33.40692487750001
 20
1.368174271699999
 30
0.0
 11
33.40692487750001
 21
22.1806742717
 31
0.0
  0
LINE
  5
F7
330
1F
100
AcDbEntity
  8
NOTES
100
AcDbLine
 10
1.0006748775
 20
0.7744242717000001
 30
0.0
 11
32.8131748775
 21
0.7744242717000001
 31
0.0
  0
LINE
  5
F8
330
1F
100
AcDbEntity
  8
NOTES
100
AcDbLine
 10
0.4069248775000001
 20
22.1806742717
 30
0.0
 11
0.4069248775000001
 21
1.368174271699999
 31
0.0
  0
ARC
  5
F9
330
1F
100
AcDbEntity
  8
OBJECTS
  6
CENTERX2
100
AcDbCircle
 10
1.0319248775
 20
1.399424271699999
 30
0.0
 40
0.3124999999999996
100
AcDbArc
 50
180.0
 51
270.0
  0
ARC
  5
FA
330
1F
100
AcDbEntity
  8
OBJECTS
  6
CENTERX2
100
AcDbCircle
 10
32.78192487750001
 20
1.399424271699999
 30
0.0
 40
0.3125
100
AcDbArc
 50
270.0
 51
0.0
  0
ARC
  5
FB
330
1F
100
AcDbEntity
  8
OBJECTS
  6
CENTERX2
100
AcDbCircle
 10
32.78192487750001
 20
22.1494242717
 30
0.0
 40
0.3125
100
AcDbArc
 50
0.0
 51
90.0
  0
ARC
  5
FC
330
1F
100
AcDbEntity
  8
OBJECTS
  6
CENTERX2
100
AcDbCircle
 10
1.0319248775
 20
22.1494242717
 30
0.0
 40
0.3124999999999996
100
AcDbArc
 50
90.0
 51
180.0
  0
ARC
  5
FD
330
1F
100
AcDbEntity
  8
OBJECTS
  6
CENTERX2
100
AcDbCircle
 10
2.250674877499999
 20
18.1806742717
 30
0.0
 40
0.4687500000000004
100
AcDbArc
 50
90.0
 51
180.0
  0
ARC
  5
FE
330
1F
100
AcDbEntity
  8
OBJECTS
  6
CENTERX2
100
AcDbCircle
 10
2.250674877499999
 20
2.6181742717
 30
0.0
 40
0.4687500000000004
100
AcDbArc
 50
180.0
 51
270.0
  0
ARC
  5
FF
330
1F
100
AcDbEntity
  8
OBJECTS
  6
CENTERX2
100
AcDbCircle
 10
31.5631748775
 20
2.6181742717
 30
0.0
 40
0.4687500000000037
100
AcDbArc
 50
270.0
 51
0.0
  0
ARC
  5
100
330
1F
100
AcDbEntity
  8
OBJECTS
  6
CENTERX2
100
AcDbCircle
 10
31.5631748775
 20
18.1806742717
 30
0.0
 40
0.4687500000000037
100
AcDbArc
 50
0.0
 51
90.0
  0
CIRCLE
  5
101
330
1F
100
AcDbEntity
  8
OBJECTS
100
AcDbCircle
 10
19.6569248775
 20
20.5244242717
 30
0.0
 40
0.7187499999999996
  0
ARC
  5
102
330
1F
100
AcDbEntity
  8
NOTES
100
AcDbCircle
 10
1.0006748775
 20
22.1806742717
 30
0.0
 40
0.5937500000000036
100
AcDbArc
 50
90.0
 51
180.0
  0
ARC
  5
103
330
1F
100
AcDbEntity
  8
NOTES
100
AcDbCircle
 10
32.8131748775
 20
1.368174271699999
 30
0.0
 40
0.59375
100
AcDbArc
 50
270.0
 51
0.0
  0
ARC
  5
104
330
1F
100
AcDbEntity
  8
NOTES
100
AcDbCircle
 10
32.8131748775
 20
22.1806742717
 30
0.0
 40
0.5937500000000036
100
AcDbArc
 50
0.0
 51
90.0
  0
ARC
  5
105
330
1F
100
AcDbEntity
  8
NOTES
100
AcDbCircle
 10
1.0006748775
 20
1.368174271699999
 30
0.0
 40
0.5937499999999997
100
AcDbArc
 50
180.0
 51
270.0
  0
INSERT
  5
106
330
1F
100
AcDbEntity
  8
BLOCKS
100
AcDbBlockReference
  2
Block1
 10
2.1192251524
 20
-23.2876289204
 30
0.0
  0
POINT
  5
107
330
1F
100
AcDbEntity
  8
OBJECTS
100
AcDbPoint
 10
15.6569248775
 20
20.5244242717
 30
0.0
  0
POINT
  5
108
330
1F
100
AcDbEntity
  8
OBJECTS
100
AcDbPoint
 10
19.6569248775
 20
20.5244242717
 30
0.0
  0
POINT
  5
109
330
1F
100
AcDbEntity
  8
OBJECTS
100
AcDbPoint
 10
23.6569248775
 20
20.5244242717
 30
0.0
  0
POINT
  5
10A
330
1F
100
AcDbEntity
  8
OBJECTS
100
AcDbPoint
 10
30.6569248775
 20
20.5244242717
 30
0.0
  0
DIMENSION
  5
10B
330
1F
100
AcDbEntity
  8
DIMS
100
AcDbDimension
280
     0
  2
_D
 10
29.6056650945
 20
1.0869242717
 30
0.0
 11
29.6056650945
 21
16.7032242473
 31
0.0
 70
   160
  1
<>\PTOP MOUNT
 71
     2
 42
-1.0
 73
     0
 74
     0
 75
     0
  3
SLDDIMSTYLE1
100
AcDbAlignedDimension
 13
32.78192487750001
 23
22.4619242717
 33
0.0
 14
32.78192487750001
 24
1.0869242717
 34
0.0
 50
90.0
100
AcDbRotatedDimension
  0
DIMENSION
  5
121
330
1F
100
AcDbEntity
  8
DIMS
100
AcDbDimension
280
     0
  2
_D_1
 10
25.5561415471
 20
2.1494242717
 30
0.0
 11
25.5561415471
 21
14.1608019244
 31
0.0
 70
   160
  1
<>\PUNDERMOUNT
 71
     2
 42
-1.0
 73
     0
 74
     0
 75
     0
  3
SLDDIMSTYLE1
100
AcDbAlignedDimension
 13
31.5631748775
 23
18.6494242717
 33
0.0
 14
31.5631748775
 24
2.1494242717
 34
0.0
 50
90.0
100
AcDbRotatedDimension
  0
DIMENSION
  5
136
330
1F
100
AcDbEntity
  8
DIMS
100
AcDbDimension
280
     0
  2
_D_2
 10
1.7819248775
 20
6.542781753599999
 30
0.0
 11
19.8825437336
 21
6.542781753599999
 31
0.0
 70
   160
  1
<>\PUNDERMOUNT
 71
     2
 42
-1.0
 73
     0
 74
     0
 75
     0
  3
SLDDIMSTYLE1
100
AcDbAlignedDimension
 13
32.0319248775
 23
2.6181742717
 33
0.0
 14
1.7819248775
 24
2.6181742717
 34
0.0
100
AcDbRotatedDimension
  0
DIMENSION
  5
14B
330
1F
100
AcDbEntity
  8
DIMS
100
AcDbDimension
280
     0
  2
_D_3
 10
33.09442487750001
 20
8.517426938999999
 30
0.0
 11
8.758913963099999
 21
8.517426938999999
 31
0.0
 70
   160
  1
<>\PTOP MOUNT
 71
     2
 42
-1.0
 73
     0
 74
     0
 75
     0
  3
SLDDIMSTYLE1
100
AcDbAlignedDimension
 13
0.7194248775
 23
1.399424271699999
 33
0.0
 14
33.09442487750001
 24
1.399424271699999
 34
0.0
100
AcDbRotatedDimension
  0
DIMENSION
  5
160
330
1F
100
AcDbEntity
  8
DIMS
100
AcDbDimension
280
     0
  2
_D_4
 10
2.250674877499999
 20
18.1806742717
 30
0.0
 11
4.4341956687
 21
17.1221534058
 31
0.0
 70
   164
  1
<>
 42
-1.0
 73
     0
 74
     0
 75
     0
  3
SLDDIMSTYLE2
100
AcDbRadialDimension
 15
1.919218573899999
 25
18.5121305754
 35
0.0
 40
0.0
  0
DIMENSION
  5
174
330
1F
100
AcDbEntity
  8
DIMS
100
AcDbDimension
280
     0
  2
_D_5
 10
20.2793806365
 20
20.8837992717
 30
0.0
 11
11.3175710379
 21
16.7032242473
 31
0.0
 70
   163
  1
<>\PTYP
 42
-1.0
 73
     0
 74
     0
 75
     0
  3
SLDDIMSTYLE3
100
AcDbDiametricDimension
 15
19.0344691186
 25
20.1650492717
 35
0.0
 40
0.0
  0
DIMENSION
  5
18A
330
1F
100
AcDbEntity
  8
DIMS
100
AcDbDimension
280
     0
  2
_D_6
 10
19.6569248775
 20
17.05332992609999
 30
0.0
 11
22.4468386463
 21
17.05332992609999
 31
0.0
 70
   160
  1
<>\POFF TEMPLATE\PCENTERLINE
 42
-1.0
 73
     0
 74
     0
 75
     0
  3
SLDDIMSTYLE1
100
AcDbAlignedDimension
 13
16.9069248775
 23
18.6494242717
 33
0.0
 14
19.6569248775
 24
19.7025647448
 34
0.0
100
AcDbRotatedDimension
  0
DIMENSION
  5
1A2
330
1F
100
AcDbEntity
  8
DIMS
100
AcDbDimension
280
     0
  2
_D_7
 10
1.0319248775
 20
22.1494242717
 30
0.0
 11
3.5092783274
 21
20.6581818782
 31
0.0
 70
   164
  1
<>
 42
-1.0
 73
     0
 74
     0
 75
     0
  3
SLDDIMSTYLE2
100
AcDbRadialDimension
 15
0.8109540083999998
 25
22.3703951408
 35
0.0
 40
0.0
  0
INSERT
  5
1BF
330
1F
100
AcDbEntity
  8
NOTES
100
AcDbBlockReference
  2
SW_NOTE_3
 10
5.467722381399999
 20
21.5505976777
 30
0.0
  0
INSERT
  5
1C5
102
{ACAD_REACTORS
330
1C6
102
}
330
1F
100
AcDbEntity
  8
NOTES
100
AcDbBlockReference
  2
SW_NOTE_4
 10
20.981628872
 20
4.4717500964
 30
0.0
  0
LEADER
  5
1C6
330
1F
100
AcDbEntity
  8
NOTES
100
AcDbLeader
  3
SLDDIMSTYLE0
 73
     2
 76
     3
 10
18.5609595213
 20
2.1494242717
 30
0.0
 10
20.731628872
 20
4.4717500964
 30
0.0
 10
20.981628872
 20
4.4717500964
 30
0.0
340
1C5
  0
INSERT
  5
1D1
102
{ACAD_REACTORS
330
1D2
102
}
330
1F
100
AcDbEntity
  8
NOTES
100
AcDbBlockReference
  2
SW_NOTE_5
 10
29.3912761955
 20
4.054378413999999
 30
0.0
  0
LEADER
  5
1D2
330
1F
100
AcDbEntity
  8
NOTES
100
AcDbLeader
  3
SLDDIMSTYLE0
 73
     2
 76
     3
 10
33.09442487750001
 20
5.1395273427
 30
0.0
 10
29.6412761955
 20
4.054378413999999
 30
0.0
 10
29.3912761955
 20
4.054378413999999
 30
0.0
340
1D1
  0
INSERT
  5
1DC
102
{ACAD_REACTORS
330
1DD
102
}
330
1F
100
AcDbEntity
  8
NOTES
100
AcDbBlockReference
  2
SW_NOTE_6
 10
13.5424327211
 20
4.2507627436
 30
0.0
  0
LEADER
  5
1DD
330
1F
100
AcDbEntity
  8
NOTES
100
AcDbLeader
  3
SLDDIMSTYLE0
 73
     2
 76
     3
 10
12.5599870524
 20
2.1494242717
 30
0.0
 10
13.2928069448
 20
4.2507627436
 30
0.0
 10
13.5424327211
 20
4.2507627436
 30
0.0
340
1DC
  0
INSERT
  5
1E7
102
{ACAD_REACTORS
330
1E8
102
}
330
1F
100
AcDbEntity
  8
NOTES
100
AcDbBlockReference
  2
SW_NOTE_7
 10
2.591595693399999
 20
13.6513733815
 30
0.0
  0
LEADER
  5
1E8
330
1F
100
AcDbEntity
  8
NOTES
100
AcDbLeader
  3
SLDDIMSTYLE0
 73
     2
 76
     3
 10
0.4069248775000001
 20
15.1713498443
 30
0.0
 10
2.3419013712
 20
13.6513733815
 30
0.0
 10
2.591595693399999
 20
13.6513733815
 30
0.0
340
1E7
  0
MTEXT
  5
1E9
330
1F
100
AcDbEntity
  8
OBJECTS
100
AcDbMText
 10
15.9096565899
 20
21.5910677374
 30
0.0
 40
0.2083333333
 41
0.0
 46
0.0
 71
     1
 72
     1
  1
1
  7
SLDTEXTSTYLE0
 73
     1
 44
1.0
  0
MTEXT
  5
1EA
330
1F
100
AcDbEntity
  8
OBJECTS
100
AcDbMText
 10
19.9461147282
 20
21.5910677374
 30
0.0
 40
0.2083333333
 41
0.0
 46
0.0
 71
     1
 72
     1
  1
2
  7
SLDTEXTSTYLE0
 73
     1
 44
1.0
  0
MTEXT
  5
1EB
330
1F
100
AcDbEntity
  8
OBJECTS
100
AcDbMText
 10
24.0035164732
 20
21.5910677374
 30
0.0
 40
0.2083333333
 41
0.0
 46
0.0
 71
     1
 72
     1
  1
3
  7
SLDTEXTSTYLE0
 73
     1
 44
1.0
  0
MTEXT
  5
1EC
330
1F
100
AcDbEntity
  8
OBJECTS
100
AcDbMText
 10
30.7961160658
 20
21.5910677374
 30
0.0
 40
0.2083333333
 41
0.0
 46
0.0
 71
     1
 72
     1
  1
4
  7
SLDTEXTSTYLE0
 73
     1
 44
1.0
  0
MTEXT
  5
1F3
330
1F
100
AcDbEntity
  8
NOTES
100
AcDbMText
 10
27.7702487557
 20
1.661390679199999
 30
0.0
 40
0.2083333333
 41
0.0
 46
0.0
 71
     1
 72
     1
  1
REV_B  8/18
  7
SLDTEXTSTYLE0
 73
     1
 44
1.0
  0
INSERT
  5
4F2
330
1F
100
AcDbEntity
  8
NOTES
100
AcDbBlockReference
  2
SW_NOTE_8
 10
5.772917911762972
 20
5.545826327560185
 30
0.0
  0
MTEXT
  5
4F3
330
1F
100
AcDbEntity
  8
NOTES
100
AcDbMText
 10
5.425756080527305
 20
4.407825100360184
 30
0.0
 40
0.2083333333
 41
0.0
 46
0.0
 71
     1
 72
     1
  1
2
  7
SLDTEXTSTYLE0
 73
     1
 44
1.0
  0
MTEXT
  5
4F4
330
1F
100
AcDbEntity
  8
NOTES
100
AcDbMText
 10
9.82071569634848
 20
4.390286420419189
 30
0.0
 40
0.2083333333
 41
0.0
 46
0.0
 71
     1
 72
     1
  1
1    2   3       4
  7
SLDTEXTSTYLE3
 73
     1
 44
1.0
  0
MTEXT
  5
4F5
330
1F
100
AcDbEntity
  8
0
100
AcDbMText
 10
2.994164553270007
 20
3.752938564621503
 30
0.0
 40
0.2160884953516609
 41
0.0
 46
0.0
 71
     7
 72
     1
  1
\fArial Narrow|b0|i0|c0|p34;\W0.88374;1
 73
     1
 44
1.0
  0
POLYLINE
  5
4F6
330
1F
100
AcDbEntity
  8
0
370
    25
100
AcDb2dPolyline
 66
     1
 10
0.0
 20
0.0
 30
0.0
  0
VERTEX
  5
4F7
330
4F6
100
AcDbEntity
  8
0
370
    25
100
AcDbVertex
100
AcDb2dVertex
 10
3.197812245669482
 20
3.722354483076799
 30
0.0
  0
VERTEX
  5
4F8
330
4F6
100
AcDbEntity
  8
0
370
    25
100
AcDbVertex
100
AcDb2dVertex
 10
2.904822765307714
 20
3.722354483076799
 30
0.0
  0
VERTEX
  5
4F9
330
4F6
100
AcDbEntity
  8
0
370
    25
100
AcDbVertex
100
AcDb2dVertex
 10
2.904822765307714
 20
4.015360912133193
 30
0.0
  0
VERTEX
  5
4FA
330
4F6
100
AcDbEntity
  8
0
370
    25
100
AcDbVertex
100
AcDb2dVertex
 10
3.197812245669482
 20
4.015360912133193
 30
0.0
  0
VERTEX
  5
4FB
330
4F6
100
AcDbEntity
  8
0
370
    25
100
AcDbVertex
100
AcDb2dVertex
 10
3.197812245669482
 20
3.722354483076799
 30
0.0
  0
SEQEND
  5
4FC
330
4F6
100
AcDbEntity
  8
0
370
    25
  0
MTEXT
  5
4FD
330
1F
100
AcDbEntity
  8
0
100
AcDbMText
 10
7.909379296344996
 20
3.719698753020349
 30
0.0
 40
0.2160884953516609
 41
0.0
 46
0.0
 71
     7
 72
     1
  1
\fArial Narrow|b0|i0|c0|p34;\W0.88374;4
 73
     1
 44
1.0
  0
POLYLINE
  5
4FE
330
1F
100
AcDbEntity
  8
0
370
    25
100
AcDb2dPolyline
 66
     1
 10
0.0
 20
0.0
 30
0.0
  0
VERTEX
  5
4FF
330
4FE
100
AcDbEntity
  8
0
370
    25
100
AcDbVertex
100
AcDb2dVertex
 10
8.113026747462647
 20
3.689131933633504
 30
0.0
  0
VERTEX
  5
500
330
4FE
100
AcDbEntity
  8
0
370
    25
100
AcDbVertex
100
AcDb2dVertex
 10
7.820037274502449
 20
3.689131933633504
 30
0.0
  0
VERTEX
  5
501
330
4FE
100
AcDbEntity
  8
0
370
    25
100
AcDbVertex
100
AcDb2dVertex
 10
7.820037274502449
 20
3.9821214065937
 30
0.0
  0
VERTEX
  5
502
330
4FE
100
AcDbEntity
  8
0
370
    25
100
AcDbVertex
100
AcDb2dVertex
 10
8.113026747462647
 20
3.9821214065937
 30
0.0
  0
VERTEX
  5
503
330
4FE
100
AcDbEntity
  8
0
370
    25
100
AcDbVertex
100
AcDb2dVertex
 10
8.113026747462647
 20
3.689131933633504
 30
0.0
  0
SEQEND
  5
504
330
4FE
100
AcDbEntity
  8
0
370
    25
  0
MTEXT
  5
505
330
1F
100
AcDbEntity
  8
0
100
AcDbMText
 10
3.876535953039182
 20
4.486627078284441
 30
0.0
 40
0.2160884953516609
 41
0.0
 46
0.0
 71
     7
 72
     1
  1
\fArial Narrow|b0|i0|c0|p34;\W1;1-1/2" (38mm) Diameter Faucet Holes on 4" (102mm) Centers
 73
     1
 44
1.0
  0
POLYLINE
  5
506
330
1F
100
AcDbEntity
  8
0
370
    25
100
AcDb2dPolyline
 66
     1
 10
0.0
 20
0.0
 30
0.0
  0
VERTEX
  5
507
330
506
100
AcDbEntity
  8
0
370
    25
100
AcDbVertex
100
AcDb2dVertex
 10
5.478780174250057
 20
3.819438590212764
 30
0.0
  0
VERTEX
  5
508
330
506
100
AcDbEntity
  8
0
370
    25
100
AcDbVertex
100
AcDb2dVertex
 10
5.490016127109607
 20
3.820707850620171
 30
0.0
  0
VERTEX
  5
509
330
506
100
AcDbEntity
  8
0
370
    25
100
AcDbVertex
100
AcDb2dVertex
 10
5.501264572689698
 20
3.823196400553046
 30
0.0
  0
VERTEX
  5
50A
330
506
100
AcDbEntity
  8
0
370
    25
100
AcDbVertex
100
AcDb2dVertex
 10
5.51251301826957
 20
3.826954210893454
 30
0.0
  0
VERTEX
  5
50B
330
506
100
AcDbEntity
  8
0
370
    25
100
AcDbVertex
100
AcDb2dVertex
 10
5.522504696162656
 20
3.831931310759144
 30
0.0
  0
VERTEX
  5
50C
330
506
100
AcDbEntity
  8
0
370
    25
100
AcDbVertex
100
AcDb2dVertex
 10
5.532496374055795
 20
3.838177671032297
 30
0.0
  0
VERTEX
  5
50D
330
506
100
AcDbEntity
  8
0
370
    25
100
AcDbVertex
100
AcDb2dVertex
 10
5.541243776982343
 20
3.846937566679548
 30
0.0
  0
VERTEX
  5
50E
330
506
100
AcDbEntity
  8
0
370
    25
100
AcDbVertex
100
AcDb2dVertex
 10
5.547490137255563
 20
3.855672476885704
 30
0.0
  0
VERTEX
  5
50F
330
506
100
AcDbEntity
  8
0
370
    25
100
AcDbVertex
100
AcDb2dVertex
 10
5.553736497528845
 20
3.865676647499206
 30
0.0
  0
VERTEX
  5
510
330
506
100
AcDbEntity
  8
0
370
    25
100
AcDbVertex
100
AcDb2dVertex
 10
5.558726090115108
 20
3.875655832671739
 30
0.0
  0
VERTEX
  5
511
330
506
100
AcDbEntity
  8
0
370
    25
100
AcDbVertex
100
AcDb2dVertex
 10
5.5612271327685
 20
3.886904278251676
 30
0.0
  0
VERTEX
  5
512
330
506
100
AcDbEntity
  8
0
370
    25
100
AcDbVertex
100
AcDb2dVertex
 10
5.563728175421823
 20
3.898152723831801
 30
0.0
  0
VERTEX
  5
513
330
506
100
AcDbEntity
  8
0
370
    25
100
AcDbVertex
100
AcDb2dVertex
 10
5.563728175421823
 20
3.909401169411679
 30
0.0
  0
VERTEX
  5
514
330
506
100
AcDbEntity
  8
0
370
    25
100
AcDbVertex
100
AcDb2dVertex
 10
5.5612271327685
 20
3.920649614991834
 30
0.0
  0
VERTEX
  5
515
330
506
100
AcDbEntity
  8
0
370
    25
100
AcDbVertex
100
AcDb2dVertex
 10
5.558726090115108
 20
3.931873075130651
 30
0.0
  0
VERTEX
  5
516
330
506
100
AcDbEntity
  8
0
370
    25
100
AcDbVertex
100
AcDb2dVertex
 10
5.553736497528845
 20
3.943121520710681
 30
0.0
  0
VERTEX
  5
517
330
506
100
AcDbEntity
  8
0
370
    25
100
AcDbVertex
100
AcDb2dVertex
 10
5.547490137255563
 20
3.953125691324336
 30
0.0
  0
VERTEX
  5
518
330
506
100
AcDbEntity
  8
0
370
    25
100
AcDbVertex
100
AcDb2dVertex
 10
5.541243776982343
 20
3.961860601530369
 30
0.0
  0
VERTEX
  5
519
330
506
100
AcDbEntity
  8
0
370
    25
100
AcDbVertex
100
AcDb2dVertex
 10
5.532496374055795
 20
3.969351236769963
 30
0.0
  0
VERTEX
  5
51A
330
506
100
AcDbEntity
  8
0
370
    25
100
AcDbVertex
100
AcDb2dVertex
 10
5.522504696162656
 20
3.975597597043245
 30
0.0
  0
VERTEX
  5
51B
330
506
100
AcDbEntity
  8
0
370
    25
100
AcDbVertex
100
AcDb2dVertex
 10
5.51251301826957
 20
3.980599682349906
 30
0.0
  0
VERTEX
  5
51C
330
506
100
AcDbEntity
  8
0
370
    25
100
AcDbVertex
100
AcDb2dVertex
 10
5.501264572689698
 20
3.985601767656839
 30
0.0
  0
VERTEX
  5
51D
330
506
100
AcDbEntity
  8
0
370
    25
100
AcDbVertex
100
AcDb2dVertex
 10
5.490016127109607
 20
3.986846042623182
 30
0.0
  0
VERTEX
  5
51E
330
506
100
AcDbEntity
  8
0
370
    25
100
AcDbVertex
100
AcDb2dVertex
 10
5.478780174250057
 20
3.988090317589744
 30
0.0
  0
VERTEX
  5
51F
330
506
100
AcDbEntity
  8
0
370
    25
100
AcDbVertex
100
AcDb2dVertex
 10
5.46753172867009
 20
3.986846042623182
 30
0.0
  0
VERTEX
  5
520
330
506
100
AcDbEntity
  8
0
370
    25
100
AcDbVertex
100
AcDb2dVertex
 10
5.45629577581066
 20
3.985601767656839
 30
0.0
  0
VERTEX
  5
521
330
506
100
AcDbEntity
  8
0
370
    25
100
AcDbVertex
100
AcDb2dVertex
 10
5.44504733023063
 20
3.980599682349906
 30
0.0
  0
VERTEX
  5
522
330
506
100
AcDbEntity
  8
0
370
    25
100
AcDbVertex
100
AcDb2dVertex
 10
5.435055652337556
 20
3.975597597043245
 30
0.0
  0
VERTEX
  5
523
330
506
100
AcDbEntity
  8
0
370
    25
100
AcDbVertex
100
AcDb2dVertex
 10
5.426308249410976
 20
3.969351236769963
 30
0.0
  0
VERTEX
  5
524
330
506
100
AcDbEntity
  8
0
370
    25
100
AcDbVertex
100
AcDb2dVertex
 10
5.417560846484398
 20
3.961860601530369
 30
0.0
  0
VERTEX
  5
525
330
506
100
AcDbEntity
  8
0
370
    25
100
AcDbVertex
100
AcDb2dVertex
 10
5.410070211244741
 20
3.953125691324336
 30
0.0
  0
VERTEX
  5
526
330
506
100
AcDbEntity
  8
0
370
    25
100
AcDbVertex
100
AcDb2dVertex
 10
5.403823850971457
 20
3.943121520710681
 30
0.0
  0
VERTEX
  5
527
330
506
100
AcDbEntity
  8
0
370
    25
100
AcDbVertex
100
AcDb2dVertex
 10
5.40007853335175
 20
3.931873075130651
 30
0.0
  0
VERTEX
  5
528
330
506
100
AcDbEntity
  8
0
370
    25
100
AcDbVertex
100
AcDb2dVertex
 10
5.39632072301135
 20
3.920649614991834
 30
0.0
  0
VERTEX
  5
529
330
506
100
AcDbEntity
  8
0
370
    25
100
AcDbVertex
100
AcDb2dVertex
 10
5.395076448044882
 20
3.909401169411679
 30
0.0
  0
VERTEX
  5
52A
330
506
100
AcDbEntity
  8
0
370
    25
100
AcDbVertex
100
AcDb2dVertex
 10
5.395076448044882
 20
3.898152723831801
 30
0.0
  0
VERTEX
  5
52B
330
506
100
AcDbEntity
  8
0
370
    25
100
AcDbVertex
100
AcDb2dVertex
 10
5.39632072301135
 20
3.886904278251676
 30
0.0
  0
VERTEX
  5
52C
330
506
100
AcDbEntity
  8
0
370
    25
100
AcDbVertex
100
AcDb2dVertex
 10
5.40007853335175
 20
3.875655832671739
 30
0.0
  0
VERTEX
  5
52D
330
506
100
AcDbEntity
  8
0
370
    25
100
AcDbVertex
100
AcDb2dVertex
 10
5.403823850971457
 20
3.865676647499206
 30
0.0
  0
VERTEX
  5
52E
330
506
100
AcDbEntity
  8
0
370
    25
100
AcDbVertex
100
AcDb2dVertex
 10
5.410070211244741
 20
3.855672476885704
 30
0.0
  0
VERTEX
  5
52F
330
506
100
AcDbEntity
  8
0
370
    25
100
AcDbVertex
100
AcDb2dVertex
 10
5.417560846484398
 20
3.846937566679548
 30
0.0
  0
VERTEX
  5
530
330
506
100
AcDbEntity
  8
0
370
    25
100
AcDbVertex
100
AcDb2dVertex
 10
5.426308249410976
 20
3.838177671032297
 30
0.0
  0
VERTEX
  5
531
330
506
100
AcDbEntity
  8
0
370
    25
100
AcDbVertex
100
AcDb2dVertex
 10
5.435055652337556
 20
3.831931310759144
 30
0.0
  0
VERTEX
  5
532
330
506
100
AcDbEntity
  8
0
370
    25
100
AcDbVertex
100
AcDb2dVertex
 10
5.44504733023063
 20
3.826954210893454
 30
0.0
  0
VERTEX
  5
533
330
506
100
AcDbEntity
  8
0
370
    25
100
AcDbVertex
100
AcDb2dVertex
 10
5.45629577581066
 20
3.823196400553046
 30
0.0
  0
VERTEX
  5
534
330
506
100
AcDbEntity
  8
0
370
    25
100
AcDbVertex
100
AcDb2dVertex
 10
5.46753172867009
 20
3.820707850620171
 30
0.0
  0
VERTEX
  5
535
330
506
100
AcDbEntity
  8
0
370
    25
100
AcDbVertex
100
AcDb2dVertex
 10
5.478780174250057
 20
3.819438590212764
 30
0.0
  0
SEQEND
  5
536
330
506
100
AcDbEntity
  8
0
370
    25
  0
POLYLINE
  5
537
330
1F
100
AcDbEntity
  8
0
370
    25
100
AcDb2dPolyline
 66
     1
 10
0.0
 20
0.0
 30
0.0
  0
VERTEX
  5
538
330
537
100
AcDbEntity
  8
0
370
    25
100
AcDbVertex
100
AcDb2dVertex
 10
7.196399030523506
 20
4.08381167471384
 30
0.0
  0
VERTEX
  5
539
330
537
100
AcDbEntity
  8
0
370
    25
100
AcDbVertex
100
AcDb2dVertex
 10
7.195154755557066
 20
4.093803352606919
 30
0.0
  0
VERTEX
  5
53A
330
537
100
AcDbEntity
  8
0
370
    25
100
AcDbVertex
100
AcDb2dVertex
 10
7.192653712903675
 20
4.103807523220453
 30
0.0
  0
VERTEX
  5
53B
330
537
100
AcDbEntity
  8
0
370
    25
100
AcDbVertex
100
AcDb2dVertex
 10
7.188908395283784
 20
4.113799201113502
 30
0.0
  0
VERTEX
  5
53C
330
537
100
AcDbEntity
  8
0
370
    25
100
AcDbVertex
100
AcDb2dVertex
 10
7.183906309977031
 20
4.122546604040045
 30
0.0
  0
VERTEX
  5
53D
330
537
100
AcDbEntity
  8
0
370
    25
100
AcDbVertex
100
AcDb2dVertex
 10
7.176415674737412
 20
4.130037239279705
 30
0.0
  0
VERTEX
  5
53E
330
537
100
AcDbEntity
  8
0
370
    25
100
AcDbVertex
100
AcDb2dVertex
 10
7.168912546777175
 20
4.137527874519514
 30
0.0
  0
VERTEX
  5
53F
330
537
100
AcDbEntity
  8
0
370
    25
100
AcDbVertex
100
AcDb2dVertex
 10
7.160165143850534
 20
4.142529959826269
 30
0.0
  0
VERTEX
  5
540
330
537
100
AcDbEntity
  8
0
370
    25
100
AcDbVertex
100
AcDb2dVertex
 10
7.150173465957581
 20
4.146275277446095
 30
0.0
  0
VERTEX
  5
541
330
537
100
AcDbEntity
  8
0
370
    25
100
AcDbVertex
100
AcDb2dVertex
 10
7.14018178806447
 20
4.148776320099486
 30
0.0
  0
VERTEX
  5
542
330
537
100
AcDbEntity
  8
0
370
    25
100
AcDbVertex
100
AcDb2dVertex
 10
7.130190110171426
 20
4.150020595065922
 30
0.0
  0
SEQEND
  5
543
330
537
100
AcDbEntity
  8
0
370
    25
  0
POLYLINE
  5
544
330
1F
100
AcDbEntity
  8
0
370
    25
100
AcDb2dPolyline
 66
     1
 10
0.0
 20
0.0
 30
0.0
  0
VERTEX
  5
545
330
544
100
AcDbEntity
  8
0
370
    25
100
AcDbVertex
100
AcDb2dVertex
 10
7.196399030523506
 20
3.447475154570394
 30
0.0
  0
VERTEX
  5
546
330
544
100
AcDbEntity
  8
0
370
    25
100
AcDbVertex
100
AcDb2dVertex
 10
7.196399030523506
 20
4.08381167471384
 30
0.0
  0
SEQEND
  5
547
330
544
100
AcDbEntity
  8
0
370
    25
  0
POLYLINE
  5
548
330
1F
100
AcDbEntity
  8
0
370
    25
100
AcDb2dPolyline
 66
     1
 10
0.0
 20
0.0
 30
0.0
  0
VERTEX
  5
549
330
548
100
AcDbEntity
  8
0
370
    25
100
AcDbVertex
100
AcDb2dVertex
 10
3.550107949203029
 20
4.150020595065922
 30
0.0
  0
VERTEX
  5
54A
330
548
100
AcDbEntity
  8
0
370
    25
100
AcDbVertex
100
AcDb2dVertex
 10
3.540116271562337
 20
4.148776320099486
 30
0.0
  0
VERTEX
  5
54B
330
548
100
AcDbEntity
  8
0
370
    25
100
AcDbVertex
100
AcDb2dVertex
 10
3.530124593921645
 20
4.146275277446095
 30
0.0
  0
VERTEX
  5
54C
330
548
100
AcDbEntity
  8
0
370
    25
100
AcDbVertex
100
AcDb2dVertex
 10
3.520133223169056
 20
4.142529959826269
 30
0.0
  0
VERTEX
  5
54D
330
548
100
AcDbEntity
  8
0
370
    25
100
AcDbVertex
100
AcDb2dVertex
 10
3.51138551357546
 20
4.137527874519514
 30
0.0
  0
VERTEX
  5
54E
330
548
100
AcDbEntity
  8
0
370
    25
100
AcDbVertex
100
AcDb2dVertex
 10
3.503882385804692
 20
4.130037239279705
 30
0.0
  0
VERTEX
  5
54F
330
548
100
AcDbEntity
  8
0
370
    25
100
AcDbVertex
100
AcDb2dVertex
 10
3.496391750754411
 20
4.122546604040045
 30
0.0
  0
VERTEX
  5
550
330
548
100
AcDbEntity
  8
0
370
    25
100
AcDbVertex
100
AcDb2dVertex
 10
3.491389665573841
 20
4.113799201113502
 30
0.0
  0
VERTEX
  5
551
330
548
100
AcDbEntity
  8
0
370
    25
100
AcDbVertex
100
AcDb2dVertex
 10
3.4876443480487
 20
4.103807523220453
 30
0.0
  0
VERTEX
  5
552
330
548
100
AcDbEntity
  8
0
370
    25
100
AcDbVertex
100
AcDb2dVertex
 10
3.485143305458509
 20
4.093803352606919
 30
0.0
  0
VERTEX
  5
553
330
548
100
AcDbEntity
  8
0
370
    25
100
AcDbVertex
100
AcDb2dVertex
 10
3.483899030523495
 20
4.08381167471384
 30
0.0
  0
SEQEND
  5
554
330
548
100
AcDbEntity
  8
0
370
    25
  0
POLYLINE
  5
555
330
1F
100
AcDbEntity
  8
0
370
    25
100
AcDb2dPolyline
 66
     1
 10
0.0
 20
0.0
 30
0.0
  0
VERTEX
  5
556
330
555
100
AcDbEntity
  8
0
370
    25
100
AcDbVertex
100
AcDb2dVertex
 10
7.130190110171426
 20
4.150020595065922
 30
0.0
  0
VERTEX
  5
557
330
555
100
AcDbEntity
  8
0
370
    25
100
AcDbVertex
100
AcDb2dVertex
 10
3.550107949203029
 20
4.150020595065922
 30
0.0
  0
SEQEND
  5
558
330
555
100
AcDbEntity
  8
0
370
    25
  0
POLYLINE
  5
559
330
1F
100
AcDbEntity
  8
0
370
    25
100
AcDb2dPolyline
 66
     1
 10
0.0
 20
0.0
 30
0.0
  0
VERTEX
  5
55A
330
559
100
AcDbEntity
  8
0
370
    25
100
AcDbVertex
100
AcDb2dVertex
 10
3.483899030523495
 20
4.08381167471384
 30
0.0
  0
VERTEX
  5
55B
330
559
100
AcDbEntity
  8
0
370
    25
100
AcDbVertex
100
AcDb2dVertex
 10
3.483899030523495
 20
3.447475154570394
 30
0.0
  0
SEQEND
  5
55C
330
559
100
AcDbEntity
  8
0
370
    25
  0
POLYLINE
  5
55D
330
1F
100
AcDbEntity
  8
0
370
    20
100
AcDb2dPolyline
 66
     1
 10
0.0
 20
0.0
 30
0.0
  0
VERTEX
  5
55E
330
55D
100
AcDbEntity
  8
0
370
    20
100
AcDbVertex
100
AcDb2dVertex
 10
5.477172952263321
 20
3.880818945608389
 30
0.0
  0
VERTEX
  5
55F
330
55D
100
AcDbEntity
  8
0
370
    20
100
AcDbVertex
100
AcDb2dVertex
 10
5.477172952263321
 20
3.9464305855505
 30
0.0
  0
SEQEND
  5
560
330
55D
100
AcDbEntity
  8
0
370
    20
  0
POLYLINE
  5
561
330
1F
100
AcDbEntity
  8
0
370
    20
100
AcDb2dPolyline
 66
     1
 10
0.0
 20
0.0
 30
0.0
  0
VERTEX
  5
562
330
561
100
AcDbEntity
  8
0
370
    20
100
AcDbVertex
100
AcDb2dVertex
 10
5.477172952263321
 20
3.871554762731092
 30
0.0
  0
VERTEX
  5
563
330
561
100
AcDbEntity
  8
0
370
    20
100
AcDbVertex
100
AcDb2dVertex
 10
5.477172952263321
 20
3.917207352885613
 30
0.0
  0
SEQEND
  5
564
330
561
100
AcDbEntity
  8
0
370
    20
  0
POLYLINE
  5
565
330
1F
100
AcDbEntity
  8
0
370
    20
100
AcDb2dPolyline
 66
     1
 10
0.0
 20
0.0
 30
0.0
  0
VERTEX
  5
566
330
565
100
AcDbEntity
  8
0
370
    20
100
AcDbVertex
100
AcDb2dVertex
 10
5.436734119607621
 20
3.904860243617878
 30
0.0
  0
VERTEX
  5
567
330
565
100
AcDbEntity
  8
0
370
    20
100
AcDbVertex
100
AcDb2dVertex
 10
5.515645075915093
 20
3.904860243617878
 30
0.0
  0
SEQEND
  5
568
330
565
100
AcDbEntity
  8
0
370
    20
  0
POLYLINE
  5
569
330
1F
100
AcDbEntity
  8
0
370
    25
100
AcDb2dPolyline
 66
     1
 10
0.0
 20
0.0
 30
0.0
  0
VERTEX
  5
56A
330
569
100
AcDbEntity
  8
0
370
    25
100
AcDbVertex
100
AcDb2dVertex
 10
9.894382208925614
 20
3.772116881646919
 30
0.0
  0
VERTEX
  5
56B
330
569
100
AcDbEntity
  8
0
370
    25
100
AcDbVertex
100
AcDb2dVertex
 10
9.905617848459177
 20
3.773386142054329
 30
0.0
  0
VERTEX
  5
56C
330
569
100
AcDbEntity
  8
0
370
    25
100
AcDbVertex
100
AcDb2dVertex
 10
9.916866293755056
 20
3.775874691987204
 30
0.0
  0
VERTEX
  5
56D
330
569
100
AcDbEntity
  8
0
370
    25
100
AcDbVertex
100
AcDb2dVertex
 10
9.928114739050929
 20
3.779632502327608
 30
0.0
  0
VERTEX
  5
56E
330
569
100
AcDbEntity
  8
0
370
    25
100
AcDbVertex
100
AcDb2dVertex
 10
9.93810673083821
 20
3.784609602193361
 30
0.0
  0
VERTEX
  5
56F
330
569
100
AcDbEntity
  8
0
370
    25
100
AcDbVertex
100
AcDb2dVertex
 10
9.948098094332188
 20
3.790855962466518
 30
0.0
  0
VERTEX
  5
570
330
569
100
AcDbEntity
  8
0
370
    25
100
AcDbVertex
100
AcDb2dVertex
 10
9.956845811657805
 20
3.799615858113736
 30
0.0
  0
VERTEX
  5
571
330
569
100
AcDbEntity
  8
0
370
    25
100
AcDbVertex
100
AcDb2dVertex
 10
9.963092171931027
 20
3.8083507683198
 30
0.0
  0
VERTEX
  5
572
330
569
100
AcDbEntity
  8
0
370
    25
100
AcDbVertex
100
AcDb2dVertex
 10
9.969338532204305
 20
3.818354938933299
 30
0.0
  0
VERTEX
  5
573
330
569
100
AcDbEntity
  8
0
370
    25
100
AcDbVertex
100
AcDb2dVertex
 10
9.974327809728874
 20
3.82833412410583
 30
0.0
  0
VERTEX
  5
574
330
569
100
AcDbEntity
  8
0
370
    25
100
AcDbVertex
100
AcDb2dVertex
 10
9.976828852319156
 20
3.839582569685891
 30
0.0
  0
VERTEX
  5
575
330
569
100
AcDbEntity
  8
0
370
    25
100
AcDbVertex
100
AcDb2dVertex
 10
9.97932989490938
 20
3.850831015266019
 30
0.0
  0
VERTEX
  5
576
330
569
100
AcDbEntity
  8
0
370
    25
100
AcDbVertex
100
AcDb2dVertex
 10
9.97932989490938
 20
3.862079460845894
 30
0.0
  0
VERTEX
  5
577
330
569
100
AcDbEntity
  8
0
370
    25
100
AcDbVertex
100
AcDb2dVertex
 10
9.976828852319156
 20
3.873327906425956
 30
0.0
  0
VERTEX
  5
578
330
569
100
AcDbEntity
  8
0
370
    25
100
AcDbVertex
100
AcDb2dVertex
 10
9.974327809728874
 20
3.884551366564867
 30
0.0
  0
VERTEX
  5
579
330
569
100
AcDbEntity
  8
0
370
    25
100
AcDbVertex
100
AcDb2dVertex
 10
9.969338532204305
 20
3.895799812144804
 30
0.0
  0
VERTEX
  5
57A
330
569
100
AcDbEntity
  8
0
370
    25
100
AcDbVertex
100
AcDb2dVertex
 10
9.963092171931027
 20
3.90580398275849
 30
0.0
  0
VERTEX
  5
57B
330
569
100
AcDbEntity
  8
0
370
    25
100
AcDbVertex
100
AcDb2dVertex
 10
9.956845811657805
 20
3.914538892964464
 30
0.0
  0
VERTEX
  5
57C
330
569
100
AcDbEntity
  8
0
370
    25
100
AcDbVertex
100
AcDb2dVertex
 10
9.948098094332188
 20
3.922029528204182
 30
0.0
  0
VERTEX
  5
57D
330
569
100
AcDbEntity
  8
0
370
    25
100
AcDbVertex
100
AcDb2dVertex
 10
9.93810673083821
 20
3.928275888477399
 30
0.0
  0
VERTEX
  5
57E
330
569
100
AcDbEntity
  8
0
370
    25
100
AcDbVertex
100
AcDb2dVertex
 10
9.928114739050929
 20
3.93327797378412
 30
0.0
  0
VERTEX
  5
57F
330
569
100
AcDbEntity
  8
0
370
    25
100
AcDbVertex
100
AcDb2dVertex
 10
9.916866293755056
 20
3.938280059090964
 30
0.0
  0
VERTEX
  5
580
330
569
100
AcDbEntity
  8
0
370
    25
100
AcDbVertex
100
AcDb2dVertex
 10
9.905617848459177
 20
3.9395243340574
 30
0.0
  0
VERTEX
  5
581
330
569
100
AcDbEntity
  8
0
370
    25
100
AcDbVertex
100
AcDb2dVertex
 10
9.894382208925614
 20
3.940768609023839
 30
0.0
  0
VERTEX
  5
582
330
569
100
AcDbEntity
  8
0
370
    25
100
AcDbVertex
100
AcDb2dVertex
 10
9.883133450587637
 20
3.9395243340574
 30
0.0
  0
VERTEX
  5
583
330
569
100
AcDbEntity
  8
0
370
    25
100
AcDbVertex
100
AcDb2dVertex
 10
9.871897498012154
 20
3.938280059090964
 30
0.0
  0
VERTEX
  5
584
330
569
100
AcDbEntity
  8
0
370
    25
100
AcDbVertex
100
AcDb2dVertex
 10
9.86064905271627
 20
3.93327797378412
 30
0.0
  0
VERTEX
  5
585
330
569
100
AcDbEntity
  8
0
370
    25
100
AcDbVertex
100
AcDb2dVertex
 10
9.850657687013073
 20
3.928275888477399
 30
0.0
  0
VERTEX
  5
586
330
569
100
AcDbEntity
  8
0
370
    25
100
AcDbVertex
100
AcDb2dVertex
 10
9.841909972369933
 20
3.922029528204182
 30
0.0
  0
VERTEX
  5
587
330
569
100
AcDbEntity
  8
0
370
    25
100
AcDbVertex
100
AcDb2dVertex
 10
9.833162569664347
 20
3.914538892964464
 30
0.0
  0
VERTEX
  5
588
330
569
100
AcDbEntity
  8
0
370
    25
100
AcDbVertex
100
AcDb2dVertex
 10
9.825672245920326
 20
3.90580398275849
 30
0.0
  0
VERTEX
  5
589
330
569
100
AcDbEntity
  8
0
370
    25
100
AcDbVertex
100
AcDb2dVertex
 10
9.819425885646984
 20
3.895799812144804
 30
0.0
  0
VERTEX
  5
58A
330
569
100
AcDbEntity
  8
0
370
    25
100
AcDbVertex
100
AcDb2dVertex
 10
9.815680256973308
 20
3.884551366564867
 30
0.0
  0
VERTEX
  5
58B
330
569
100
AcDbEntity
  8
0
370
    25
100
AcDbVertex
100
AcDb2dVertex
 10
9.811922446727901
 20
3.873327906425956
 30
0.0
  0
VERTEX
  5
58C
330
569
100
AcDbEntity
  8
0
370
    25
100
AcDbVertex
100
AcDb2dVertex
 10
9.810678171792927
 20
3.862079460845894
 30
0.0
  0
VERTEX
  5
58D
330
569
100
AcDbEntity
  8
0
370
    25
100
AcDbVertex
100
AcDb2dVertex
 10
9.810678171792927
 20
3.850831015266019
 30
0.0
  0
VERTEX
  5
58E
330
569
100
AcDbEntity
  8
0
370
    25
100
AcDbVertex
100
AcDb2dVertex
 10
9.811922446727901
 20
3.839582569685891
 30
0.0
  0
VERTEX
  5
58F
330
569
100
AcDbEntity
  8
0
370
    25
100
AcDbVertex
100
AcDb2dVertex
 10
9.815680256973308
 20
3.82833412410583
 30
0.0
  0
VERTEX
  5
590
330
569
100
AcDbEntity
  8
0
370
    25
100
AcDbVertex
100
AcDb2dVertex
 10
9.819425885646984
 20
3.818354938933299
 30
0.0
  0
VERTEX
  5
591
330
569
100
AcDbEntity
  8
0
370
    25
100
AcDbVertex
100
AcDb2dVertex
 10
9.825672245920326
 20
3.8083507683198
 30
0.0
  0
VERTEX
  5
592
330
569
100
AcDbEntity
  8
0
370
    25
100
AcDbVertex
100
AcDb2dVertex
 10
9.833162569664347
 20
3.799615858113736
 30
0.0
  0
VERTEX
  5
593
330
569
100
AcDbEntity
  8
0
370
    25
100
AcDbVertex
100
AcDb2dVertex
 10
9.841909972369933
 20
3.790855962466518
 30
0.0
  0
VERTEX
  5
594
330
569
100
AcDbEntity
  8
0
370
    25
100
AcDbVertex
100
AcDb2dVertex
 10
9.850657687013073
 20
3.784609602193361
 30
0.0
  0
VERTEX
  5
595
330
569
100
AcDbEntity
  8
0
370
    25
100
AcDbVertex
100
AcDb2dVertex
 10
9.86064905271627
 20
3.779632502327608
 30
0.0
  0
VERTEX
  5
596
330
569
100
AcDbEntity
  8
0
370
    25
100
AcDbVertex
100
AcDb2dVertex
 10
9.871897498012154
 20
3.775874691987204
 30
0.0
  0
VERTEX
  5
597
330
569
100
AcDbEntity
  8
0
370
    25
100
AcDbVertex
100
AcDb2dVertex
 10
9.883133450587637
 20
3.773386142054329
 30
0.0
  0
VERTEX
  5
598
330
569
100
AcDbEntity
  8
0
370
    25
100
AcDbVertex
100
AcDb2dVertex
 10
9.894382208925614
 20
3.772116881646919
 30
0.0
  0
SEQEND
  5
599
330
569
100
AcDbEntity
  8
0
370
    25
  0
POLYLINE
  5
59A
330
1F
100
AcDbEntity
  8
0
370
    25
100
AcDb2dPolyline
 66
     1
 10
0.0
 20
0.0
 30
0.0
  0
VERTEX
  5
59B
330
59A
100
AcDbEntity
  8
0
370
    25
100
AcDbVertex
100
AcDb2dVertex
 10
10.34412014859745
 20
3.772116881646919
 30
0.0
  0
VERTEX
  5
59C
330
59A
100
AcDbEntity
  8
0
370
    25
100
AcDbVertex
100
AcDb2dVertex
 10
10.35535610145694
 20
3.773386142054329
 30
0.0
  0
VERTEX
  5
59D
330
59A
100
AcDbEntity
  8
0
370
    25
100
AcDbVertex
100
AcDb2dVertex
 10
10.36660454703707
 20
3.775874691987204
 30
0.0
  0
VERTEX
  5
59E
330
59A
100
AcDbEntity
  8
0
370
    25
100
AcDbVertex
100
AcDb2dVertex
 10
10.377852992617
 20
3.779632502327608
 30
0.0
  0
VERTEX
  5
59F
330
59A
100
AcDbEntity
  8
0
370
    25
100
AcDbVertex
100
AcDb2dVertex
 10
10.38784467051005
 20
3.784609602193361
 30
0.0
  0
VERTEX
  5
5A0
330
59A
100
AcDbEntity
  8
0
370
    25
100
AcDbVertex
100
AcDb2dVertex
 10
10.39783634840316
 20
3.790855962466518
 30
0.0
  0
VERTEX
  5
5A1
330
59A
100
AcDbEntity
  8
0
370
    25
100
AcDbVertex
100
AcDb2dVertex
 10
10.40658375132964
 20
3.799615858113736
 30
0.0
  0
VERTEX
  5
5A2
330
59A
100
AcDbEntity
  8
0
370
    25
100
AcDbVertex
100
AcDb2dVertex
 10
10.41283011160299
 20
3.8083507683198
 30
0.0
  0
VERTEX
  5
5A3
330
59A
100
AcDbEntity
  8
0
370
    25
100
AcDbVertex
100
AcDb2dVertex
 10
10.41907647187621
 20
3.818354938933299
 30
0.0
  0
VERTEX
  5
5A4
330
59A
100
AcDbEntity
  8
0
370
    25
100
AcDbVertex
100
AcDb2dVertex
 10
10.42406606446242
 20
3.82833412410583
 30
0.0
  0
VERTEX
  5
5A5
330
59A
100
AcDbEntity
  8
0
370
    25
100
AcDbVertex
100
AcDb2dVertex
 10
10.42656710711586
 20
3.839582569685891
 30
0.0
  0
VERTEX
  5
5A6
330
59A
100
AcDbEntity
  8
0
370
    25
100
AcDbVertex
100
AcDb2dVertex
 10
10.42906814976919
 20
3.850831015266019
 30
0.0
  0
VERTEX
  5
5A7
330
59A
100
AcDbEntity
  8
0
370
    25
100
AcDbVertex
100
AcDb2dVertex
 10
10.42906814976919
 20
3.862079460845894
 30
0.0
  0
VERTEX
  5
5A8
330
59A
100
AcDbEntity
  8
0
370
    25
100
AcDbVertex
100
AcDb2dVertex
 10
10.42656710711586
 20
3.873327906425956
 30
0.0
  0
VERTEX
  5
5A9
330
59A
100
AcDbEntity
  8
0
370
    25
100
AcDbVertex
100
AcDb2dVertex
 10
10.42406606446242
 20
3.884551366564867
 30
0.0
  0
VERTEX
  5
5AA
330
59A
100
AcDbEntity
  8
0
370
    25
100
AcDbVertex
100
AcDb2dVertex
 10
10.41907647187621
 20
3.895799812144804
 30
0.0
  0
VERTEX
  5
5AB
330
59A
100
AcDbEntity
  8
0
370
    25
100
AcDbVertex
100
AcDb2dVertex
 10
10.41283011160299
 20
3.90580398275849
 30
0.0
  0
VERTEX
  5
5AC
330
59A
100
AcDbEntity
  8
0
370
    25
100
AcDbVertex
100
AcDb2dVertex
 10
10.40658375132964
 20
3.914538892964464
 30
0.0
  0
VERTEX
  5
5AD
330
59A
100
AcDbEntity
  8
0
370
    25
100
AcDbVertex
100
AcDb2dVertex
 10
10.39783634840316
 20
3.922029528204182
 30
0.0
  0
VERTEX
  5
5AE
330
59A
100
AcDbEntity
  8
0
370
    25
100
AcDbVertex
100
AcDb2dVertex
 10
10.38784467051005
 20
3.928275888477399
 30
0.0
  0
VERTEX
  5
5AF
330
59A
100
AcDbEntity
  8
0
370
    25
100
AcDbVertex
100
AcDb2dVertex
 10
10.377852992617
 20
3.93327797378412
 30
0.0
  0
VERTEX
  5
5B0
330
59A
100
AcDbEntity
  8
0
370
    25
100
AcDbVertex
100
AcDb2dVertex
 10
10.36660454703707
 20
3.938280059090964
 30
0.0
  0
VERTEX
  5
5B1
330
59A
100
AcDbEntity
  8
0
370
    25
100
AcDbVertex
100
AcDb2dVertex
 10
10.35535610145694
 20
3.9395243340574
 30
0.0
  0
VERTEX
  5
5B2
330
59A
100
AcDbEntity
  8
0
370
    25
100
AcDbVertex
100
AcDb2dVertex
 10
10.34412014859745
 20
3.940768609023839
 30
0.0
  0
VERTEX
  5
5B3
330
59A
100
AcDbEntity
  8
0
370
    25
100
AcDbVertex
100
AcDb2dVertex
 10
10.33287170301751
 20
3.9395243340574
 30
0.0
  0
VERTEX
  5
5B4
330
59A
100
AcDbEntity
  8
0
370
    25
100
AcDbVertex
100
AcDb2dVertex
 10
10.32163575015809
 20
3.938280059090964
 30
0.0
  0
VERTEX
  5
5B5
330
59A
100
AcDbEntity
  8
0
370
    25
100
AcDbVertex
100
AcDb2dVertex
 10
10.31038730457802
 20
3.93327797378412
 30
0.0
  0
VERTEX
  5
5B6
330
59A
100
AcDbEntity
  8
0
370
    25
100
AcDbVertex
100
AcDb2dVertex
 10
10.30039562668497
 20
3.928275888477399
 30
0.0
  0
VERTEX
  5
5B7
330
59A
100
AcDbEntity
  8
0
370
    25
100
AcDbVertex
100
AcDb2dVertex
 10
10.29164822375837
 20
3.922029528204182
 30
0.0
  0
VERTEX
  5
5B8
330
59A
100
AcDbEntity
  8
0
370
    25
100
AcDbVertex
100
AcDb2dVertex
 10
10.28290082083182
 20
3.914538892964464
 30
0.0
  0
VERTEX
  5
5B9
330
59A
100
AcDbEntity
  8
0
370
    25
100
AcDbVertex
100
AcDb2dVertex
 10
10.2754101855921
 20
3.90580398275849
 30
0.0
  0
VERTEX
  5
5BA
330
59A
100
AcDbEntity
  8
0
370
    25
100
AcDbVertex
100
AcDb2dVertex
 10
10.26916382531888
 20
3.895799812144804
 30
0.0
  0
VERTEX
  5
5BB
330
59A
100
AcDbEntity
  8
0
370
    25
100
AcDbVertex
100
AcDb2dVertex
 10
10.26541850769911
 20
3.884551366564867
 30
0.0
  0
VERTEX
  5
5BC
330
59A
100
AcDbEntity
  8
0
370
    25
100
AcDbVertex
100
AcDb2dVertex
 10
10.26166069735871
 20
3.873327906425956
 30
0.0
  0
VERTEX
  5
5BD
330
59A
100
AcDbEntity
  8
0
370
    25
100
AcDbVertex
100
AcDb2dVertex
 10
10.26041642239227
 20
3.862079460845894
 30
0.0
  0
VERTEX
  5
5BE
330
59A
100
AcDbEntity
  8
0
370
    25
100
AcDbVertex
100
AcDb2dVertex
 10
10.26041642239227
 20
3.850831015266019
 30
0.0
  0
VERTEX
  5
5BF
330
59A
100
AcDbEntity
  8
0
370
    25
100
AcDbVertex
100
AcDb2dVertex
 10
10.26166069735871
 20
3.839582569685891
 30
0.0
  0
VERTEX
  5
5C0
330
59A
100
AcDbEntity
  8
0
370
    25
100
AcDbVertex
100
AcDb2dVertex
 10
10.26541850769911
 20
3.82833412410583
 30
0.0
  0
VERTEX
  5
5C1
330
59A
100
AcDbEntity
  8
0
370
    25
100
AcDbVertex
100
AcDb2dVertex
 10
10.26916382531888
 20
3.818354938933299
 30
0.0
  0
VERTEX
  5
5C2
330
59A
100
AcDbEntity
  8
0
370
    25
100
AcDbVertex
100
AcDb2dVertex
 10
10.2754101855921
 20
3.8083507683198
 30
0.0
  0
VERTEX
  5
5C3
330
59A
100
AcDbEntity
  8
0
370
    25
100
AcDbVertex
100
AcDb2dVertex
 10
10.28290082083182
 20
3.799615858113736
 30
0.0
  0
VERTEX
  5
5C4
330
59A
100
AcDbEntity
  8
0
370
    25
100
AcDbVertex
100
AcDb2dVertex
 10
10.29164822375837
 20
3.790855962466518
 30
0.0
  0
VERTEX
  5
5C5
330
59A
100
AcDbEntity
  8
0
370
    25
100
AcDbVertex
100
AcDb2dVertex
 10
10.30039562668497
 20
3.784609602193361
 30
0.0
  0
VERTEX
  5
5C6
330
59A
100
AcDbEntity
  8
0
370
    25
100
AcDbVertex
100
AcDb2dVertex
 10
10.31038730457802
 20
3.779632502327608
 30
0.0
  0
VERTEX
  5
5C7
330
59A
100
AcDbEntity
  8
0
370
    25
100
AcDbVertex
100
AcDb2dVertex
 10
10.32163575015809
 20
3.775874691987204
 30
0.0
  0
VERTEX
  5
5C8
330
59A
100
AcDbEntity
  8
0
370
    25
100
AcDbVertex
100
AcDb2dVertex
 10
10.33287170301751
 20
3.773386142054329
 30
0.0
  0
VERTEX
  5
5C9
330
59A
100
AcDbEntity
  8
0
370
    25
100
AcDbVertex
100
AcDb2dVertex
 10
10.34412014859745
 20
3.772116881646919
 30
0.0
  0
SEQEND
  5
5CA
330
59A
100
AcDbEntity
  8
0
370
    25
  0
POLYLINE
  5
5CB
330
1F
100
AcDbEntity
  8
0
370
    25
100
AcDb2dPolyline
 66
     1
 10
0.0
 20
0.0
 30
0.0
  0
VERTEX
  5
5CC
330
5CB
100
AcDbEntity
  8
0
370
    25
100
AcDbVertex
100
AcDb2dVertex
 10
12.05377882867133
 20
4.043211416048798
 30
0.0
  0
VERTEX
  5
5CD
330
5CB
100
AcDbEntity
  8
0
370
    25
100
AcDbVertex
100
AcDb2dVertex
 10
12.05253455370489
 20
4.053203093941725
 30
0.0
  0
VERTEX
  5
5CE
330
5CB
100
AcDbEntity
  8
0
370
    25
100
AcDbVertex
100
AcDb2dVertex
 10
12.0500335110515
 20
4.063207264555286
 30
0.0
  0
VERTEX
  5
5CF
330
5CB
100
AcDbEntity
  8
0
370
    25
100
AcDbVertex
100
AcDb2dVertex
 10
12.04628819343161
 20
4.073198942448456
 30
0.0
  0
VERTEX
  5
5D0
330
5CB
100
AcDbEntity
  8
0
370
    25
100
AcDbVertex
100
AcDb2dVertex
 10
12.04128610812489
 20
4.081946345375004
 30
0.0
  0
VERTEX
  5
5D1
330
5CB
100
AcDbEntity
  8
0
370
    25
100
AcDbVertex
100
AcDb2dVertex
 10
12.03379547288523
 20
4.0894369806146
 30
0.0
  0
VERTEX
  5
5D2
330
5CB
100
AcDbEntity
  8
0
370
    25
100
AcDbVertex
100
AcDb2dVertex
 10
12.026292344925
 20
4.09692761585432
 30
0.0
  0
VERTEX
  5
5D3
330
5CB
100
AcDbEntity
  8
0
370
    25
100
AcDbVertex
100
AcDb2dVertex
 10
12.01754494199839
 20
4.10192970116116
 30
0.0
  0
VERTEX
  5
5D4
330
5CB
100
AcDbEntity
  8
0
370
    25
100
AcDbVertex
100
AcDb2dVertex
 10
12.00755326410546
 20
4.105675018780991
 30
0.0
  0
VERTEX
  5
5D5
330
5CB
100
AcDbEntity
  8
0
370
    25
100
AcDbVertex
100
AcDb2dVertex
 10
11.9975615862123
 20
4.108176061434257
 30
0.0
  0
VERTEX
  5
5D6
330
5CB
100
AcDbEntity
  8
0
370
    25
100
AcDbVertex
100
AcDb2dVertex
 10
11.98756990831925
 20
4.10942033640082
 30
0.0
  0
SEQEND
  5
5D7
330
5CB
100
AcDbEntity
  8
0
370
    25
  0
POLYLINE
  5
5D8
330
1F
100
AcDbEntity
  8
0
370
    25
100
AcDb2dPolyline
 66
     1
 10
0.0
 20
0.0
 30
0.0
  0
VERTEX
  5
5D9
330
5D8
100
AcDbEntity
  8
0
370
    25
100
AcDbVertex
100
AcDb2dVertex
 10
12.05377882867133
 20
3.406874895905319
 30
0.0
  0
VERTEX
  5
5DA
330
5D8
100
AcDbEntity
  8
0
370
    25
100
AcDbVertex
100
AcDb2dVertex
 10
12.05377882867133
 20
4.043211416048798
 30
0.0
  0
SEQEND
  5
5DB
330
5D8
100
AcDbEntity
  8
0
370
    25
  0
POLYLINE
  5
5DC
330
1F
100
AcDbEntity
  8
0
370
    25
100
AcDb2dPolyline
 66
     1
 10
0.0
 20
0.0
 30
0.0
  0
VERTEX
  5
5DD
330
5DC
100
AcDbEntity
  8
0
370
    25
100
AcDbVertex
100
AcDb2dVertex
 10
10.79510236323586
 20
3.772116881646919
 30
0.0
  0
VERTEX
  5
5DE
330
5DC
100
AcDbEntity
  8
0
370
    25
100
AcDbVertex
100
AcDb2dVertex
 10
10.80635080881592
 20
3.772116881646919
 30
0.0
  0
VERTEX
  5
5DF
330
5DC
100
AcDbEntity
  8
0
370
    25
100
AcDbVertex
100
AcDb2dVertex
 10
10.8175867616754
 20
3.774617924300189
 30
0.0
  0
VERTEX
  5
5E0
330
5DC
100
AcDbEntity
  8
0
370
    25
100
AcDbVertex
100
AcDb2dVertex
 10
10.8288352072554
 20
3.778363241920077
 30
0.0
  0
VERTEX
  5
5E1
330
5DC
100
AcDbEntity
  8
0
370
    25
100
AcDbVertex
100
AcDb2dVertex
 10
10.83882688514827
 20
3.784609602193361
 30
0.0
  0
VERTEX
  5
5E2
330
5DC
100
AcDbEntity
  8
0
370
    25
100
AcDbVertex
100
AcDb2dVertex
 10
10.84881856304132
 20
3.790855962466518
 30
0.0
  0
VERTEX
  5
5E3
330
5DC
100
AcDbEntity
  8
0
370
    25
100
AcDbVertex
100
AcDb2dVertex
 10
10.85632169100155
 20
3.798359090426749
 30
0.0
  0
VERTEX
  5
5E4
330
5DC
100
AcDbEntity
  8
0
370
    25
100
AcDbVertex
100
AcDb2dVertex
 10
10.86381232624121
 20
3.807106493353419
 30
0.0
  0
VERTEX
  5
5E5
330
5DC
100
AcDbEntity
  8
0
370
    25
100
AcDbVertex
100
AcDb2dVertex
 10
10.87005868651443
 20
3.817098171246468
 30
0.0
  0
VERTEX
  5
5E6
330
5DC
100
AcDbEntity
  8
0
370
    25
100
AcDbVertex
100
AcDb2dVertex
 10
10.87506077182121
 20
3.82833412410583
 30
0.0
  0
VERTEX
  5
5E7
330
5DC
100
AcDbEntity
  8
0
370
    25
100
AcDbVertex
100
AcDb2dVertex
 10
10.87754932175408
 20
3.839582569685891
 30
0.0
  0
VERTEX
  5
5E8
330
5DC
100
AcDbEntity
  8
0
370
    25
100
AcDbVertex
100
AcDb2dVertex
 10
10.87880608944109
 20
3.850831015266019
 30
0.0
  0
VERTEX
  5
5E9
330
5DC
100
AcDbEntity
  8
0
370
    25
100
AcDbVertex
100
AcDb2dVertex
 10
10.87880608944109
 20
3.862066968125316
 30
0.0
  0
VERTEX
  5
5EA
330
5DC
100
AcDbEntity
  8
0
370
    25
100
AcDbVertex
100
AcDb2dVertex
 10
10.87754932175408
 20
3.873315413705379
 30
0.0
  0
VERTEX
  5
5EB
330
5DC
100
AcDbEntity
  8
0
370
    25
100
AcDbVertex
100
AcDb2dVertex
 10
10.87506077182121
 20
3.884551366564867
 30
0.0
  0
VERTEX
  5
5EC
330
5DC
100
AcDbEntity
  8
0
370
    25
100
AcDbVertex
100
AcDb2dVertex
 10
10.87005868651443
 20
3.894555537178491
 30
0.0
  0
VERTEX
  5
5ED
330
5DC
100
AcDbEntity
  8
0
370
    25
100
AcDbVertex
100
AcDb2dVertex
 10
10.86381232624121
 20
3.904547215071416
 30
0.0
  0
VERTEX
  5
5EE
330
5DC
100
AcDbEntity
  8
0
370
    25
100
AcDbVertex
100
AcDb2dVertex
 10
10.85632169100155
 20
3.913294617998026
 30
0.0
  0
VERTEX
  5
5EF
330
5DC
100
AcDbEntity
  8
0
370
    25
100
AcDbVertex
100
AcDb2dVertex
 10
10.84881856304132
 20
3.922029528204182
 30
0.0
  0
VERTEX
  5
5F0
330
5DC
100
AcDbEntity
  8
0
370
    25
100
AcDbVertex
100
AcDb2dVertex
 10
10.83882688514827
 20
3.928275888477399
 30
0.0
  0
VERTEX
  5
5F1
330
5DC
100
AcDbEntity
  8
0
370
    25
100
AcDbVertex
100
AcDb2dVertex
 10
10.8288352072554
 20
3.93327797378412
 30
0.0
  0
VERTEX
  5
5F2
330
5DC
100
AcDbEntity
  8
0
370
    25
100
AcDbVertex
100
AcDb2dVertex
 10
10.8175867616754
 20
3.937023291403889
 30
0.0
  0
VERTEX
  5
5F3
330
5DC
100
AcDbEntity
  8
0
370
    25
100
AcDbVertex
100
AcDb2dVertex
 10
10.80635080881592
 20
3.9395243340574
 30
0.0
  0
VERTEX
  5
5F4
330
5DC
100
AcDbEntity
  8
0
370
    25
100
AcDbVertex
100
AcDb2dVertex
 10
10.79510236323586
 20
3.940768609023839
 30
0.0
  0
VERTEX
  5
5F5
330
5DC
100
AcDbEntity
  8
0
370
    25
100
AcDbVertex
100
AcDb2dVertex
 10
10.78385391765592
 20
3.9395243340574
 30
0.0
  0
VERTEX
  5
5F6
330
5DC
100
AcDbEntity
  8
0
370
    25
100
AcDbVertex
100
AcDb2dVertex
 10
10.77261796479643
 20
3.937023291403889
 30
0.0
  0
VERTEX
  5
5F7
330
5DC
100
AcDbEntity
  8
0
370
    25
100
AcDbVertex
100
AcDb2dVertex
 10
10.76136951921631
 20
3.93327797378412
 30
0.0
  0
VERTEX
  5
5F8
330
5DC
100
AcDbEntity
  8
0
370
    25
100
AcDbVertex
100
AcDb2dVertex
 10
10.7513778413232
 20
3.928275888477399
 30
0.0
  0
VERTEX
  5
5F9
330
5DC
100
AcDbEntity
  8
0
370
    25
100
AcDbVertex
100
AcDb2dVertex
 10
10.74138616343034
 20
3.922029528204182
 30
0.0
  0
VERTEX
  5
5FA
330
5DC
100
AcDbEntity
  8
0
370
    25
100
AcDbVertex
100
AcDb2dVertex
 10
10.73388303547004
 20
3.913294617998026
 30
0.0
  0
VERTEX
  5
5FB
330
5DC
100
AcDbEntity
  8
0
370
    25
100
AcDbVertex
100
AcDb2dVertex
 10
10.72639240023039
 20
3.904547215071416
 30
0.0
  0
VERTEX
  5
5FC
330
5DC
100
AcDbEntity
  8
0
370
    25
100
AcDbVertex
100
AcDb2dVertex
 10
10.72014603995717
 20
3.894555537178491
 30
0.0
  0
VERTEX
  5
5FD
330
5DC
100
AcDbEntity
  8
0
370
    25
100
AcDbVertex
100
AcDb2dVertex
 10
10.71514395465038
 20
3.884551366564867
 30
0.0
  0
VERTEX
  5
5FE
330
5DC
100
AcDbEntity
  8
0
370
    25
100
AcDbVertex
100
AcDb2dVertex
 10
10.71265540471763
 20
3.873315413705379
 30
0.0
  0
VERTEX
  5
5FF
330
5DC
100
AcDbEntity
  8
0
370
    25
100
AcDbVertex
100
AcDb2dVertex
 10
10.71139863703062
 20
3.862066968125316
 30
0.0
  0
VERTEX
  5
600
330
5DC
100
AcDbEntity
  8
0
370
    25
100
AcDbVertex
100
AcDb2dVertex
 10
10.71139863703062
 20
3.850831015266019
 30
0.0
  0
VERTEX
  5
601
330
5DC
100
AcDbEntity
  8
0
370
    25
100
AcDbVertex
100
AcDb2dVertex
 10
10.71265540471763
 20
3.839582569685891
 30
0.0
  0
VERTEX
  5
602
330
5DC
100
AcDbEntity
  8
0
370
    25
100
AcDbVertex
100
AcDb2dVertex
 10
10.71514395465038
 20
3.82833412410583
 30
0.0
  0
VERTEX
  5
603
330
5DC
100
AcDbEntity
  8
0
370
    25
100
AcDbVertex
100
AcDb2dVertex
 10
10.72014603995717
 20
3.817098171246468
 30
0.0
  0
VERTEX
  5
604
330
5DC
100
AcDbEntity
  8
0
370
    25
100
AcDbVertex
100
AcDb2dVertex
 10
10.72639240023039
 20
3.807106493353419
 30
0.0
  0
VERTEX
  5
605
330
5DC
100
AcDbEntity
  8
0
370
    25
100
AcDbVertex
100
AcDb2dVertex
 10
10.73388303547004
 20
3.798359090426749
 30
0.0
  0
VERTEX
  5
606
330
5DC
100
AcDbEntity
  8
0
370
    25
100
AcDbVertex
100
AcDb2dVertex
 10
10.74138616343034
 20
3.790855962466518
 30
0.0
  0
VERTEX
  5
607
330
5DC
100
AcDbEntity
  8
0
370
    25
100
AcDbVertex
100
AcDb2dVertex
 10
10.7513778413232
 20
3.784609602193361
 30
0.0
  0
VERTEX
  5
608
330
5DC
100
AcDbEntity
  8
0
370
    25
100
AcDbVertex
100
AcDb2dVertex
 10
10.76136951921631
 20
3.778363241920077
 30
0.0
  0
VERTEX
  5
609
330
5DC
100
AcDbEntity
  8
0
370
    25
100
AcDbVertex
100
AcDb2dVertex
 10
10.77261796479643
 20
3.774617924300189
 30
0.0
  0
VERTEX
  5
60A
330
5DC
100
AcDbEntity
  8
0
370
    25
100
AcDbVertex
100
AcDb2dVertex
 10
10.78385391765592
 20
3.772116881646919
 30
0.0
  0
VERTEX
  5
60B
330
5DC
100
AcDbEntity
  8
0
370
    25
100
AcDbVertex
100
AcDb2dVertex
 10
10.79510236323586
 20
3.772116881646919
 30
0.0
  0
SEQEND
  5
60C
330
5DC
100
AcDbEntity
  8
0
370
    25
  0
POLYLINE
  5
60D
330
1F
100
AcDbEntity
  8
0
370
    25
100
AcDb2dPolyline
 66
     1
 10
0.0
 20
0.0
 30
0.0
  0
VERTEX
  5
60E
330
60D
100
AcDbEntity
  8
0
370
    25
100
AcDbVertex
100
AcDb2dVertex
 10
8.407487747350858
 20
4.10942033640082
 30
0.0
  0
VERTEX
  5
60F
330
60D
100
AcDbEntity
  8
0
370
    25
100
AcDbVertex
100
AcDb2dVertex
 10
8.397496069710108
 20
4.108176061434257
 30
0.0
  0
VERTEX
  5
610
330
60D
100
AcDbEntity
  8
0
370
    25
100
AcDbVertex
100
AcDb2dVertex
 10
8.387504392069541
 20
4.105675018780991
 30
0.0
  0
VERTEX
  5
611
330
60D
100
AcDbEntity
  8
0
370
    25
100
AcDbVertex
100
AcDb2dVertex
 10
8.377513021316921
 20
4.10192970116116
 30
0.0
  0
VERTEX
  5
612
330
60D
100
AcDbEntity
  8
0
370
    25
100
AcDbVertex
100
AcDb2dVertex
 10
8.368765311723318
 20
4.09692761585432
 30
0.0
  0
VERTEX
  5
613
330
60D
100
AcDbEntity
  8
0
370
    25
100
AcDbVertex
100
AcDb2dVertex
 10
8.361262183952648
 20
4.0894369806146
 30
0.0
  0
VERTEX
  5
614
330
60D
100
AcDbEntity
  8
0
370
    25
100
AcDbVertex
100
AcDb2dVertex
 10
8.353771548902304
 20
4.081946345375004
 30
0.0
  0
VERTEX
  5
615
330
60D
100
AcDbEntity
  8
0
370
    25
100
AcDbVertex
100
AcDb2dVertex
 10
8.348769463721733
 20
4.073198942448456
 30
0.0
  0
VERTEX
  5
616
330
60D
100
AcDbEntity
  8
0
370
    25
100
AcDbVertex
100
AcDb2dVertex
 10
8.34502414619653
 20
4.063207264555286
 30
0.0
  0
VERTEX
  5
617
330
60D
100
AcDbEntity
  8
0
370
    25
100
AcDbVertex
100
AcDb2dVertex
 10
8.342523103606307
 20
4.053203093941725
 30
0.0
  0
VERTEX
  5
618
330
60D
100
AcDbEntity
  8
0
370
    25
100
AcDbVertex
100
AcDb2dVertex
 10
8.341278828671331
 20
4.043211416048798
 30
0.0
  0
SEQEND
  5
619
330
60D
100
AcDbEntity
  8
0
370
    25
  0
POLYLINE
  5
61A
330
1F
100
AcDbEntity
  8
0
370
    25
100
AcDb2dPolyline
 66
     1
 10
0.0
 20
0.0
 30
0.0
  0
VERTEX
  5
61B
330
61A
100
AcDbEntity
  8
0
370
    25
100
AcDbVertex
100
AcDb2dVertex
 10
11.98756990831925
 20
4.10942033640082
 30
0.0
  0
VERTEX
  5
61C
330
61A
100
AcDbEntity
  8
0
370
    25
100
AcDbVertex
100
AcDb2dVertex
 10
8.407487747350858
 20
4.10942033640082
 30
0.0
  0
SEQEND
  5
61D
330
61A
100
AcDbEntity
  8
0
370
    25
  0
POLYLINE
  5
61E
330
1F
100
AcDbEntity
  8
0
370
    25
100
AcDb2dPolyline
 66
     1
 10
0.0
 20
0.0
 30
0.0
  0
VERTEX
  5
61F
330
61E
100
AcDbEntity
  8
0
370
    25
100
AcDbVertex
100
AcDb2dVertex
 10
8.341278828671331
 20
4.043211416048798
 30
0.0
  0
VERTEX
  5
620
330
61E
100
AcDbEntity
  8
0
370
    25
100
AcDbVertex
100
AcDb2dVertex
 10
8.341278828671331
 20
3.406874895905319
 30
0.0
  0
SEQEND
  5
621
330
61E
100
AcDbEntity
  8
0
370
    25
  0
POLYLINE
  5
622
330
1F
100
AcDbEntity
  8
0
370
    20
100
AcDb2dPolyline
 66
     1
 10
0.0
 20
0.0
 30
0.0
  0
VERTEX
  5
623
330
622
100
AcDbEntity
  8
0
370
    20
100
AcDbVertex
100
AcDb2dVertex
 10
10.79287297533893
 20
3.833497237042544
 30
0.0
  0
VERTEX
  5
624
330
622
100
AcDbEntity
  8
0
370
    20
100
AcDbVertex
100
AcDb2dVertex
 10
10.79287297533893
 20
3.899108876984657
 30
0.0
  0
SEQEND
  5
625
330
622
100
AcDbEntity
  8
0
370
    20
  0
POLYLINE
  5
626
330
1F
100
AcDbEntity
  8
0
370
    20
100
AcDb2dPolyline
 66
     1
 10
0.0
 20
0.0
 30
0.0
  0
VERTEX
  5
627
330
626
100
AcDbEntity
  8
0
370
    20
100
AcDbVertex
100
AcDb2dVertex
 10
10.79287297533893
 20
3.824233054165187
 30
0.0
  0
VERTEX
  5
628
330
626
100
AcDbEntity
  8
0
370
    20
100
AcDbVertex
100
AcDb2dVertex
 10
10.79287297533893
 20
3.86988564431977
 30
0.0
  0
SEQEND
  5
629
330
626
100
AcDbEntity
  8
0
370
    20
  0
POLYLINE
  5
62A
330
1F
100
AcDbEntity
  8
0
370
    20
100
AcDb2dPolyline
 66
     1
 10
0.0
 20
0.0
 30
0.0
  0
VERTEX
  5
62B
330
62A
100
AcDbEntity
  8
0
370
    20
100
AcDbVertex
100
AcDb2dVertex
 10
10.75243414268332
 20
3.857538535052036
 30
0.0
  0
VERTEX
  5
62C
330
62A
100
AcDbEntity
  8
0
370
    20
100
AcDbVertex
100
AcDb2dVertex
 10
10.83134509899067
 20
3.857538535052036
 30
0.0
  0
SEQEND
  5
62D
330
62A
100
AcDbEntity
  8
0
370
    20
  0
POLYLINE
  5
62E
330
1F
100
AcDbEntity
  8
0
370
    20
100
AcDb2dPolyline
 66
     1
 10
0.0
 20
0.0
 30
0.0
  0
VERTEX
  5
62F
330
62E
100
AcDbEntity
  8
0
370
    20
100
AcDbVertex
100
AcDb2dVertex
 10
10.34251292661072
 20
3.833497237042544
 30
0.0
  0
VERTEX
  5
630
330
62E
100
AcDbEntity
  8
0
370
    20
100
AcDbVertex
100
AcDb2dVertex
 10
10.34251292661072
 20
3.899108876984657
 30
0.0
  0
SEQEND
  5
631
330
62E
100
AcDbEntity
  8
0
370
    20
  0
POLYLINE
  5
632
330
1F
100
AcDbEntity
  8
0
370
    20
100
AcDb2dPolyline
 66
     1
 10
0.0
 20
0.0
 30
0.0
  0
VERTEX
  5
633
330
632
100
AcDbEntity
  8
0
370
    20
100
AcDbVertex
100
AcDb2dVertex
 10
10.34251292661072
 20
3.824233054165187
 30
0.0
  0
VERTEX
  5
634
330
632
100
AcDbEntity
  8
0
370
    20
100
AcDbVertex
100
AcDb2dVertex
 10
10.34251292661072
 20
3.86988564431977
 30
0.0
  0
SEQEND
  5
635
330
632
100
AcDbEntity
  8
0
370
    20
  0
POLYLINE
  5
636
330
1F
100
AcDbEntity
  8
0
370
    20
100
AcDb2dPolyline
 66
     1
 10
0.0
 20
0.0
 30
0.0
  0
VERTEX
  5
637
330
636
100
AcDbEntity
  8
0
370
    20
100
AcDbVertex
100
AcDb2dVertex
 10
10.30207409395498
 20
3.857538535052036
 30
0.0
  0
VERTEX
  5
638
330
636
100
AcDbEntity
  8
0
370
    20
100
AcDbVertex
100
AcDb2dVertex
 10
10.38098505026245
 20
3.857538535052036
 30
0.0
  0
SEQEND
  5
639
330
636
100
AcDbEntity
  8
0
370
    20
  0
POLYLINE
  5
63A
330
1F
100
AcDbEntity
  8
0
370
    25
100
AcDb2dPolyline
 66
     1
 10
0.0
 20
0.0
 30
0.0
  0
VERTEX
  5
63B
330
63A
100
AcDbEntity
  8
0
370
    25
100
AcDbVertex
100
AcDb2dVertex
 10
11.70206327851694
 20
3.756644839899338
 30
0.0
  0
VERTEX
  5
63C
330
63A
100
AcDbEntity
  8
0
370
    25
100
AcDbVertex
100
AcDb2dVertex
 10
11.713311724097
 20
3.756644839899338
 30
0.0
  0
VERTEX
  5
63D
330
63A
100
AcDbEntity
  8
0
370
    25
100
AcDbVertex
100
AcDb2dVertex
 10
11.72454767695649
 20
3.759145882552608
 30
0.0
  0
VERTEX
  5
63E
330
63A
100
AcDbEntity
  8
0
370
    25
100
AcDbVertex
100
AcDb2dVertex
 10
11.73579612253655
 20
3.762891200172496
 30
0.0
  0
VERTEX
  5
63F
330
63A
100
AcDbEntity
  8
0
370
    25
100
AcDbVertex
100
AcDb2dVertex
 10
11.74578780042942
 20
3.76913756044578
 30
0.0
  0
VERTEX
  5
640
330
63A
100
AcDbEntity
  8
0
370
    25
100
AcDbVertex
100
AcDb2dVertex
 10
11.7557794783224
 20
3.775383920718937
 30
0.0
  0
VERTEX
  5
641
330
63A
100
AcDbEntity
  8
0
370
    25
100
AcDbVertex
100
AcDb2dVertex
 10
11.76328260628263
 20
3.782887048679168
 30
0.0
  0
VERTEX
  5
642
330
63A
100
AcDbEntity
  8
0
370
    25
100
AcDbVertex
100
AcDb2dVertex
 10
11.77077324152229
 20
3.791634451605838
 30
0.0
  0
VERTEX
  5
643
330
63A
100
AcDbEntity
  8
0
370
    25
100
AcDbVertex
100
AcDb2dVertex
 10
11.77701960179551
 20
3.801626129498887
 30
0.0
  0
VERTEX
  5
644
330
63A
100
AcDbEntity
  8
0
370
    25
100
AcDbVertex
100
AcDb2dVertex
 10
11.78202168710235
 20
3.812862082358249
 30
0.0
  0
VERTEX
  5
645
330
63A
100
AcDbEntity
  8
0
370
    25
100
AcDbVertex
100
AcDb2dVertex
 10
11.78451023703523
 20
3.82411052793831
 30
0.0
  0
VERTEX
  5
646
330
63A
100
AcDbEntity
  8
0
370
    25
100
AcDbVertex
100
AcDb2dVertex
 10
11.78576700472218
 20
3.835358973518438
 30
0.0
  0
VERTEX
  5
647
330
63A
100
AcDbEntity
  8
0
370
    25
100
AcDbVertex
100
AcDb2dVertex
 10
11.78576700472218
 20
3.846594926377735
 30
0.0
  0
VERTEX
  5
648
330
63A
100
AcDbEntity
  8
0
370
    25
100
AcDbVertex
100
AcDb2dVertex
 10
11.78451023703523
 20
3.857843371957798
 30
0.0
  0
VERTEX
  5
649
330
63A
100
AcDbEntity
  8
0
370
    25
100
AcDbVertex
100
AcDb2dVertex
 10
11.78202168710235
 20
3.869079324817286
 30
0.0
  0
VERTEX
  5
64A
330
63A
100
AcDbEntity
  8
0
370
    25
100
AcDbVertex
100
AcDb2dVertex
 10
11.77701960179551
 20
3.87908349543091
 30
0.0
  0
VERTEX
  5
64B
330
63A
100
AcDbEntity
  8
0
370
    25
100
AcDbVertex
100
AcDb2dVertex
 10
11.77077324152229
 20
3.889075173323835
 30
0.0
  0
VERTEX
  5
64C
330
63A
100
AcDbEntity
  8
0
370
    25
100
AcDbVertex
100
AcDb2dVertex
 10
11.76328260628263
 20
3.897822576250445
 30
0.0
  0
VERTEX
  5
64D
330
63A
100
AcDbEntity
  8
0
370
    25
100
AcDbVertex
100
AcDb2dVertex
 10
11.7557794783224
 20
3.9065574864566
 30
0.0
  0
VERTEX
  5
64E
330
63A
100
AcDbEntity
  8
0
370
    25
100
AcDbVertex
100
AcDb2dVertex
 10
11.74578780042942
 20
3.912803846729818
 30
0.0
  0
VERTEX
  5
64F
330
63A
100
AcDbEntity
  8
0
370
    25
100
AcDbVertex
100
AcDb2dVertex
 10
11.73579612253655
 20
3.917805932036539
 30
0.0
  0
VERTEX
  5
650
330
63A
100
AcDbEntity
  8
0
370
    25
100
AcDbVertex
100
AcDb2dVertex
 10
11.72454767695649
 20
3.921551249656308
 30
0.0
  0
VERTEX
  5
651
330
63A
100
AcDbEntity
  8
0
370
    25
100
AcDbVertex
100
AcDb2dVertex
 10
11.713311724097
 20
3.924052292309819
 30
0.0
  0
VERTEX
  5
652
330
63A
100
AcDbEntity
  8
0
370
    25
100
AcDbVertex
100
AcDb2dVertex
 10
11.70206327851694
 20
3.925296567276257
 30
0.0
  0
VERTEX
  5
653
330
63A
100
AcDbEntity
  8
0
370
    25
100
AcDbVertex
100
AcDb2dVertex
 10
11.690814832937
 20
3.924052292309819
 30
0.0
  0
VERTEX
  5
654
330
63A
100
AcDbEntity
  8
0
370
    25
100
AcDbVertex
100
AcDb2dVertex
 10
11.67957888007739
 20
3.921551249656308
 30
0.0
  0
VERTEX
  5
655
330
63A
100
AcDbEntity
  8
0
370
    25
100
AcDbVertex
100
AcDb2dVertex
 10
11.66833043449739
 20
3.917805932036539
 30
0.0
  0
VERTEX
  5
656
330
63A
100
AcDbEntity
  8
0
370
    25
100
AcDbVertex
100
AcDb2dVertex
 10
11.65833875660434
 20
3.912803846729818
 30
0.0
  0
VERTEX
  5
657
330
63A
100
AcDbEntity
  8
0
370
    25
100
AcDbVertex
100
AcDb2dVertex
 10
11.64834707871136
 20
3.9065574864566
 30
0.0
  0
VERTEX
  5
658
330
63A
100
AcDbEntity
  8
0
370
    25
100
AcDbVertex
100
AcDb2dVertex
 10
11.64084395075119
 20
3.897822576250445
 30
0.0
  0
VERTEX
  5
659
330
63A
100
AcDbEntity
  8
0
370
    25
100
AcDbVertex
100
AcDb2dVertex
 10
11.63335331551158
 20
3.889075173323835
 30
0.0
  0
VERTEX
  5
65A
330
63A
100
AcDbEntity
  8
0
370
    25
100
AcDbVertex
100
AcDb2dVertex
 10
11.62710695523831
 20
3.87908349543091
 30
0.0
  0
VERTEX
  5
65B
330
63A
100
AcDbEntity
  8
0
370
    25
100
AcDbVertex
100
AcDb2dVertex
 10
11.62210486993153
 20
3.869079324817286
 30
0.0
  0
VERTEX
  5
65C
330
63A
100
AcDbEntity
  8
0
370
    25
100
AcDbVertex
100
AcDb2dVertex
 10
11.61961631999871
 20
3.857843371957798
 30
0.0
  0
VERTEX
  5
65D
330
63A
100
AcDbEntity
  8
0
370
    25
100
AcDbVertex
100
AcDb2dVertex
 10
11.61835955231176
 20
3.846594926377735
 30
0.0
  0
VERTEX
  5
65E
330
63A
100
AcDbEntity
  8
0
370
    25
100
AcDbVertex
100
AcDb2dVertex
 10
11.61835955231176
 20
3.835358973518438
 30
0.0
  0
VERTEX
  5
65F
330
63A
100
AcDbEntity
  8
0
370
    25
100
AcDbVertex
100
AcDb2dVertex
 10
11.61961631999871
 20
3.82411052793831
 30
0.0
  0
VERTEX
  5
660
330
63A
100
AcDbEntity
  8
0
370
    25
100
AcDbVertex
100
AcDb2dVertex
 10
11.62210486993153
 20
3.812862082358249
 30
0.0
  0
VERTEX
  5
661
330
63A
100
AcDbEntity
  8
0
370
    25
100
AcDbVertex
100
AcDb2dVertex
 10
11.62710695523831
 20
3.801626129498887
 30
0.0
  0
VERTEX
  5
662
330
63A
100
AcDbEntity
  8
0
370
    25
100
AcDbVertex
100
AcDb2dVertex
 10
11.63335331551158
 20
3.791634451605838
 30
0.0
  0
VERTEX
  5
663
330
63A
100
AcDbEntity
  8
0
370
    25
100
AcDbVertex
100
AcDb2dVertex
 10
11.64084395075119
 20
3.782887048679168
 30
0.0
  0
VERTEX
  5
664
330
63A
100
AcDbEntity
  8
0
370
    25
100
AcDbVertex
100
AcDb2dVertex
 10
11.64834707871136
 20
3.775383920718937
 30
0.0
  0
VERTEX
  5
665
330
63A
100
AcDbEntity
  8
0
370
    25
100
AcDbVertex
100
AcDb2dVertex
 10
11.65833875660434
 20
3.76913756044578
 30
0.0
  0
VERTEX
  5
666
330
63A
100
AcDbEntity
  8
0
370
    25
100
AcDbVertex
100
AcDb2dVertex
 10
11.66833043449739
 20
3.762891200172496
 30
0.0
  0
VERTEX
  5
667
330
63A
100
AcDbEntity
  8
0
370
    25
100
AcDbVertex
100
AcDb2dVertex
 10
11.67957888007739
 20
3.759145882552608
 30
0.0
  0
VERTEX
  5
668
330
63A
100
AcDbEntity
  8
0
370
    25
100
AcDbVertex
100
AcDb2dVertex
 10
11.690814832937
 20
3.756644839899338
 30
0.0
  0
VERTEX
  5
669
330
63A
100
AcDbEntity
  8
0
370
    25
100
AcDbVertex
100
AcDb2dVertex
 10
11.70206327851694
 20
3.756644839899338
 30
0.0
  0
SEQEND
  5
66A
330
63A
100
AcDbEntity
  8
0
370
    25
  0
POLYLINE
  5
66B
330
1F
100
AcDbEntity
  8
0
370
    20
100
AcDb2dPolyline
 66
     1
 10
0.0
 20
0.0
 30
0.0
  0
VERTEX
  5
66C
330
66B
100
AcDbEntity
  8
0
370
    20
100
AcDbVertex
100
AcDb2dVertex
 10
11.69983389062007
 20
3.818025195294963
 30
0.0
  0
VERTEX
  5
66D
330
66B
100
AcDbEntity
  8
0
370
    20
100
AcDbVertex
100
AcDb2dVertex
 10
11.69983389062007
 20
3.883636835237076
 30
0.0
  0
SEQEND
  5
66E
330
66B
100
AcDbEntity
  8
0
370
    20
  0
POLYLINE
  5
66F
330
1F
100
AcDbEntity
  8
0
370
    20
100
AcDb2dPolyline
 66
     1
 10
0.0
 20
0.0
 30
0.0
  0
VERTEX
  5
670
330
66F
100
AcDbEntity
  8
0
370
    20
100
AcDbVertex
100
AcDb2dVertex
 10
11.69983389062007
 20
3.808761012417605
 30
0.0
  0
VERTEX
  5
671
330
66F
100
AcDbEntity
  8
0
370
    20
100
AcDbVertex
100
AcDb2dVertex
 10
11.69983389062007
 20
3.854413602572188
 30
0.0
  0
SEQEND
  5
672
330
66F
100
AcDbEntity
  8
0
370
    20
  0
POLYLINE
  5
673
330
1F
100
AcDbEntity
  8
0
370
    20
100
AcDb2dPolyline
 66
     1
 10
0.0
 20
0.0
 30
0.0
  0
VERTEX
  5
674
330
673
100
AcDbEntity
  8
0
370
    20
100
AcDbVertex
100
AcDb2dVertex
 10
11.65939505796441
 20
3.842066493304455
 30
0.0
  0
VERTEX
  5
675
330
673
100
AcDbEntity
  8
0
370
    20
100
AcDbVertex
100
AcDb2dVertex
 10
11.73830601427187
 20
3.842066493304455
 30
0.0
  0
SEQEND
  5
676
330
673
100
AcDbEntity
  8
0
370
    20
  0
INSERT
  5
677
330
1F
100
AcDbEntity
  8
0
100
AcDbBlockReference
  2
block 35
 10
-2.084186385039973
 20
-2.503502610847272
 30
0.0
 41
0.0339121932441401
 42
0.0339121932441401
 43
0.0339121932441401
  0
POLYLINE
  5
678
330
1F
100
AcDbEntity
  8
0
370
    20
100
AcDb2dPolyline
 66
     1
 10
0.0
 20
0.0
 30
0.0
  0
VERTEX
  5
679
330
678
100
AcDbEntity
  8
0
370
    20
100
AcDbVertex
100
AcDb2dVertex
 10
9.895987387039696
 20
3.833497220402769
 30
0.0
  0
VERTEX
  5
67A
330
678
100
AcDbEntity
  8
0
370
    20
100
AcDbVertex
100
AcDb2dVertex
 10
9.895987387039696
 20
3.899108860344938
 30
0.0
  0
SEQEND
  5
67B
330
678
100
AcDbEntity
  8
0
370
    20
  0
POLYLINE
  5
67C
330
1F
100
AcDbEntity
  8
0
370
    20
100
AcDb2dPolyline
 66
     1
 10
0.0
 20
0.0
 30
0.0
  0
VERTEX
  5
67D
330
67C
100
AcDbEntity
  8
0
370
    20
100
AcDbVertex
100
AcDb2dVertex
 10
9.895987387039696
 20
3.824233037525595
 30
0.0
  0
VERTEX
  5
67E
330
67C
100
AcDbEntity
  8
0
370
    20
100
AcDbVertex
100
AcDb2dVertex
 10
9.895987387039696
 20
3.869885627680116
 30
0.0
  0
SEQEND
  5
67F
330
67C
100
AcDbEntity
  8
0
370
    20
  0
POLYLINE
  5
680
330
1F
100
AcDbEntity
  8
0
370
    20
100
AcDb2dPolyline
 66
     1
 10
0.0
 20
0.0
 30
0.0
  0
VERTEX
  5
681
330
680
100
AcDbEntity
  8
0
370
    20
100
AcDbVertex
100
AcDb2dVertex
 10
9.855548554383968
 20
3.857538518412319
 30
0.0
  0
VERTEX
  5
682
330
680
100
AcDbEntity
  8
0
370
    20
100
AcDbVertex
100
AcDb2dVertex
 10
9.93445951069143
 20
3.857538518412319
 30
0.0
  0
SEQEND
  5
683
330
680
100
AcDbEntity
  8
0
370
    20
  0
POLYLINE
  5
684
330
1F
100
AcDbEntity
  8
0
370
    18
100
AcDb2dPolyline
 66
     1
 10
0.0
 20
0.0
 30
0.0
  0
VERTEX
  5
685
330
684
100
AcDbEntity
  8
0
370
    18
100
AcDbVertex
100
AcDb2dVertex
 10
6.633318742100493
 20
3.459537189638209
 30
0.0
  0
VERTEX
  5
686
330
684
100
AcDbEntity
  8
0
370
    18
100
AcDbVertex
100
AcDb2dVertex
 10
6.633318742100493
 20
3.459537189638209
 30
0.0
  0
VERTEX
  5
687
330
684
100
AcDbEntity
  8
0
370
    18
100
AcDbVertex
100
AcDb2dVertex
 10
6.741241171178296
 20
3.5168776172738
 30
0.0
  0
VERTEX
  5
688
330
684
100
AcDbEntity
  8
0
370
    18
100
AcDbVertex
100
AcDb2dVertex
 10
6.873604535432198
 20
3.586208563696959
 30
0.0
  0
VERTEX
  5
689
330
684
100
AcDbEntity
  8
0
370
    18
100
AcDbVertex
100
AcDb2dVertex
 10
7.00339971522084
 20
3.655533488585484
 30
0.0
  0
SEQEND
  5
68A
330
684
100
AcDbEntity
  8
0
370
    18
  0
POLYLINE
  5
68B
330
1F
100
AcDbEntity
  8
0
370
    18
100
AcDb2dPolyline
 66
     1
 10
0.0
 20
0.0
 30
0.0
  0
VERTEX
  5
68C
330
68B
100
AcDbEntity
  8
0
370
    18
100
AcDbVertex
100
AcDb2dVertex
 10
5.994471793825321
 20
3.449505719458835
 30
0.0
  0
VERTEX
  5
68D
330
68B
100
AcDbEntity
  8
0
370
    18
100
AcDbVertex
100
AcDb2dVertex
 10
5.994471793825321
 20
3.449505719458835
 30
0.0
  0
VERTEX
  5
68E
330
68B
100
AcDbEntity
  8
0
370
    18
100
AcDbVertex
100
AcDb2dVertex
 10
5.867692142967696
 20
3.5168776172738
 30
0.0
  0
VERTEX
  5
68F
330
68B
100
AcDbEntity
  8
0
370
    18
100
AcDbVertex
100
AcDb2dVertex
 10
5.736569214821257
 20
3.586208563696959
 30
0.0
  0
VERTEX
  5
690
330
68B
100
AcDbEntity
  8
0
370
    18
100
AcDbVertex
100
AcDb2dVertex
 10
5.606779052978042
 20
3.655533488585484
 30
0.0
  0
SEQEND
  5
691
330
68B
100
AcDbEntity
  8
0
370
    18
  0
POLYLINE
  5
692
330
1F
100
AcDbEntity
  8
0
370
    18
100
AcDb2dPolyline
 66
     1
 10
0.0
 20
0.0
 30
0.0
  0
VERTEX
  5
693
330
692
100
AcDbEntity
  8
0
370
    18
100
AcDbVertex
100
AcDb2dVertex
 10
5.606779052978042
 20
3.655533488585484
 30
0.0
  0
VERTEX
  5
694
330
692
100
AcDbEntity
  8
0
370
    18
100
AcDbVertex
100
AcDb2dVertex
 10
5.605499476896295
 20
3.655533488585484
 30
0.0
  0
VERTEX
  5
695
330
692
100
AcDbEntity
  8
0
370
    18
100
AcDbVertex
100
AcDb2dVertex
 10
5.602981471885217
 20
3.655533488585484
 30
0.0
  0
SEQEND
  5
696
330
692
100
AcDbEntity
  8
0
370
    18
  0
POLYLINE
  5
697
330
1F
100
AcDbEntity
  8
0
370
    18
100
AcDb2dPolyline
 66
     1
 10
0.0
 20
0.0
 30
0.0
  0
VERTEX
  5
698
330
697
100
AcDbEntity
  8
0
370
    18
100
AcDbVertex
100
AcDb2dVertex
 10
7.00339971522084
 20
3.655533488585484
 30
0.0
  0
VERTEX
  5
699
330
697
100
AcDbEntity
  8
0
370
    18
100
AcDbVertex
100
AcDb2dVertex
 10
7.00339971522084
 20
3.655533488585484
 30
0.0
  0
SEQEND
  5
69A
330
697
100
AcDbEntity
  8
0
370
    18
  0
POLYLINE
  5
69B
330
1F
100
AcDbEntity
  8
0
370
    18
100
AcDb2dPolyline
 66
     1
 10
0.0
 20
0.0
 30
0.0
  0
VERTEX
  5
69C
330
69B
100
AcDbEntity
  8
0
370
    18
100
AcDbVertex
100
AcDb2dVertex
 10
5.605499476896295
 20
3.655533488585484
 30
0.0
  0
VERTEX
  5
69D
330
69B
100
AcDbEntity
  8
0
370
    18
100
AcDbVertex
100
AcDb2dVertex
 10
5.602981471885217
 20
3.655533488585484
 30
0.0
  0
SEQEND
  5
69E
330
69B
100
AcDbEntity
  8
0
370
    18
  0
POLYLINE
  5
69F
330
1F
100
AcDbEntity
  8
0
370
    18
100
AcDb2dPolyline
 66
     1
 10
0.0
 20
0.0
 30
0.0
  0
VERTEX
  5
6A0
330
69F
100
AcDbEntity
  8
0
370
    18
100
AcDbVertex
100
AcDb2dVertex
 10
7.00339971522084
 20
3.655533488585484
 30
0.0
  0
VERTEX
  5
6A1
330
69F
100
AcDbEntity
  8
0
370
    18
100
AcDbVertex
100
AcDb2dVertex
 10
7.00339971522084
 20
3.655533488585484
 30
0.0
  0
SEQEND
  5
6A2
330
69F
100
AcDbEntity
  8
0
370
    18
  0
POLYLINE
  5
6A3
330
1F
100
AcDbEntity
  8
0
370
    18
100
AcDb2dPolyline
 66
     1
 10
0.0
 20
0.0
 30
0.0
  0
VERTEX
  5
6A4
330
6A3
100
AcDbEntity
  8
0
370
    18
100
AcDbVertex
100
AcDb2dVertex
 10
7.070210647703305
 20
3.449505719458835
 30
0.0
  0
VERTEX
  5
6A5
330
6A3
100
AcDbEntity
  8
0
370
    18
100
AcDbVertex
100
AcDb2dVertex
 10
7.070210647703305
 20
3.655533488585484
 30
0.0
  0
SEQEND
  5
6A6
330
6A3
100
AcDbEntity
  8
0
370
    18
  0
POLYLINE
  5
6A7
330
1F
100
AcDbEntity
  8
0
370
    18
100
AcDb2dPolyline
 66
     1
 10
0.0
 20
0.0
 30
0.0
  0
VERTEX
  5
6A8
330
6A7
100
AcDbEntity
  8
0
370
    18
100
AcDbVertex
100
AcDb2dVertex
 10
5.538673490577616
 20
3.655533488585484
 30
0.0
  0
VERTEX
  5
6A9
330
6A7
100
AcDbEntity
  8
0
370
    18
100
AcDbVertex
100
AcDb2dVertex
 10
5.538673490577616
 20
3.449505719458835
 30
0.0
  0
SEQEND
  5
6AA
330
6A7
100
AcDbEntity
  8
0
370
    18
  0
POLYLINE
  5
6AB
330
1F
100
AcDbEntity
  8
0
370
    18
100
AcDb2dPolyline
 66
     1
 10
0.0
 20
0.0
 30
0.0
  0
VERTEX
  5
6AC
330
6AB
100
AcDbEntity
  8
0
370
    18
100
AcDbVertex
100
AcDb2dVertex
 10
7.070210647703305
 20
3.655533488585484
 30
0.0
  0
VERTEX
  5
6AD
330
6AB
100
AcDbEntity
  8
0
370
    18
100
AcDbVertex
100
AcDb2dVertex
 10
7.068980247486657
 20
3.665627587844664
 30
0.0
  0
VERTEX
  5
6AE
330
6AB
100
AcDbEntity
  8
0
370
    18
100
AcDbVertex
100
AcDb2dVertex
 10
7.067706692939327
 20
3.675712654801956
 30
0.0
  0
VERTEX
  5
6AF
330
6AB
100
AcDbEntity
  8
0
370
    18
100
AcDbVertex
100
AcDb2dVertex
 10
7.062678711629821
 20
3.685787685868029
 30
0.0
  0
VERTEX
  5
6B0
330
6AB
100
AcDbEntity
  8
0
370
    18
100
AcDbVertex
100
AcDb2dVertex
 10
7.0576115903461
 20
3.694618266438899
 30
0.0
  0
VERTEX
  5
6B1
330
6AB
100
AcDbEntity
  8
0
370
    18
100
AcDbVertex
100
AcDb2dVertex
 10
7.051300018598388
 20
3.703443829064218
 30
0.0
  0
VERTEX
  5
6B2
330
6AB
100
AcDbEntity
  8
0
370
    18
100
AcDbVertex
100
AcDb2dVertex
 10
7.042489510032363
 20
3.709745365080171
 30
0.0
  0
VERTEX
  5
6B3
330
6AB
100
AcDbEntity
  8
0
370
    18
100
AcDbVertex
100
AcDb2dVertex
 10
7.033679001466161
 20
3.716042886739725
 30
0.0
  0
VERTEX
  5
6B4
330
6AB
100
AcDbEntity
  8
0
370
    18
100
AcDbVertex
100
AcDb2dVertex
 10
7.023583898872933
 20
3.719825414091917
 30
0.0
  0
VERTEX
  5
6B5
330
6AB
100
AcDbEntity
  8
0
370
    18
100
AcDbVertex
100
AcDb2dVertex
 10
7.013488796279554
 20
3.722354458646771
 30
0.0
  0
VERTEX
  5
6B6
330
6AB
100
AcDbEntity
  8
0
370
    18
100
AcDbVertex
100
AcDb2dVertex
 10
7.00339971522084
 20
3.722354458646771
 30
0.0
  0
SEQEND
  5
6B7
330
6AB
100
AcDbEntity
  8
0
370
    18
  0
POLYLINE
  5
6B8
330
1F
100
AcDbEntity
  8
0
370
    18
100
AcDb2dPolyline
 66
     1
 10
0.0
 20
0.0
 30
0.0
  0
VERTEX
  5
6B9
330
6B8
100
AcDbEntity
  8
0
370
    18
100
AcDbVertex
100
AcDb2dVertex
 10
5.605499476896295
 20
3.722354458646771
 30
0.0
  0
VERTEX
  5
6BA
330
6B8
100
AcDbEntity
  8
0
370
    18
100
AcDbVertex
100
AcDb2dVertex
 10
5.595395342001181
 20
3.722354458646771
 30
0.0
  0
VERTEX
  5
6BB
330
6B8
100
AcDbEntity
  8
0
370
    18
100
AcDbVertex
100
AcDb2dVertex
 10
5.585310275298805
 20
3.719825414091917
 30
0.0
  0
VERTEX
  5
6BC
330
6B8
100
AcDbEntity
  8
0
370
    18
100
AcDbVertex
100
AcDb2dVertex
 10
5.575264348570589
 20
3.716042886739725
 30
0.0
  0
VERTEX
  5
6BD
330
6B8
100
AcDbEntity
  8
0
370
    18
100
AcDbVertex
100
AcDb2dVertex
 10
5.566394628248557
 20
3.709745365080171
 30
0.0
  0
VERTEX
  5
6BE
330
6B8
100
AcDbEntity
  8
0
370
    18
100
AcDbVertex
100
AcDb2dVertex
 10
5.558863695764189
 20
3.703438811118732
 30
0.0
  0
VERTEX
  5
6BF
330
6B8
100
AcDbEntity
  8
0
370
    18
100
AcDbVertex
100
AcDb2dVertex
 10
5.551287601771003
 20
3.694618266438899
 30
0.0
  0
VERTEX
  5
6C0
330
6B8
100
AcDbEntity
  8
0
370
    18
100
AcDbVertex
100
AcDb2dVertex
 10
5.546264638406988
 20
3.685787685868029
 30
0.0
  0
VERTEX
  5
6C1
330
6B8
100
AcDbEntity
  8
0
370
    18
100
AcDbVertex
100
AcDb2dVertex
 10
5.542467057314135
 20
3.675707636856346
 30
0.0
  0
VERTEX
  5
6C2
330
6B8
100
AcDbEntity
  8
0
370
    18
100
AcDbVertex
100
AcDb2dVertex
 10
5.539953066659307
 20
3.665627587844664
 30
0.0
  0
VERTEX
  5
6C3
330
6B8
100
AcDbEntity
  8
0
370
    18
100
AcDbVertex
100
AcDb2dVertex
 10
5.538673490577616
 20
3.655533488585484
 30
0.0
  0
SEQEND
  5
6C4
330
6B8
100
AcDbEntity
  8
0
370
    18
  0
POLYLINE
  5
6C5
330
1F
100
AcDbEntity
  8
0
370
    18
100
AcDb2dPolyline
 66
     1
 10
0.0
 20
0.0
 30
0.0
  0
VERTEX
  5
6C6
330
6C5
100
AcDbEntity
  8
0
370
    18
100
AcDbVertex
100
AcDb2dVertex
 10
7.00339971522084
 20
3.722354458646771
 30
0.0
  0
VERTEX
  5
6C7
330
6C5
100
AcDbEntity
  8
0
370
    18
100
AcDbVertex
100
AcDb2dVertex
 10
5.605499476896295
 20
3.722354458646771
 30
0.0
  0
SEQEND
  5
6C8
330
6C5
100
AcDbEntity
  8
0
370
    18
  0
POLYLINE
  5
6C9
330
1F
100
AcDbEntity
  8
0
370
    18
100
AcDb2dPolyline
 66
     1
 10
0.0
 20
0.0
 30
0.0
  0
VERTEX
  5
6CA
330
6C9
100
AcDbEntity
  8
0
370
    18
100
AcDbVertex
100
AcDb2dVertex
 10
4.90811272788059
 20
3.449505719458835
 30
0.0
  0
VERTEX
  5
6CB
330
6C9
100
AcDbEntity
  8
0
370
    18
100
AcDbVertex
100
AcDb2dVertex
 10
4.90811272788059
 20
3.449505719458835
 30
0.0
  0
VERTEX
  5
6CC
330
6C9
100
AcDbEntity
  8
0
370
    18
100
AcDbVertex
100
AcDb2dVertex
 10
5.035737927764952
 20
3.508062090539576
 30
0.0
  0
VERTEX
  5
6CD
330
6C9
100
AcDbEntity
  8
0
370
    18
100
AcDbVertex
100
AcDb2dVertex
 10
5.198345392802842
 20
3.582435068646839
 30
0.0
  0
VERTEX
  5
6CE
330
6C9
100
AcDbEntity
  8
0
370
    18
100
AcDbVertex
100
AcDb2dVertex
 10
5.358424876782382
 20
3.655533488585484
 30
0.0
  0
SEQEND
  5
6CF
330
6C9
100
AcDbEntity
  8
0
370
    18
  0
POLYLINE
  5
6D0
330
1F
100
AcDbEntity
  8
0
370
    18
100
AcDb2dPolyline
 66
     1
 10
0.0
 20
0.0
 30
0.0
  0
VERTEX
  5
6D1
330
6D0
100
AcDbEntity
  8
0
370
    18
100
AcDbVertex
100
AcDb2dVertex
 10
4.127719662010782
 20
3.449505719458835
 30
0.0
  0
VERTEX
  5
6D2
330
6D0
100
AcDbEntity
  8
0
370
    18
100
AcDbVertex
100
AcDb2dVertex
 10
4.127719662010782
 20
3.449505719458835
 30
0.0
  0
VERTEX
  5
6D3
330
6D0
100
AcDbEntity
  8
0
370
    18
100
AcDbVertex
100
AcDb2dVertex
 10
3.999600383022047
 20
3.508062090539576
 30
0.0
  0
VERTEX
  5
6D4
330
6D0
100
AcDbEntity
  8
0
370
    18
100
AcDbVertex
100
AcDb2dVertex
 10
3.836977804304494
 20
3.582435068646839
 30
0.0
  0
VERTEX
  5
6D5
330
6D0
100
AcDbEntity
  8
0
370
    18
100
AcDbVertex
100
AcDb2dVertex
 10
3.67688427007789
 20
3.655533488585484
 30
0.0
  0
SEQEND
  5
6D6
330
6D0
100
AcDbEntity
  8
0
370
    18
  0
POLYLINE
  5
6D7
330
1F
100
AcDbEntity
  8
0
370
    18
100
AcDb2dPolyline
 66
     1
 10
0.0
 20
0.0
 30
0.0
  0
VERTEX
  5
6D8
330
6D7
100
AcDbEntity
  8
0
370
    18
100
AcDbVertex
100
AcDb2dVertex
 10
5.358424876782382
 20
3.655533488585484
 30
0.0
  0
VERTEX
  5
6D9
330
6D7
100
AcDbEntity
  8
0
370
    18
100
AcDbVertex
100
AcDb2dVertex
 10
5.358424876782382
 20
3.655533488585484
 30
0.0
  0
SEQEND
  5
6DA
330
6D7
100
AcDbEntity
  8
0
370
    18
  0
POLYLINE
  5
6DB
330
1F
100
AcDbEntity
  8
0
370
    18
100
AcDb2dPolyline
 66
     1
 10
0.0
 20
0.0
 30
0.0
  0
VERTEX
  5
6DC
330
6DB
100
AcDbEntity
  8
0
370
    18
100
AcDbVertex
100
AcDb2dVertex
 10
3.67688427007789
 20
3.655533488585484
 30
0.0
  0
VERTEX
  5
6DD
330
6DB
100
AcDbEntity
  8
0
370
    18
100
AcDbVertex
100
AcDb2dVertex
 10
3.67688427007789
 20
3.655533488585484
 30
0.0
  0
VERTEX
  5
6DE
330
6DB
100
AcDbEntity
  8
0
370
    18
100
AcDbVertex
100
AcDb2dVertex
 10
3.674370279423185
 20
3.655533488585484
 30
0.0
  0
SEQEND
  5
6DF
330
6DB
100
AcDbEntity
  8
0
370
    18
  0
POLYLINE
  5
6E0
330
1F
100
AcDbEntity
  8
0
370
    18
100
AcDb2dPolyline
 66
     1
 10
0.0
 20
0.0
 30
0.0
  0
VERTEX
  5
6E1
330
6E0
100
AcDbEntity
  8
0
370
    18
100
AcDbVertex
100
AcDb2dVertex
 10
3.67688427007789
 20
3.655533488585484
 30
0.0
  0
VERTEX
  5
6E2
330
6E0
100
AcDbEntity
  8
0
370
    18
100
AcDbVertex
100
AcDb2dVertex
 10
3.674370279423185
 20
3.655533488585484
 30
0.0
  0
SEQEND
  5
6E3
330
6E0
100
AcDbEntity
  8
0
370
    18
  0
POLYLINE
  5
6E4
330
1F
100
AcDbEntity
  8
0
370
    18
100
AcDb2dPolyline
 66
     1
 10
0.0
 20
0.0
 30
0.0
  0
VERTEX
  5
6E5
330
6E4
100
AcDbEntity
  8
0
370
    18
100
AcDbVertex
100
AcDb2dVertex
 10
5.358424876782382
 20
3.655533488585484
 30
0.0
  0
VERTEX
  5
6E6
330
6E4
100
AcDbEntity
  8
0
370
    18
100
AcDbVertex
100
AcDb2dVertex
 10
5.358424876782382
 20
3.655533488585484
 30
0.0
  0
SEQEND
  5
6E7
330
6E4
100
AcDbEntity
  8
0
370
    18
  0
POLYLINE
  5
6E8
330
1F
100
AcDbEntity
  8
0
370
    18
100
AcDb2dPolyline
 66
     1
 10
0.0
 20
0.0
 30
0.0
  0
VERTEX
  5
6E9
330
6E8
100
AcDbEntity
  8
0
370
    18
100
AcDbVertex
100
AcDb2dVertex
 10
3.610087411671145
 20
3.655533488585484
 30
0.0
  0
VERTEX
  5
6EA
330
6E8
100
AcDbEntity
  8
0
370
    18
100
AcDbVertex
100
AcDb2dVertex
 10
3.610087411671145
 20
3.449505719458835
 30
0.0
  0
SEQEND
  5
6EB
330
6E8
100
AcDbEntity
  8
0
370
    18
  0
POLYLINE
  5
6EC
330
1F
100
AcDbEntity
  8
0
370
    18
100
AcDb2dPolyline
 66
     1
 10
0.0
 20
0.0
 30
0.0
  0
VERTEX
  5
6ED
330
6EC
100
AcDbEntity
  8
0
370
    18
100
AcDbVertex
100
AcDb2dVertex
 10
5.425235809264782
 20
3.449505719458835
 30
0.0
  0
VERTEX
  5
6EE
330
6EC
100
AcDbEntity
  8
0
370
    18
100
AcDbVertex
100
AcDb2dVertex
 10
5.425235809264782
 20
3.655533488585484
 30
0.0
  0
SEQEND
  5
6EF
330
6EC
100
AcDbEntity
  8
0
370
    18
  0
POLYLINE
  5
6F0
330
1F
100
AcDbEntity
  8
0
370
    18
100
AcDb2dPolyline
 66
     1
 10
0.0
 20
0.0
 30
0.0
  0
VERTEX
  5
6F1
330
6F0
100
AcDbEntity
  8
0
370
    18
100
AcDbVertex
100
AcDb2dVertex
 10
5.358424876782382
 20
3.722354458646771
 30
0.0
  0
VERTEX
  5
6F2
330
6F0
100
AcDbEntity
  8
0
370
    18
100
AcDbVertex
100
AcDb2dVertex
 10
3.67688427007789
 20
3.722354458646771
 30
0.0
  0
SEQEND
  5
6F3
330
6F0
100
AcDbEntity
  8
0
370
    18
  0
POLYLINE
  5
6F4
330
1F
100
AcDbEntity
  8
0
370
    18
100
AcDb2dPolyline
 66
     1
 10
0.0
 20
0.0
 30
0.0
  0
VERTEX
  5
6F5
330
6F4
100
AcDbEntity
  8
0
370
    18
100
AcDbVertex
100
AcDb2dVertex
 10
3.67688427007789
 20
3.722354458646771
 30
0.0
  0
VERTEX
  5
6F6
330
6F4
100
AcDbEntity
  8
0
370
    18
100
AcDbVertex
100
AcDb2dVertex
 10
3.666813278884165
 20
3.722354458646771
 30
0.0
  0
VERTEX
  5
6F7
330
6F4
100
AcDbEntity
  8
0
370
    18
100
AcDbVertex
100
AcDb2dVertex
 10
3.656719179624925
 20
3.719825414091917
 30
0.0
  0
VERTEX
  5
6F8
330
6F4
100
AcDbEntity
  8
0
370
    18
100
AcDbVertex
100
AcDb2dVertex
 10
3.64664414855876
 20
3.716042886739725
 30
0.0
  0
VERTEX
  5
6F9
330
6F4
100
AcDbEntity
  8
0
370
    18
100
AcDbVertex
100
AcDb2dVertex
 10
3.637808550042402
 20
3.709745365080171
 30
0.0
  0
VERTEX
  5
6FA
330
6F4
100
AcDbEntity
  8
0
370
    18
100
AcDbVertex
100
AcDb2dVertex
 10
3.63025252764006
 20
3.703443829064218
 30
0.0
  0
VERTEX
  5
6FB
330
6F4
100
AcDbEntity
  8
0
370
    18
100
AcDbVertex
100
AcDb2dVertex
 10
3.622691487292167
 20
3.694618266438899
 30
0.0
  0
VERTEX
  5
6FC
330
6F4
100
AcDbEntity
  8
0
370
    18
100
AcDbVertex
100
AcDb2dVertex
 10
3.617648452019005
 20
3.685787685868029
 30
0.0
  0
VERTEX
  5
6FD
330
6F4
100
AcDbEntity
  8
0
370
    18
100
AcDbVertex
100
AcDb2dVertex
 10
3.613855888775777
 20
3.676967141188255
 30
0.0
  0
VERTEX
  5
6FE
330
6F4
100
AcDbEntity
  8
0
370
    18
100
AcDbVertex
100
AcDb2dVertex
 10
3.611341898057506
 20
3.665627587844664
 30
0.0
  0
VERTEX
  5
6FF
330
6F4
100
AcDbEntity
  8
0
370
    18
100
AcDbVertex
100
AcDb2dVertex
 10
3.610087411671145
 20
3.655533488585484
 30
0.0
  0
SEQEND
  5
700
330
6F4
100
AcDbEntity
  8
0
370
    18
  0
POLYLINE
  5
701
330
1F
100
AcDbEntity
  8
0
370
    18
100
AcDb2dPolyline
 66
     1
 10
0.0
 20
0.0
 30
0.0
  0
VERTEX
  5
702
330
701
100
AcDbEntity
  8
0
370
    18
100
AcDbVertex
100
AcDb2dVertex
 10
5.425235809264782
 20
3.655533488585484
 30
0.0
  0
VERTEX
  5
703
330
701
100
AcDbEntity
  8
0
370
    18
100
AcDbVertex
100
AcDb2dVertex
 10
5.425235809264782
 20
3.665627587844664
 30
0.0
  0
VERTEX
  5
704
330
701
100
AcDbEntity
  8
0
370
    18
100
AcDbVertex
100
AcDb2dVertex
 10
5.422712786308284
 20
3.676967141188255
 30
0.0
  0
VERTEX
  5
705
330
701
100
AcDbEntity
  8
0
370
    18
100
AcDbVertex
100
AcDb2dVertex
 10
5.417698855245935
 20
3.685787685868029
 30
0.0
  0
VERTEX
  5
706
330
701
100
AcDbEntity
  8
0
370
    18
100
AcDbVertex
100
AcDb2dVertex
 10
5.412622701660391
 20
3.694618266438899
 30
0.0
  0
VERTEX
  5
707
330
701
100
AcDbEntity
  8
0
370
    18
100
AcDbVertex
100
AcDb2dVertex
 10
5.406325180159896
 20
3.703438811118732
 30
0.0
  0
VERTEX
  5
708
330
701
100
AcDbEntity
  8
0
370
    18
100
AcDbVertex
100
AcDb2dVertex
 10
5.397504635703025
 20
3.709745365080171
 30
0.0
  0
VERTEX
  5
709
330
701
100
AcDbEntity
  8
0
370
    18
100
AcDbVertex
100
AcDb2dVertex
 10
5.388679073300639
 20
3.716042886739725
 30
0.0
  0
VERTEX
  5
70A
330
701
100
AcDbEntity
  8
0
370
    18
100
AcDbVertex
100
AcDb2dVertex
 10
5.378584974296405
 20
3.719825414091917
 30
0.0
  0
VERTEX
  5
70B
330
701
100
AcDbEntity
  8
0
370
    18
100
AcDbVertex
100
AcDb2dVertex
 10
5.36851897578655
 20
3.722354458646771
 30
0.0
  0
VERTEX
  5
70C
330
701
100
AcDbEntity
  8
0
370
    18
100
AcDbVertex
100
AcDb2dVertex
 10
5.358424876782382
 20
3.722354458646771
 30
0.0
  0
SEQEND
  5
70D
330
701
100
AcDbEntity
  8
0
370
    18
  0
POLYLINE
  5
70E
330
1F
100
AcDbEntity
  8
0
370
    18
100
AcDb2dPolyline
 66
     1
 10
0.0
 20
0.0
 30
0.0
  0
VERTEX
  5
70F
330
70E
100
AcDbEntity
  8
0
370
    18
100
AcDbVertex
100
AcDb2dVertex
 10
11.49069864474704
 20
3.386206455090884
 30
0.0
  0
VERTEX
  5
710
330
70E
100
AcDbEntity
  8
0
370
    18
100
AcDbVertex
100
AcDb2dVertex
 10
11.49069864474704
 20
3.386206455090884
 30
0.0
  0
VERTEX
  5
711
330
70E
100
AcDbEntity
  8
0
370
    18
100
AcDbVertex
100
AcDb2dVertex
 10
11.59862107382482
 20
3.443546882726476
 30
0.0
  0
VERTEX
  5
712
330
70E
100
AcDbEntity
  8
0
370
    18
100
AcDbVertex
100
AcDb2dVertex
 10
11.73098443807869
 20
3.512877829149635
 30
0.0
  0
VERTEX
  5
713
330
70E
100
AcDbEntity
  8
0
370
    18
100
AcDbVertex
100
AcDb2dVertex
 10
11.86077961786736
 20
3.582202754038161
 30
0.0
  0
SEQEND
  5
714
330
70E
100
AcDbEntity
  8
0
370
    18
  0
POLYLINE
  5
715
330
1F
100
AcDbEntity
  8
0
370
    18
100
AcDb2dPolyline
 66
     1
 10
0.0
 20
0.0
 30
0.0
  0
VERTEX
  5
716
330
715
100
AcDbEntity
  8
0
370
    18
100
AcDbVertex
100
AcDb2dVertex
 10
10.85185169647187
 20
3.37617498491151
 30
0.0
  0
VERTEX
  5
717
330
715
100
AcDbEntity
  8
0
370
    18
100
AcDbVertex
100
AcDb2dVertex
 10
10.85185169647187
 20
3.37617498491151
 30
0.0
  0
VERTEX
  5
718
330
715
100
AcDbEntity
  8
0
370
    18
100
AcDbVertex
100
AcDb2dVertex
 10
10.72507204561428
 20
3.443546882726476
 30
0.0
  0
VERTEX
  5
719
330
715
100
AcDbEntity
  8
0
370
    18
100
AcDbVertex
100
AcDb2dVertex
 10
10.59394911746781
 20
3.512877829149635
 30
0.0
  0
VERTEX
  5
71A
330
715
100
AcDbEntity
  8
0
370
    18
100
AcDbVertex
100
AcDb2dVertex
 10
10.46415895562462
 20
3.582202754038161
 30
0.0
  0
SEQEND
  5
71B
330
715
100
AcDbEntity
  8
0
370
    18
  0
POLYLINE
  5
71C
330
1F
100
AcDbEntity
  8
0
370
    18
100
AcDb2dPolyline
 66
     1
 10
0.0
 20
0.0
 30
0.0
  0
VERTEX
  5
71D
330
71C
100
AcDbEntity
  8
0
370
    18
100
AcDbVertex
100
AcDb2dVertex
 10
10.46415895562462
 20
3.582202754038161
 30
0.0
  0
VERTEX
  5
71E
330
71C
100
AcDbEntity
  8
0
370
    18
100
AcDbVertex
100
AcDb2dVertex
 10
10.46287937954285
 20
3.582202754038161
 30
0.0
  0
VERTEX
  5
71F
330
71C
100
AcDbEntity
  8
0
370
    18
100
AcDbVertex
100
AcDb2dVertex
 10
10.46036137453176
 20
3.582202754038161
 30
0.0
  0
SEQEND
  5
720
330
71C
100
AcDbEntity
  8
0
370
    18
  0
POLYLINE
  5
721
330
1F
100
AcDbEntity
  8
0
370
    18
100
AcDb2dPolyline
 66
     1
 10
0.0
 20
0.0
 30
0.0
  0
VERTEX
  5
722
330
721
100
AcDbEntity
  8
0
370
    18
100
AcDbVertex
100
AcDb2dVertex
 10
11.86077961786736
 20
3.582202754038161
 30
0.0
  0
VERTEX
  5
723
330
721
100
AcDbEntity
  8
0
370
    18
100
AcDbVertex
100
AcDb2dVertex
 10
11.86077961786736
 20
3.582202754038161
 30
0.0
  0
SEQEND
  5
724
330
721
100
AcDbEntity
  8
0
370
    18
  0
POLYLINE
  5
725
330
1F
100
AcDbEntity
  8
0
370
    18
100
AcDb2dPolyline
 66
     1
 10
0.0
 20
0.0
 30
0.0
  0
VERTEX
  5
726
330
725
100
AcDbEntity
  8
0
370
    18
100
AcDbVertex
100
AcDb2dVertex
 10
10.46287937954285
 20
3.582202754038161
 30
0.0
  0
VERTEX
  5
727
330
725
100
AcDbEntity
  8
0
370
    18
100
AcDbVertex
100
AcDb2dVertex
 10
10.46036137453176
 20
3.582202754038161
 30
0.0
  0
SEQEND
  5
728
330
725
100
AcDbEntity
  8
0
370
    18
  0
POLYLINE
  5
729
330
1F
100
AcDbEntity
  8
0
370
    18
100
AcDb2dPolyline
 66
     1
 10
0.0
 20
0.0
 30
0.0
  0
VERTEX
  5
72A
330
729
100
AcDbEntity
  8
0
370
    18
100
AcDbVertex
100
AcDb2dVertex
 10
11.86077961786736
 20
3.582202754038161
 30
0.0
  0
VERTEX
  5
72B
330
729
100
AcDbEntity
  8
0
370
    18
100
AcDbVertex
100
AcDb2dVertex
 10
11.86077961786736
 20
3.582202754038161
 30
0.0
  0
SEQEND
  5
72C
330
729
100
AcDbEntity
  8
0
370
    18
  0
POLYLINE
  5
72D
330
1F
100
AcDbEntity
  8
0
370
    18
100
AcDb2dPolyline
 66
     1
 10
0.0
 20
0.0
 30
0.0
  0
VERTEX
  5
72E
330
72D
100
AcDbEntity
  8
0
370
    18
100
AcDbVertex
100
AcDb2dVertex
 10
11.92759055034989
 20
3.37617498491151
 30
0.0
  0
VERTEX
  5
72F
330
72D
100
AcDbEntity
  8
0
370
    18
100
AcDbVertex
100
AcDb2dVertex
 10
11.92759055034989
 20
3.582202754038161
 30
0.0
  0
SEQEND
  5
730
330
72D
100
AcDbEntity
  8
0
370
    18
  0
POLYLINE
  5
731
330
1F
100
AcDbEntity
  8
0
370
    18
100
AcDb2dPolyline
 66
     1
 10
0.0
 20
0.0
 30
0.0
  0
VERTEX
  5
732
330
731
100
AcDbEntity
  8
0
370
    18
100
AcDbVertex
100
AcDb2dVertex
 10
10.39605339322417
 20
3.582202754038161
 30
0.0
  0
VERTEX
  5
733
330
731
100
AcDbEntity
  8
0
370
    18
100
AcDbVertex
100
AcDb2dVertex
 10
10.39605339322417
 20
3.37617498491151
 30
0.0
  0
SEQEND
  5
734
330
731
100
AcDbEntity
  8
0
370
    18
  0
POLYLINE
  5
735
330
1F
100
AcDbEntity
  8
0
370
    18
100
AcDb2dPolyline
 66
     1
 10
0.0
 20
0.0
 30
0.0
  0
VERTEX
  5
736
330
735
100
AcDbEntity
  8
0
370
    18
100
AcDbVertex
100
AcDb2dVertex
 10
11.92759055034989
 20
3.582202754038161
 30
0.0
  0
VERTEX
  5
737
330
735
100
AcDbEntity
  8
0
370
    18
100
AcDbVertex
100
AcDb2dVertex
 10
11.92636015013321
 20
3.592296853297341
 30
0.0
  0
VERTEX
  5
738
330
735
100
AcDbEntity
  8
0
370
    18
100
AcDbVertex
100
AcDb2dVertex
 10
11.92508659558587
 20
3.602381920254633
 30
0.0
  0
VERTEX
  5
739
330
735
100
AcDbEntity
  8
0
370
    18
100
AcDbVertex
100
AcDb2dVertex
 10
11.92005861427641
 20
3.612456951320707
 30
0.0
  0
VERTEX
  5
73A
330
735
100
AcDbEntity
  8
0
370
    18
100
AcDbVertex
100
AcDb2dVertex
 10
11.91499149299262
 20
3.621287531891576
 30
0.0
  0
VERTEX
  5
73B
330
735
100
AcDbEntity
  8
0
370
    18
100
AcDbVertex
100
AcDb2dVertex
 10
11.90867992124497
 20
3.630113094516894
 30
0.0
  0
VERTEX
  5
73C
330
735
100
AcDbEntity
  8
0
370
    18
100
AcDbVertex
100
AcDb2dVertex
 10
11.89986941267892
 20
3.636414630532848
 30
0.0
  0
VERTEX
  5
73D
330
735
100
AcDbEntity
  8
0
370
    18
100
AcDbVertex
100
AcDb2dVertex
 10
11.89105890411274
 20
3.642712152192399
 30
0.0
  0
VERTEX
  5
73E
330
735
100
AcDbEntity
  8
0
370
    18
100
AcDbVertex
100
AcDb2dVertex
 10
11.88096380151948
 20
3.646494679544594
 30
0.0
  0
VERTEX
  5
73F
330
735
100
AcDbEntity
  8
0
370
    18
100
AcDbVertex
100
AcDb2dVertex
 10
11.8708686989261
 20
3.649023724099449
 30
0.0
  0
VERTEX
  5
740
330
735
100
AcDbEntity
  8
0
370
    18
100
AcDbVertex
100
AcDb2dVertex
 10
11.86077961786736
 20
3.649023724099449
 30
0.0
  0
SEQEND
  5
741
330
735
100
AcDbEntity
  8
0
370
    18
  0
POLYLINE
  5
742
330
1F
100
AcDbEntity
  8
0
370
    18
100
AcDb2dPolyline
 66
     1
 10
0.0
 20
0.0
 30
0.0
  0
VERTEX
  5
743
330
742
100
AcDbEntity
  8
0
370
    18
100
AcDbVertex
100
AcDb2dVertex
 10
10.46287937954285
 20
3.649023724099449
 30
0.0
  0
VERTEX
  5
744
330
742
100
AcDbEntity
  8
0
370
    18
100
AcDbVertex
100
AcDb2dVertex
 10
10.45277524464777
 20
3.649023724099449
 30
0.0
  0
VERTEX
  5
745
330
742
100
AcDbEntity
  8
0
370
    18
100
AcDbVertex
100
AcDb2dVertex
 10
10.44269017794535
 20
3.646494679544594
 30
0.0
  0
VERTEX
  5
746
330
742
100
AcDbEntity
  8
0
370
    18
100
AcDbVertex
100
AcDb2dVertex
 10
10.43264425121714
 20
3.642712152192399
 30
0.0
  0
VERTEX
  5
747
330
742
100
AcDbEntity
  8
0
370
    18
100
AcDbVertex
100
AcDb2dVertex
 10
10.42377453089508
 20
3.636414630532848
 30
0.0
  0
VERTEX
  5
748
330
742
100
AcDbEntity
  8
0
370
    18
100
AcDbVertex
100
AcDb2dVertex
 10
10.41624359841074
 20
3.63010807657141
 30
0.0
  0
VERTEX
  5
749
330
742
100
AcDbEntity
  8
0
370
    18
100
AcDbVertex
100
AcDb2dVertex
 10
10.40866750441758
 20
3.621287531891576
 30
0.0
  0
VERTEX
  5
74A
330
742
100
AcDbEntity
  8
0
370
    18
100
AcDbVertex
100
AcDb2dVertex
 10
10.40364454105354
 20
3.612456951320707
 30
0.0
  0
VERTEX
  5
74B
330
742
100
AcDbEntity
  8
0
370
    18
100
AcDbVertex
100
AcDb2dVertex
 10
10.39984695996069
 20
3.602376902309024
 30
0.0
  0
VERTEX
  5
74C
330
742
100
AcDbEntity
  8
0
370
    18
100
AcDbVertex
100
AcDb2dVertex
 10
10.39733296930589
 20
3.592296853297341
 30
0.0
  0
VERTEX
  5
74D
330
742
100
AcDbEntity
  8
0
370
    18
100
AcDbVertex
100
AcDb2dVertex
 10
10.39605339322417
 20
3.582202754038161
 30
0.0
  0
SEQEND
  5
74E
330
742
100
AcDbEntity
  8
0
370
    18
  0
POLYLINE
  5
74F
330
1F
100
AcDbEntity
  8
0
370
    18
100
AcDb2dPolyline
 66
     1
 10
0.0
 20
0.0
 30
0.0
  0
VERTEX
  5
750
330
74F
100
AcDbEntity
  8
0
370
    18
100
AcDbVertex
100
AcDb2dVertex
 10
11.86077961786736
 20
3.649023724099449
 30
0.0
  0
VERTEX
  5
751
330
74F
100
AcDbEntity
  8
0
370
    18
100
AcDbVertex
100
AcDb2dVertex
 10
10.46287937954285
 20
3.649023724099449
 30
0.0
  0
SEQEND
  5
752
330
74F
100
AcDbEntity
  8
0
370
    18
  0
POLYLINE
  5
753
330
1F
100
AcDbEntity
  8
0
370
    18
100
AcDb2dPolyline
 66
     1
 10
0.0
 20
0.0
 30
0.0
  0
VERTEX
  5
754
330
753
100
AcDbEntity
  8
0
370
    18
100
AcDbVertex
100
AcDb2dVertex
 10
9.765492630527146
 20
3.37617498491151
 30
0.0
  0
VERTEX
  5
755
330
753
100
AcDbEntity
  8
0
370
    18
100
AcDbVertex
100
AcDb2dVertex
 10
9.765492630527146
 20
3.37617498491151
 30
0.0
  0
VERTEX
  5
756
330
753
100
AcDbEntity
  8
0
370
    18
100
AcDbVertex
100
AcDb2dVertex
 10
9.89311783041151
 20
3.434731355992254
 30
0.0
  0
VERTEX
  5
757
330
753
100
AcDbEntity
  8
0
370
    18
100
AcDbVertex
100
AcDb2dVertex
 10
10.05572529544937
 20
3.509104334099515
 30
0.0
  0
VERTEX
  5
758
330
753
100
AcDbEntity
  8
0
370
    18
100
AcDbVertex
100
AcDb2dVertex
 10
10.2158047794289
 20
3.582202754038161
 30
0.0
  0
SEQEND
  5
759
330
753
100
AcDbEntity
  8
0
370
    18
  0
POLYLINE
  5
75A
330
1F
100
AcDbEntity
  8
0
370
    18
100
AcDb2dPolyline
 66
     1
 10
0.0
 20
0.0
 30
0.0
  0
VERTEX
  5
75B
330
75A
100
AcDbEntity
  8
0
370
    18
100
AcDbVertex
100
AcDb2dVertex
 10
8.985099564657335
 20
3.37617498491151
 30
0.0
  0
VERTEX
  5
75C
330
75A
100
AcDbEntity
  8
0
370
    18
100
AcDbVertex
100
AcDb2dVertex
 10
8.985099564657335
 20
3.37617498491151
 30
0.0
  0
VERTEX
  5
75D
330
75A
100
AcDbEntity
  8
0
370
    18
100
AcDbVertex
100
AcDb2dVertex
 10
8.856980285668639
 20
3.434731355992254
 30
0.0
  0
VERTEX
  5
75E
330
75A
100
AcDbEntity
  8
0
370
    18
100
AcDbVertex
100
AcDb2dVertex
 10
8.694357706951082
 20
3.509104334099515
 30
0.0
  0
VERTEX
  5
75F
330
75A
100
AcDbEntity
  8
0
370
    18
100
AcDbVertex
100
AcDb2dVertex
 10
8.534264172724416
 20
3.582202754038161
 30
0.0
  0
SEQEND
  5
760
330
75A
100
AcDbEntity
  8
0
370
    18
  0
POLYLINE
  5
761
330
1F
100
AcDbEntity
  8
0
370
    18
100
AcDb2dPolyline
 66
     1
 10
0.0
 20
0.0
 30
0.0
  0
VERTEX
  5
762
330
761
100
AcDbEntity
  8
0
370
    18
100
AcDbVertex
100
AcDb2dVertex
 10
10.2158047794289
 20
3.582202754038161
 30
0.0
  0
VERTEX
  5
763
330
761
100
AcDbEntity
  8
0
370
    18
100
AcDbVertex
100
AcDb2dVertex
 10
10.2158047794289
 20
3.582202754038161
 30
0.0
  0
SEQEND
  5
764
330
761
100
AcDbEntity
  8
0
370
    18
  0
POLYLINE
  5
765
330
1F
100
AcDbEntity
  8
0
370
    18
100
AcDb2dPolyline
 66
     1
 10
0.0
 20
0.0
 30
0.0
  0
VERTEX
  5
766
330
765
100
AcDbEntity
  8
0
370
    18
100
AcDbVertex
100
AcDb2dVertex
 10
8.534264172724416
 20
3.582202754038161
 30
0.0
  0
VERTEX
  5
767
330
765
100
AcDbEntity
  8
0
370
    18
100
AcDbVertex
100
AcDb2dVertex
 10
8.534264172724416
 20
3.582202754038161
 30
0.0
  0
VERTEX
  5
768
330
765
100
AcDbEntity
  8
0
370
    18
100
AcDbVertex
100
AcDb2dVertex
 10
8.531750182069679
 20
3.582202754038161
 30
0.0
  0
SEQEND
  5
769
330
765
100
AcDbEntity
  8
0
370
    18
  0
POLYLINE
  5
76A
330
1F
100
AcDbEntity
  8
0
370
    18
100
AcDb2dPolyline
 66
     1
 10
0.0
 20
0.0
 30
0.0
  0
VERTEX
  5
76B
330
76A
100
AcDbEntity
  8
0
370
    18
100
AcDbVertex
100
AcDb2dVertex
 10
8.534264172724416
 20
3.582202754038161
 30
0.0
  0
VERTEX
  5
76C
330
76A
100
AcDbEntity
  8
0
370
    18
100
AcDbVertex
100
AcDb2dVertex
 10
8.531750182069679
 20
3.582202754038161
 30
0.0
  0
SEQEND
  5
76D
330
76A
100
AcDbEntity
  8
0
370
    18
  0
POLYLINE
  5
76E
330
1F
100
AcDbEntity
  8
0
370
    18
100
AcDb2dPolyline
 66
     1
 10
0.0
 20
0.0
 30
0.0
  0
VERTEX
  5
76F
330
76E
100
AcDbEntity
  8
0
370
    18
100
AcDbVertex
100
AcDb2dVertex
 10
10.2158047794289
 20
3.582202754038161
 30
0.0
  0
VERTEX
  5
770
330
76E
100
AcDbEntity
  8
0
370
    18
100
AcDbVertex
100
AcDb2dVertex
 10
10.2158047794289
 20
3.582202754038161
 30
0.0
  0
SEQEND
  5
771
330
76E
100
AcDbEntity
  8
0
370
    18
  0
POLYLINE
  5
772
330
1F
100
AcDbEntity
  8
0
370
    18
100
AcDb2dPolyline
 66
     1
 10
0.0
 20
0.0
 30
0.0
  0
VERTEX
  5
773
330
772
100
AcDbEntity
  8
0
370
    18
100
AcDbVertex
100
AcDb2dVertex
 10
8.467467314317733
 20
3.582202754038161
 30
0.0
  0
VERTEX
  5
774
330
772
100
AcDbEntity
  8
0
370
    18
100
AcDbVertex
100
AcDb2dVertex
 10
8.467467314317733
 20
3.37617498491151
 30
0.0
  0
SEQEND
  5
775
330
772
100
AcDbEntity
  8
0
370
    18
  0
POLYLINE
  5
776
330
1F
100
AcDbEntity
  8
0
370
    18
100
AcDb2dPolyline
 66
     1
 10
0.0
 20
0.0
 30
0.0
  0
VERTEX
  5
777
330
776
100
AcDbEntity
  8
0
370
    18
100
AcDbVertex
100
AcDb2dVertex
 10
10.28261571191136
 20
3.37617498491151
 30
0.0
  0
VERTEX
  5
778
330
776
100
AcDbEntity
  8
0
370
    18
100
AcDbVertex
100
AcDb2dVertex
 10
10.28261571191136
 20
3.582202754038161
 30
0.0
  0
SEQEND
  5
779
330
776
100
AcDbEntity
  8
0
370
    18
  0
POLYLINE
  5
77A
330
1F
100
AcDbEntity
  8
0
370
    18
100
AcDb2dPolyline
 66
     1
 10
0.0
 20
0.0
 30
0.0
  0
VERTEX
  5
77B
330
77A
100
AcDbEntity
  8
0
370
    18
100
AcDbVertex
100
AcDb2dVertex
 10
10.2158047794289
 20
3.649023724099449
 30
0.0
  0
VERTEX
  5
77C
330
77A
100
AcDbEntity
  8
0
370
    18
100
AcDbVertex
100
AcDb2dVertex
 10
8.534264172724416
 20
3.649023724099449
 30
0.0
  0
SEQEND
  5
77D
330
77A
100
AcDbEntity
  8
0
370
    18
  0
POLYLINE
  5
77E
330
1F
100
AcDbEntity
  8
0
370
    18
100
AcDb2dPolyline
 66
     1
 10
0.0
 20
0.0
 30
0.0
  0
VERTEX
  5
77F
330
77E
100
AcDbEntity
  8
0
370
    18
100
AcDbVertex
100
AcDb2dVertex
 10
8.534264172724416
 20
3.649023724099449
 30
0.0
  0
VERTEX
  5
780
330
77E
100
AcDbEntity
  8
0
370
    18
100
AcDbVertex
100
AcDb2dVertex
 10
8.524193181530694
 20
3.649023724099449
 30
0.0
  0
VERTEX
  5
781
330
77E
100
AcDbEntity
  8
0
370
    18
100
AcDbVertex
100
AcDb2dVertex
 10
8.514099082271512
 20
3.646494679544594
 30
0.0
  0
VERTEX
  5
782
330
77E
100
AcDbEntity
  8
0
370
    18
100
AcDbVertex
100
AcDb2dVertex
 10
8.504024051205313
 20
3.642712152192399
 30
0.0
  0
VERTEX
  5
783
330
77E
100
AcDbEntity
  8
0
370
    18
100
AcDbVertex
100
AcDb2dVertex
 10
8.49518845268896
 20
3.636414630532848
 30
0.0
  0
VERTEX
  5
784
330
77E
100
AcDbEntity
  8
0
370
    18
100
AcDbVertex
100
AcDb2dVertex
 10
8.487632430286648
 20
3.630113094516894
 30
0.0
  0
VERTEX
  5
785
330
77E
100
AcDbEntity
  8
0
370
    18
100
AcDbVertex
100
AcDb2dVertex
 10
8.48007138993872
 20
3.621287531891576
 30
0.0
  0
VERTEX
  5
786
330
77E
100
AcDbEntity
  8
0
370
    18
100
AcDbVertex
100
AcDb2dVertex
 10
8.47502835466553
 20
3.612456951320707
 30
0.0
  0
VERTEX
  5
787
330
77E
100
AcDbEntity
  8
0
370
    18
100
AcDbVertex
100
AcDb2dVertex
 10
8.471235791422305
 20
3.603636406640931
 30
0.0
  0
VERTEX
  5
788
330
77E
100
AcDbEntity
  8
0
370
    18
100
AcDbVertex
100
AcDb2dVertex
 10
8.468721800704031
 20
3.592296853297341
 30
0.0
  0
VERTEX
  5
789
330
77E
100
AcDbEntity
  8
0
370
    18
100
AcDbVertex
100
AcDb2dVertex
 10
8.467467314317733
 20
3.582202754038161
 30
0.0
  0
SEQEND
  5
78A
330
77E
100
AcDbEntity
  8
0
370
    18
  0
POLYLINE
  5
78B
330
1F
100
AcDbEntity
  8
0
370
    18
100
AcDb2dPolyline
 66
     1
 10
0.0
 20
0.0
 30
0.0
  0
VERTEX
  5
78C
330
78B
100
AcDbEntity
  8
0
370
    18
100
AcDbVertex
100
AcDb2dVertex
 10
10.28261571191136
 20
3.582202754038161
 30
0.0
  0
VERTEX
  5
78D
330
78B
100
AcDbEntity
  8
0
370
    18
100
AcDbVertex
100
AcDb2dVertex
 10
10.28261571191136
 20
3.592296853297341
 30
0.0
  0
VERTEX
  5
78E
330
78B
100
AcDbEntity
  8
0
370
    18
100
AcDbVertex
100
AcDb2dVertex
 10
10.28009268895487
 20
3.603636406640931
 30
0.0
  0
VERTEX
  5
78F
330
78B
100
AcDbEntity
  8
0
370
    18
100
AcDbVertex
100
AcDb2dVertex
 10
10.27507875789246
 20
3.612456951320707
 30
0.0
  0
VERTEX
  5
790
330
78B
100
AcDbEntity
  8
0
370
    18
100
AcDbVertex
100
AcDb2dVertex
 10
10.27000260430691
 20
3.621287531891576
 30
0.0
  0
VERTEX
  5
791
330
78B
100
AcDbEntity
  8
0
370
    18
100
AcDbVertex
100
AcDb2dVertex
 10
10.26370508280645
 20
3.63010807657141
 30
0.0
  0
VERTEX
  5
792
330
78B
100
AcDbEntity
  8
0
370
    18
100
AcDbVertex
100
AcDb2dVertex
 10
10.25488453834961
 20
3.636414630532848
 30
0.0
  0
VERTEX
  5
793
330
78B
100
AcDbEntity
  8
0
370
    18
100
AcDbVertex
100
AcDb2dVertex
 10
10.24605897594722
 20
3.642712152192399
 30
0.0
  0
VERTEX
  5
794
330
78B
100
AcDbEntity
  8
0
370
    18
100
AcDbVertex
100
AcDb2dVertex
 10
10.23596487694293
 20
3.646494679544594
 30
0.0
  0
VERTEX
  5
795
330
78B
100
AcDbEntity
  8
0
370
    18
100
AcDbVertex
100
AcDb2dVertex
 10
10.22589887843313
 20
3.649023724099449
 30
0.0
  0
VERTEX
  5
796
330
78B
100
AcDbEntity
  8
0
370
    18
100
AcDbVertex
100
AcDb2dVertex
 10
10.2158047794289
 20
3.649023724099449
 30
0.0
  0
SEQEND
  5
797
330
78B
100
AcDbEntity
  8
0
370
    18
  0
ENDSEC
  0
SECTION
  2
OBJECTS
  0
DICTIONARY
  5
C
330
0
100
AcDbDictionary
281
     1
  3
ACAD_CIP_PREVIOUS_PRODUCT_INFO
350
239
  3
ACAD_COLOR
350
22E
  3
ACAD_DETAILVIEWSTYLE
350
235
  3
ACAD_GROUP
350
D
  3
ACAD_LAYOUT
350
1A
  3
ACAD_MATERIAL
350
1FC
  3
ACAD_MLEADERSTYLE
350
231
  3
ACAD_MLINESTYLE
350
17
  3
ACAD_PLOTSETTINGS
350
19
  3
ACAD_PLOTSTYLENAME
350
E
  3
ACAD_SCALELIST
350
47
  3
ACAD_SECTIONVIEWSTYLE
350
233
  3
ACAD_TABLESTYLE
350
22F
  3
ACAD_VISUALSTYLE
350
215
  3
ACDB_RECOMPOSE_DATA
350
7B9
  3
AcDbVariableDictionary
350
7A9
  0
DICTIONARY
  5
245
330
2
100
AcDbDictionary
280
     1
281
     1
  3
ACAD_LAYERSTATES
360
246
  0
DICTIONARY
  5
798
330
10
100
AcDbDictionary
280
     1
281
     1
  3
ADSK_XREC_LAYER_RECONCILED
360
799
  0
DICTIONARY
  5
79A
330
73
100
AcDbDictionary
280
     1
281
     1
  3
ADSK_XREC_LAYER_RECONCILED
360
79B
  0
DICTIONARY
  5
79C
330
74
100
AcDbDictionary
280
     1
281
     1
  3
ADSK_XREC_LAYER_RECONCILED
360
79D
  0
DICTIONARY
  5
79E
330
75
100
AcDbDictionary
280
     1
281
     1
  3
ADSK_XREC_LAYER_RECONCILED
360
79F
  0
DICTIONARY
  5
7A0
330
76
100
AcDbDictionary
280
     1
281
     1
  3
ADSK_XREC_LAYER_RECONCILED
360
7A1
  0
DICTIONARY
  5
7A2
330
77
100
AcDbDictionary
280
     1
281
     1
  3
ADSK_XREC_LAYER_RECONCILED
360
7A3
  0
DICTIONARY
  5
7A4
330
78
100
AcDbDictionary
280
     1
281
     1
  3
ADSK_XREC_LAYER_RECONCILED
360
7A5
  0
DICTIONARY
  5
7A6
330
79
100
AcDbDictionary
280
     1
281
     1
  3
ADSK_XREC_LAYER_RECONCILED
360
7A7
  0
DICTIONARY
  5
242
330
241
100
AcDbDictionary
280
     1
281
     1
  3
ADSK_XREC_LAYER_RECONCILED
360
7A8
  0
XRECORD
  5
239
102
{ACAD_REACTORS
330
C
102
}
330
C
100
AcDbXrecord
280
     1
300
AMECH_PP
300
2015
300
86266PDSP_2015_0F
  0
DICTIONARY
  5
22E
102
{ACAD_REACTORS
330
C
102
}
330
C
100
AcDbDictionary
281
     1
  0
DICTIONARY
  5
235
102
{ACAD_REACTORS
330
C
102
}
330
C
100
AcDbDictionary
281
     1
  3
Imperial24
350
236
  0
DICTIONARY
  5
D
102
{ACAD_REACTORS
330
C
102
}
330
C
100
AcDbDictionary
281
     1
  0
DICTIONARY
  5
1A
102
{ACAD_REACTORS
330
C
102
}
330
C
100
AcDbDictionary
281
     1
  3
Layout1
350
1E
  3
Layout2
350
26
  3
Model
350
22
  0
DICTIONARY
  5
1FC
102
{ACAD_REACTORS
330
C
102
}
330
C
100
AcDbDictionary
281
     1
  3
ByBlock
350
205
  3
ByLayer
350
1FD
  3
Global
350
20D
  0
DICTIONARY
  5
231
102
{ACAD_REACTORS
330
C
102
}
330
C
100
AcDbDictionary
281
     1
  3
Standard
350
232
  0
DICTIONARY
  5
17
102
{ACAD_REACTORS
330
C
102
}
330
C
100
AcDbDictionary
281
     1
  3
Standard
350
18
  0
DICTIONARY
  5
19
102
{ACAD_REACTORS
330
C
102
}
330
C
100
AcDbDictionary
281
     1
  0
ACDBDICTIONARYWDFLT
  5
E
102
{ACAD_REACTORS
330
C
102
}
330
C
100
AcDbDictionary
281
     1
  3
Normal
350
F
100
AcDbDictionaryWithDefault
340
F
  0
DICTIONARY
  5
47
102
{ACAD_REACTORS
330
C
102
}
330
C
100
AcDbDictionary
281
     1
  3
A0
350
48
  3
A1
350
49
  3
A2
350
4A
  3
A3
350
4B
  3
A4
350
4C
  3
A5
350
4D
  3
A6
350
4E
  3
A7
350
4F
  3
A8
350
50
  3
A9
350
51
  3
B0
350
52
  3
B1
350
53
  3
B2
350
54
  3
B3
350
55
  3
B4
350
56
  3
B5
350
57
  3
B6
350
58
  3
B7
350
59
  3
B8
350
5A
  3
B9
350
5B
  3
C0
350
5C
  3
C1
350
5D
  3
C2
350
5E
  3
C3
350
5F
  3
C4
350
60
  3
C5
350
61
  3
C6
350
62
  3
C7
350
63
  3
C8
350
64
  3
C9
350
65
  3
D0
350
66
  3
D1
350
67
  3
D2
350
68
  0
DICTIONARY
  5
233
102
{ACAD_REACTORS
330
C
102
}
330
C
100
AcDbDictionary
281
     1
  3
Imperial24
350
234
  0
DICTIONARY
  5
22F
102
{ACAD_REACTORS
330
C
102
}
330
C
100
AcDbDictionary
281
     1
  3
Standard
350
230
  0
DICTIONARY
  5
215
102
{ACAD_REACTORS
330
C
102
}
330
C
100
AcDbDictionary
281
     1
  3
2dWireframe
350
21B
  3
Basic
350
21A
  3
Brighten
350
221
  3
ColorChange
350
225
  3
Conceptual
350
21E
  3
Dim
350
220
  3
EdgeColorOff
350
22D
  3
Facepattern
350
224
  3
Flat
350
216
  3
FlatWithEdges
350
217
  3
Gouraud
350
218
  3
GouraudWithEdges
350
219
  3
Hidden
350
21D
  3
JitterOff
350
22B
  3
Linepattern
350
223
  3
OverhangOff
350
22C
  3
Realistic
350
21F
  3
Shaded
350
22A
  3
Shaded with edges
350
229
  3
Shades of Gray
350
226
  3
Sketchy
350
227
  3
Thicken
350
222
  3
Wireframe
350
21C
  3
X-Ray
350
228
  0
XRECORD
  5
7B9
102
{ACAD_REACTORS
330
C
102
}
330
C
100
AcDbXrecord
280
     1
 90
        1
330
230
330
234
330
236
  0
DICTIONARY
  5
7A9
102
{ACAD_REACTORS
330
C
102
}
330
C
100
AcDbDictionary
281
     1
  3
CANNOSCALE
350
7AF
  3
CMLEADERSTYLE
350
7AB
  3
CTABLESTYLE
350
7AA
  3
CVIEWDETAILSTYLE
350
7AC
  3
CVIEWSECTIONSTYLE
350
7AD
  3
LAYEREVAL
350
7B1
  3
LAYERNOTIFY
350
7B2
  3
LIGHTINGUNITS
350
7B0
  3
MSLTSCALE
350
7AE
  0
DICTIONARY
  5
246
102
{ACAD_REACTORS
330
245
102
}
330
245
100
AcDbDictionary
281
     1
  0
XRECORD
  5
799
102
{ACAD_REACTORS
330
798
102
}
330
798
100
AcDbXrecord
280
     1
290
     1
  0
XRECORD
  5
79B
102
{ACAD_REACTORS
330
79A
102
}
330
79A
100
AcDbXrecord
280
     1
290
     1
  0
XRECORD
  5
79D
102
{ACAD_REACTORS
330
79C
102
}
330
79C
100
AcDbXrecord
280
     1
290
     1
  0
XRECORD
  5
79F
102
{ACAD_REACTORS
330
79E
102
}
330
79E
100
AcDbXrecord
280
     1
290
     1
  0
XRECORD
  5
7A1
102
{ACAD_REACTORS
330
7A0
102
}
330
7A0
100
AcDbXrecord
280
     1
290
     1
  0
XRECORD
  5
7A3
102
{ACAD_REACTORS
330
7A2
102
}
330
7A2
100
AcDbXrecord
280
     1
290
     1
  0
XRECORD
  5
7A5
102
{ACAD_REACTORS
330
7A4
102
}
330
7A4
100
AcDbXrecord
280
     1
290
     1
  0
XRECORD
  5
7A7
102
{ACAD_REACTORS
330
7A6
102
}
330
7A6
100
AcDbXrecord
280
     1
290
     1
  0
XRECORD
  5
7A8
102
{ACAD_REACTORS
330
242
102
}
330
242
100
AcDbXrecord
280
     1
290
     1
  0
ACDBDETAILVIEWSTYLE
  5
236
102
{ACAD_XDICTIONARY
360
7B7
102
}
102
{ACAD_REACTORS
330
235
102
}
330
235
100
AcDbModelDocViewStyle
 70
     0
  3
Imperial24
290
     0
100
AcDbDetailViewStyle
 70
     0
 71
     0
 90
        3
 71
     1
340
11
 62
   256
 40
0.24
340
0
 62
   256
 40
0.24
300

 40
0.36
280
     3
 71
     2
340
16
 90
       25
 62
   256
 71
     3
340
11
 62
   256
 40
0.24
 90
        1
 40
0.75
 90
        1
300
%<\AcVar ViewType \f "%tc1">% %<\AcVar ViewDetailId>%\PSCALE %<\AcVar ViewScale \f "%sn">%
 71
     4
340
16
 90
       25
 62
   256
340
16
 90
       25
 62
   256
280
     0
  0
LAYOUT
  5
1E
102
{ACAD_REACTORS
330
1A
102
}
330
1A
100
AcDbPlotSettings
  1

  2
none_device
  4

  6

 40
0.0
 41
0.0
 42
0.0
 43
0.0
 44
0.0
 45
0.0
 46
0.0
 47
0.0
 48
0.0
 49
0.0
140
0.0
141
0.0
142
1.0
143
1.0
 70
   688
 72
     0
 73
     0
 74
     5
  7

 75
    16
147
1.0
 76
     0
 77
     2
 78
   300
148
0.0
149
0.0
100
AcDbLayout
  1
Layout1
 70
     1
 71
     1
 10
0.0
 20
0.0
 11
12.0
 21
9.0
 12
0.0
 22
0.0
 32
0.0
 14
1.000000000000000E+20
 24
1.000000000000000E+20
 34
1.000000000000000E+20
 15
-1.000000000000000E+20
 25
-1.000000000000000E+20
 35
-1.000000000000000E+20
146
0.0
 13
0.0
 23
0.0
 33
0.0
 16
1.0
 26
0.0
 36
0.0
 17
0.0
 27
1.0
 37
0.0
 76
     0
330
1B
  0
LAYOUT
  5
26
102
{ACAD_REACTORS
330
1A
102
}
330
1A
100
AcDbPlotSettings
  1

  2
none_device
  4

  6

 40
0.0
 41
0.0
 42
0.0
 43
0.0
 44
0.0
 45
0.0
 46
0.0
 47
0.0
 48
0.0
 49
0.0
140
0.0
141
0.0
142
1.0
143
1.0
 70
   688
 72
     0
 73
     0
 74
     5
  7

 75
    16
147
1.0
 76
     0
 77
     2
 78
   300
148
0.0
149
0.0
100
AcDbLayout
  1
Layout2
 70
     1
 71
     2
 10
0.0
 20
0.0
 11
0.0
 21
0.0
 12
0.0
 22
0.0
 32
0.0
 14
0.0
 24
0.0
 34
0.0
 15
0.0
 25
0.0
 35
0.0
146
0.0
 13
0.0
 23
0.0
 33
0.0
 16
1.0
 26
0.0
 36
0.0
 17
0.0
 27
1.0
 37
0.0
 76
     0
330
23
  0
LAYOUT
  5
22
102
{ACAD_REACTORS
330
1A
102
}
330
1A
100
AcDbPlotSettings
  1

  2
none_device
  4
Letter_(8.50_x_11.00_Inches)
  6

 40
6.349999999999999
 41
6.349999999999999
 42
6.350005079999999
 43
6.350005079999999
 44
215.9
 45
279.4
 46
0.0
 47
0.0
 48
0.0
 49
0.0
140
0.0
141
0.0
142
1.0
143
1.0
 70
  1712
 72
     0
 73
     0
 74
     0
  7

 75
     0
147
1.0
 76
     0
 77
     2
 78
   300
148
0.0
149
0.0
100
AcDbLayout
  1
Model
 70
     1
 71
     0
 10
0.0
 20
0.0
 11
34.0
 21
24.0
 12
0.0
 22
0.0
 32
0.0
 14
0.0
 24
0.0
 34
0.0
 15
34.0
 25
24.0
 35
0.0
146
0.0
 13
0.0
 23
0.0
 33
0.0
 16
1.0
 26
0.0
 36
0.0
 17
0.0
 27
1.0
 37
0.0
 76
     0
330
1F
331
29
  0
MATERIAL
  5
205
102
{ACAD_XDICTIONARY
360
206
102
}
102
{ACAD_REACTORS
330
1FC
102
}
330
1FC
100
AcDbMaterial
  1
ByBlock
 72
     0
 43
0.0208333333333333
 43
0.0
 43
0.0
 43
0.0
 43
0.0
 43
0.0208333333333333
 43
0.0
 43
0.0
 43
0.0
 43
0.0
 43
1.0
 43
0.0
 43
0.0
 43
0.0
 43
0.0
 43
1.0
 77
     0
 47
0.0208333333333333
 47
0.0
 47
0.0
 47
0.0
 47
0.0
 47
0.0208333333333333
 47
0.0
 47
0.0
 47
0.0
 47
0.0
 47
1.0
 47
0.0
 47
0.0
 47
0.0
 47
0.0
 47
1.0
171
     0
 49
0.0208333333333333
 49
0.0
 49
0.0
 49
0.0
 49
0.0
 49
0.0208333333333333
 49
0.0
 49
0.0
 49
0.0
 49
0.0
 49
1.0
 49
0.0
 49
0.0
 49
0.0
 49
0.0
 49
1.0
175
     0
142
0.0208333333333333
142
0.0
142
0.0
142
0.0
142
0.0
142
0.0208333333333333
142
0.0
142
0.0
142
0.0
142
0.0
142
1.0
142
0.0
142
0.0
142
0.0
142
0.0
142
1.0
179
     0
144
0.0208333333333333
144
0.0
144
0.0
144
0.0
144
0.0
144
0.0208333333333333
144
0.0
144
0.0
144
0.0
144
0.0
144
1.0
144
0.0
144
0.0
144
0.0
144
0.0
144
1.0
147
0.0208333333333333
147
0.0
147
0.0
147
0.0
147
0.0
147
0.0208333333333333
147
0.0
147
0.0
147
0.0
147
0.0
147
1.0
147
0.0
147
0.0
147
0.0
147
0.0
147
1.0
  0
MATERIAL
  5
1FD
102
{ACAD_XDICTIONARY
360
1FE
102
}
102
{ACAD_REACTORS
330
1FC
102
}
330
1FC
100
AcDbMaterial
  1
ByLayer
 72
     0
 43
0.0208333333333333
 43
0.0
 43
0.0
 43
0.0
 43
0.0
 43
0.0208333333333333
 43
0.0
 43
0.0
 43
0.0
 43
0.0
 43
1.0
 43
0.0
 43
0.0
 43
0.0
 43
0.0
 43
1.0
 77
     0
 47
0.0208333333333333
 47
0.0
 47
0.0
 47
0.0
 47
0.0
 47
0.0208333333333333
 47
0.0
 47
0.0
 47
0.0
 47
0.0
 47
1.0
 47
0.0
 47
0.0
 47
0.0
 47
0.0
 47
1.0
171
     0
 49
0.0208333333333333
 49
0.0
 49
0.0
 49
0.0
 49
0.0
 49
0.0208333333333333
 49
0.0
 49
0.0
 49
0.0
 49
0.0
 49
1.0
 49
0.0
 49
0.0
 49
0.0
 49
0.0
 49
1.0
175
     0
142
0.0208333333333333
142
0.0
142
0.0
142
0.0
142
0.0
142
0.0208333333333333
142
0.0
142
0.0
142
0.0
142
0.0
142
1.0
142
0.0
142
0.0
142
0.0
142
0.0
142
1.0
179
     0
144
0.0208333333333333
144
0.0
144
0.0
144
0.0
144
0.0
144
0.0208333333333333
144
0.0
144
0.0
144
0.0
144
0.0
144
1.0
144
0.0
144
0.0
144
0.0
144
0.0
144
1.0
147
0.0208333333333333
147
0.0
147
0.0
147
0.0
147
0.0
147
0.0208333333333333
147
0.0
147
0.0
147
0.0
147
0.0
147
1.0
147
0.0
147
0.0
147
0.0
147
0.0
147
1.0
  0
MATERIAL
  5
20D
102
{ACAD_XDICTIONARY
360
20E
102
}
102
{ACAD_REACTORS
330
1FC
102
}
330
1FC
100
AcDbMaterial
  1
Global
 72
     0
 43
0.0208333333333333
 43
0.0
 43
0.0
 43
0.0
 43
0.0
 43
0.0208333333333333
 43
0.0
 43
0.0
 43
0.0
 43
0.0
 43
1.0
 43
0.0
 43
0.0
 43
0.0
 43
0.0
 43
1.0
 77
     0
 47
0.0208333333333333
 47
0.0
 47
0.0
 47
0.0
 47
0.0
 47
0.0208333333333333
 47
0.0
 47
0.0
 47
0.0
 47
0.0
 47
1.0
 47
0.0
 47
0.0
 47
0.0
 47
0.0
 47
1.0
171
     0
 49
0.0208333333333333
 49
0.0
 49
0.0
 49
0.0
 49
0.0
 49
0.0208333333333333
 49
0.0
 49
0.0
 49
0.0
 49
0.0
 49
1.0
 49
0.0
 49
0.0
 49
0.0
 49
0.0
 49
1.0
175
     0
142
0.0208333333333333
142
0.0
142
0.0
142
0.0
142
0.0
142
0.0208333333333333
142
0.0
142
0.0
142
0.0
142
0.0
142
1.0
142
0.0
142
0.0
142
0.0
142
0.0
142
1.0
179
     0
144
0.0208333333333333
144
0.0
144
0.0
144
0.0
144
0.0
144
0.0208333333333333
144
0.0
144
0.0
144
0.0
144
0.0
144
1.0
144
0.0
144
0.0
144
0.0
144
0.0
144
1.0
147
0.0208333333333333
147
0.0
147
0.0
147
0.0
147
0.0
147
0.0208333333333333
147
0.0
147
0.0
147
0.0
147
0.0
147
1.0
147
0.0
147
0.0
147
0.0
147
0.0
147
1.0
  0
MLEADERSTYLE
  5
232
102
{ACAD_REACTORS
330
231
102
}
330
231
100
AcDbMLeaderStyle
179
     2
170
     2
171
     1
172
     0
 90
        2
 40
0.0
 41
0.0
173
     1
 91
-1056964608
340
14
 92
       -2
290
     1
 42
0.09
291
     1
 43
0.36
  3
Standard
 44
0.18
300

342
11
174
     1
178
     6
175
     1
176
     0
 93
-1056964608
 45
0.18
292
     0
297
     0
 46
0.18
 94
-1056964608
 47
1.0
 49
1.0
140
1.0
293
     1
141
0.0
294
     1
177
     0
142
1.0
295
     0
296
     0
143
0.125
271
     0
272
     9
273
     9
298
     0
  0
MLINESTYLE
  5
18
102
{ACAD_REACTORS
330
17
102
}
330
17
100
AcDbMlineStyle
  2
STANDARD
 70
     0
  3

 62
   256
 51
90.0
 52
90.0
 71
     2
 49
0.5
 62
   256
  6
BYLAYER
 49
-0.5
 62
   256
  6
BYLAYER
  0
ACDBPLACEHOLDER
  5
F
102
{ACAD_REACTORS
330
E
102
}
330
E
  0
SCALE
  5
48
102
{ACAD_REACTORS
330
47
102
}
330
47
100
AcDbScale
 70
     0
300
1:1
140
1.0
141
1.0
290
     1
  0
SCALE
  5
49
102
{ACAD_REACTORS
330
47
102
}
330
47
100
AcDbScale
 70
     0
300
1:2
140
1.0
141
2.0
290
     0
  0
SCALE
  5
4A
102
{ACAD_REACTORS
330
47
102
}
330
47
100
AcDbScale
 70
     0
300
1:4
140
1.0
141
4.0
290
     0
  0
SCALE
  5
4B
102
{ACAD_REACTORS
330
47
102
}
330
47
100
AcDbScale
 70
     0
300
1:5
140
1.0
141
5.0
290
     0
  0
SCALE
  5
4C
102
{ACAD_REACTORS
330
47
102
}
330
47
100
AcDbScale
 70
     0
300
1:8
140
1.0
141
8.0
290
     0
  0
SCALE
  5
4D
102
{ACAD_REACTORS
330
47
102
}
330
47
100
AcDbScale
 70
     0
300
1:10
140
1.0
141
10.0
290
     0
  0
SCALE
  5
4E
102
{ACAD_REACTORS
330
47
102
}
330
47
100
AcDbScale
 70
     0
300
1:16
140
1.0
141
16.0
290
     0
  0
SCALE
  5
4F
102
{ACAD_REACTORS
330
47
102
}
330
47
100
AcDbScale
 70
     0
300
1:20
140
1.0
141
20.0
290
     0
  0
SCALE
  5
50
102
{ACAD_REACTORS
330
47
102
}
330
47
100
AcDbScale
 70
     0
300
1:30
140
1.0
141
30.0
290
     0
  0
SCALE
  5
51
102
{ACAD_REACTORS
330
47
102
}
330
47
100
AcDbScale
 70
     0
300
1:40
140
1.0
141
40.0
290
     0
  0
SCALE
  5
52
102
{ACAD_REACTORS
330
47
102
}
330
47
100
AcDbScale
 70
     0
300
1:50
140
1.0
141
50.0
290
     0
  0
SCALE
  5
53
102
{ACAD_REACTORS
330
47
102
}
330
47
100
AcDbScale
 70
     0
300
1:100
140
1.0
141
100.0
290
     0
  0
SCALE
  5
54
102
{ACAD_REACTORS
330
47
102
}
330
47
100
AcDbScale
 70
     0
300
2:1
140
2.0
141
1.0
290
     0
  0
SCALE
  5
55
102
{ACAD_REACTORS
330
47
102
}
330
47
100
AcDbScale
 70
     0
300
4:1
140
4.0
141
1.0
290
     0
  0
SCALE
  5
56
102
{ACAD_REACTORS
330
47
102
}
330
47
100
AcDbScale
 70
     0
300
8:1
140
8.0
141
1.0
290
     0
  0
SCALE
  5
57
102
{ACAD_REACTORS
330
47
102
}
330
47
100
AcDbScale
 70
     0
300
10:1
140
10.0
141
1.0
290
     0
  0
SCALE
  5
58
102
{ACAD_REACTORS
330
47
102
}
330
47
100
AcDbScale
 70
     0
300
100:1
140
100.0
141
1.0
290
     0
  0
SCALE
  5
59
102
{ACAD_REACTORS
330
47
102
}
330
47
100
AcDbScale
 70
     0
300
1/128" = 1'-0"
140
0.0078125
141
12.0
290
     0
  0
SCALE
  5
5A
102
{ACAD_REACTORS
330
47
102
}
330
47
100
AcDbScale
 70
     0
300
1/64" = 1'-0"
140
0.015625
141
12.0
290
     0
  0
SCALE
  5
5B
102
{ACAD_REACTORS
330
47
102
}
330
47
100
AcDbScale
 70
     0
300
1/32" = 1'-0"
140
0.03125
141
12.0
290
     0
  0
SCALE
  5
5C
102
{ACAD_REACTORS
330
47
102
}
330
47
100
AcDbScale
 70
     0
300
1/16" = 1'-0"
140
0.0625
141
12.0
290
     0
  0
SCALE
  5
5D
102
{ACAD_REACTORS
330
47
102
}
330
47
100
AcDbScale
 70
     0
300
3/32" = 1'-0"
140
0.09375
141
12.0
290
     0
  0
SCALE
  5
5E
102
{ACAD_REACTORS
330
47
102
}
330
47
100
AcDbScale
 70
     0
300
1/8" = 1'-0"
140
0.125
141
12.0
290
     0
  0
SCALE
  5
5F
102
{ACAD_REACTORS
330
47
102
}
330
47
100
AcDbScale
 70
     0
300
3/16" = 1'-0"
140
0.1875
141
12.0
290
     0
  0
SCALE
  5
60
102
{ACAD_REACTORS
330
47
102
}
330
47
100
AcDbScale
 70
     0
300
1/4" = 1'-0"
140
0.25
141
12.0
290
     0
  0
SCALE
  5
61
102
{ACAD_REACTORS
330
47
102
}
330
47
100
AcDbScale
 70
     0
300
3/8" = 1'-0"
140
0.375
141
12.0
290
     0
  0
SCALE
  5
62
102
{ACAD_REACTORS
330
47
102
}
330
47
100
AcDbScale
 70
     0
300
1/2" = 1'-0"
140
0.5
141
12.0
290
     0
  0
SCALE
  5
63
102
{ACAD_REACTORS
330
47
102
}
330
47
100
AcDbScale
 70
     0
300
3/4" = 1'-0"
140
0.75
141
12.0
290
     0
  0
SCALE
  5
64
102
{ACAD_REACTORS
330
47
102
}
330
47
100
AcDbScale
 70
     0
300
1" = 1'-0"
140
1.0
141
12.0
290
     0
  0
SCALE
  5
65
102
{ACAD_REACTORS
330
47
102
}
330
47
100
AcDbScale
 70
     0
300
1-1/2" = 1'-0"
140
1.5
141
12.0
290
     0
  0
SCALE
  5
66
102
{ACAD_REACTORS
330
47
102
}
330
47
100
AcDbScale
 70
     0
300
3" = 1'-0"
140
3.0
141
12.0
290
     0
  0
SCALE
  5
67
102
{ACAD_REACTORS
330
47
102
}
330
47
100
AcDbScale
 70
     0
300
6" = 1'-0"
140
6.0
141
12.0
290
     0
  0
SCALE
  5
68
102
{ACAD_REACTORS
330
47
102
}
330
47
100
AcDbScale
 70
     0
300
1'-0" = 1'-0"
140
12.0
141
12.0
290
     0
  0
ACDBSECTIONVIEWSTYLE
  5
234
102
{ACAD_XDICTIONARY
360
7B5
102
}
102
{ACAD_REACTORS
330
233
102
}
330
233
100
AcDbModelDocViewStyle
 70
     0
  3
Imperial24
290
     0
100
AcDbSectionViewStyle
 70
     0
 71
     0
 90
       78
 71
     1
340
11
 62
   256
 40
0.24
340
0
340
0
 62
   256
 40
0.24
300
I, O, Q, S, X, Z
 40
0.48
 90
        3
 40
0.18
 90
        1
 71
     2
340
16
 90
       25
 62
   256
340
16
 90
       50
 62
   256
 40
0.24
 40
0.0
 40
0.24
 71
     3
340
11
 62
   256
 40
0.24
 90
        1
 40
0.75
 90
        1
300
%<\AcVar ViewType \f "%tc1">% %<\AcVar ViewSectionStartId>%-%<\AcVar ViewSectionEndId>%\PSCALE %<\AcVar ViewScale \f "%sn">%
 71
     4
 62
   256
 62
   257
300
ANSI31
 40
1.0
 90
        0
290
     0
290
     0
 90
        6
 40
0.0
 40
1.570796326794896
 40
0.2617993877991494
 40
1.308996938995747
 40
-0.2617993877991494
 40
1.832595714594046
  0
TABLESTYLE
  5
230
102
{ACAD_XDICTIONARY
360
7B3
102
}
102
{ACAD_REACTORS
330
22F
102
}
330
22F
100
AcDbTableStyle
280
     0
  3
Standard
 70
     0
 71
     0
 40
0.06
 41
0.06
280
     0
281
     0
  7
Standard
140
0.18
170
     2
 62
     0
 63
     7
283
     0
 90
      512
 91
        0
  1

274
    -2
284
     1
 64
     0
275
    -2
285
     1
 65
     0
276
    -2
286
     1
 66
     0
277
    -2
287
     1
 67
     0
278
    -2
288
     1
 68
     0
279
    -2
289
     1
 69
     0
  7
Standard
140
0.25
170
     5
 62
     0
 63
     7
283
     0
 90
      512
 91
        0
  1

274
    -2
284
     1
 64
     0
275
    -2
285
     1
 65
     0
276
    -2
286
     1
 66
     0
277
    -2
287
     1
 67
     0
278
    -2
288
     1
 68
     0
279
    -2
289
     1
 69
     0
  7
Standard
140
0.18
170
     5
 62
     0
 63
     7
283
     0
 90
      512
 91
        0
  1

274
    -2
284
     1
 64
     0
275
    -2
285
     1
 65
     0
276
    -2
286
     1
 66
     0
277
    -2
287
     1
 67
     0
278
    -2
288
     1
 68
     0
279
    -2
289
     1
 69
     0
  0
VISUALSTYLE
  5
21B
102
{ACAD_REACTORS
330
215
102
}
330
215
100
AcDbVisualStyle
  2
2dWireframe
 70
     4
177
     3
291
     0
 70
    58
 90
        0
176
     1
 90
        2
176
     1
 90
        0
176
     1
 90
        0
176
     1
 40
0.6
176
     1
 40
30.0
176
     1
 62
     7
420
 16777215
176
     1
 90
        1
176
     1
 90
        4
176
     1
 62
     7
176
     1
 62
   257
176
     1
 90
        1
176
     1
 90
        1
176
     1
 40
1.0
176
     1
 90
        0
176
     1
 62
   257
176
     1
 40
1.0
176
     1
 90
        1
176
     1
 90
        6
176
     1
 90
        2
176
     1
 62
     7
176
     1
 90
        5
176
     1
 90
        0
176
     1
 90
        0
176
     1
290
     0
176
     1
 90
        1
176
     1
 40
0.0
176
     1
 90
        0
176
     1
290
     1
176
     1
290
     1
176
     1
290
     0
176
     1
290
     0
176
     1
290
     0
176
     1
290
     0
176
     1
290
     0
176
     1
290
     0
176
     1
290
     0
176
     1
 90
       50
176
     1
 40
0.0
176
     1
 40
1.0
176
     1
 90
        0
176
     1
 62
    18
420
        0
176
     1
 90
       50
176
     1
 90
        3
176
     1
 62
     5
420
      255
176
     1
290
     0
176
     1
 90
       50
176
     1
 90
       50
176
     1
 90
       50
176
     1
290
     0
176
     1
 90
       50
176
     1
 62
   256
176
     0
 40
1.0
176
     0
 90
        2
176
     1
  1
strokes_ogs.tif
176
     1
290
     0
176
     1
 40
1.0
176
     1
 40
1.0
176
     1
  0
VISUALSTYLE
  5
21A
102
{ACAD_REACTORS
330
215
102
}
330
215
100
AcDbVisualStyle
  2
Basic
 70
     7
177
     3
291
     1
 70
    58
 90
        1
176
     1
 90
        0
176
     1
 90
        1
176
     1
 90
        0
176
     1
 40
0.6
176
     1
 40
30.0
176
     1
 62
     7
420
 16777215
176
     1
 90
        0
176
     1
 90
        4
176
     1
 62
     7
176
     1
 62
   257
176
     1
 90
        1
176
     1
 90
        1
176
     1
 40
1.0
176
     1
 90
        8
176
     1
 62
     7
176
     1
 40
1.0
176
     1
 90
        1
176
     1
 90
        6
176
     1
 90
        2
176
     1
 62
     7
176
     1
 90
        5
176
     1
 90
        0
176
     1
 90
        0
176
     1
290
     0
176
     1
 90
        1
176
     1
 40
0.0
176
     1
 90
        0
176
     1
290
     0
176
     1
290
     1
176
     1
290
     1
176
     1
290
     0
176
     1
290
     0
176
     1
290
     0
176
     1
290
     0
176
     1
290
     0
176
     1
290
     0
176
     1
 90
       50
176
     1
 40
0.0
176
     1
 40
1.0
176
     1
 90
        0
176
     1
 62
    18
420
        0
176
     1
 90
       50
176
     1
 90
        3
176
     1
 62
     5
420
      255
176
     1
290
     0
176
     1
 90
       50
176
     1
 90
       50
176
     1
 90
       50
176
     1
290
     0
176
     1
 90
       50
176
     1
 62
   256
176
     0
 40
1.0
176
     0
 90
        2
176
     1
  1
strokes_ogs.tif
176
     1
290
     0
176
     1
 40
1.0
176
     1
 40
1.0
176
     1
  0
VISUALSTYLE
  5
221
102
{ACAD_REACTORS
330
215
102
}
330
215
100
AcDbVisualStyle
  2
Brighten
 70
    12
177
     3
291
     1
 70
    58
 90
        2
176
     1
 90
        2
176
     1
 90
        0
176
     1
 90
        0
176
     1
 40
0.6
176
     1
 40
30.0
176
     1
 62
     7
420
 16777215
176
     1
 90
        1
176
     1
 90
        4
176
     1
 62
     7
176
     1
 62
   257
176
     1
 90
        1
176
     1
 90
        1
176
     1
 40
1.0
176
     1
 90
        8
176
     1
 62
     7
176
     1
 40
1.0
176
     1
 90
        1
176
     1
 90
        6
176
     1
 90
        2
176
     1
 62
     7
176
     1
 90
        5
176
     1
 90
        0
176
     1
 90
        0
176
     1
290
     0
176
     1
 90
        1
176
     1
 40
50.0
176
     1
 90
        0
176
     1
290
     0
176
     1
290
     1
176
     1
290
     1
176
     1
290
     0
176
     1
290
     0
176
     1
290
     0
176
     1
290
     0
176
     1
290
     0
176
     1
290
     0
176
     1
 90
       50
176
     1
 40
0.0
176
     1
 40
1.0
176
     1
 90
        0
176
     1
 62
    18
420
        0
176
     1
 90
       50
176
     1
 90
        3
176
     1
 62
     5
420
      255
176
     1
290
     0
176
     1
 90
       50
176
     1
 90
       50
176
     1
 90
       50
176
     1
290
     0
176
     1
 90
       50
176
     1
 62
   256
176
     0
 40
1.0
176
     0
 90
        2
176
     1
  1
strokes_ogs.tif
176
     1
290
     0
176
     1
 40
1.0
176
     1
 40
1.0
176
     1
  0
VISUALSTYLE
  5
225
102
{ACAD_REACTORS
330
215
102
}
330
215
100
AcDbVisualStyle
  2
ColorChange
 70
    16
177
     3
291
     1
 70
    58
 90
        2
176
     1
 90
        2
176
     1
 90
        3
176
     1
 90
        0
176
     1
 40
0.6
176
     1
 40
30.0
176
     1
 62
     8
420
  8421504
176
     1
 90
        1
176
     1
 90
        4
176
     1
 62
     7
176
     1
 62
   257
176
     1
 90
        1
176
     1
 90
        1
176
     1
 40
1.0
176
     1
 90
        8
176
     1
 62
     8
420
  8421504
176
     1
 40
1.0
176
     1
 90
        1
176
     1
 90
        6
176
     1
 90
        2
176
     1
 62
     7
176
     1
 90
        5
176
     1
 90
        0
176
     1
 90
        0
176
     1
290
     0
176
     1
 90
        1
176
     1
 40
0.0
176
     1
 90
        0
176
     1
290
     0
176
     1
290
     1
176
     1
290
     1
176
     1
290
     0
176
     1
290
     0
176
     1
290
     0
176
     1
290
     0
176
     1
290
     0
176
     1
290
     0
176
     1
 90
       50
176
     1
 40
0.0
176
     1
 40
1.0
176
     1
 90
        0
176
     1
 62
    18
420
        0
176
     1
 90
       50
176
     1
 90
        3
176
     1
 62
     5
420
      255
176
     1
290
     0
176
     1
 90
       50
176
     1
 90
       50
176
     1
 90
       50
176
     1
290
     0
176
     1
 90
       50
176
     1
 62
   256
176
     0
 40
1.0
176
     0
 90
        2
176
     1
  1
strokes_ogs.tif
176
     1
290
     0
176
     1
 40
1.0
176
     1
 40
1.0
176
     1
  0
VISUALSTYLE
  5
21E
102
{ACAD_REACTORS
330
215
102
}
330
215
100
AcDbVisualStyle
  2
Conceptual
 70
     9
177
     3
291
     0
 70
    58
 90
        3
176
     1
 90
        2
176
     1
 90
        0
176
     1
 90
        0
176
     1
 40
0.6
176
     1
 40
30.0
176
     1
 62
     7
420
 16777215
176
     1
 90
        2
176
     1
 90
        2
176
     1
 62
     7
176
     1
 62
   257
176
     1
 90
        1
176
     1
 90
        1
176
     1
 40
179.0
176
     1
 90
        8
176
     1
 62
     7
176
     1
 40
1.0
176
     1
 90
        1
176
     1
 90
        6
176
     1
 90
        2
176
     1
 62
     7
176
     1
 90
        3
176
     1
 90
        0
176
     1
 90
        0
176
     1
290
     0
176
     1
 90
        1
176
     1
 40
0.0
176
     1
 90
        0
176
     1
290
     0
176
     1
290
     1
176
     1
290
     1
176
     1
290
     0
176
     1
290
     0
176
     1
290
     0
176
     1
290
     0
176
     1
290
     0
176
     1
290
     0
176
     1
 90
       50
176
     1
 40
0.0
176
     1
 40
1.0
176
     1
 90
        0
176
     1
 62
    18
420
        0
176
     1
 90
       50
176
     1
 90
        3
176
     1
 62
     5
420
      255
176
     1
290
     0
176
     1
 90
       50
176
     1
 90
       50
176
     1
 90
       50
176
     1
290
     0
176
     1
 90
       50
176
     1
 62
   256
176
     0
 40
1.0
176
     0
 90
        2
176
     1
  1
strokes_ogs.tif
176
     1
290
     0
176
     1
 40
1.0
176
     1
 40
1.0
176
     1
  0
VISUALSTYLE
  5
220
102
{ACAD_REACTORS
330
215
102
}
330
215
100
AcDbVisualStyle
  2
Dim
 70
    11
177
     3
291
     1
 70
    58
 90
        2
176
     1
 90
        2
176
     1
 90
        0
176
     1
 90
        0
176
     1
 40
0.6
176
     1
 40
30.0
176
     1
 62
     7
420
 16777215
176
     1
 90
        1
176
     1
 90
        4
176
     1
 62
     7
176
     1
 62
   257
176
     1
 90
        1
176
     1
 90
        1
176
     1
 40
1.0
176
     1
 90
        8
176
     1
 62
     7
176
     1
 40
1.0
176
     1
 90
        1
176
     1
 90
        6
176
     1
 90
        2
176
     1
 62
     7
176
     1
 90
        5
176
     1
 90
        0
176
     1
 90
        0
176
     1
290
     0
176
     1
 90
        1
176
     1
 40
-50.0
176
     1
 90
        0
176
     1
290
     0
176
     1
290
     1
176
     1
290
     1
176
     1
290
     0
176
     1
290
     0
176
     1
290
     0
176
     1
290
     0
176
     1
290
     0
176
     1
290
     0
176
     1
 90
       50
176
     1
 40
0.0
176
     1
 40
1.0
176
     1
 90
        0
176
     1
 62
    18
420
        0
176
     1
 90
       50
176
     1
 90
        3
176
     1
 62
     5
420
      255
176
     1
290
     0
176
     1
 90
       50
176
     1
 90
       50
176
     1
 90
       50
176
     1
290
     0
176
     1
 90
       50
176
     1
 62
   256
176
     0
 40
1.0
176
     0
 90
        2
176
     1
  1
strokes_ogs.tif
176
     1
290
     0
176
     1
 40
1.0
176
     1
 40
1.0
176
     1
  0
VISUALSTYLE
  5
22D
102
{ACAD_REACTORS
330
215
102
}
330
215
100
AcDbVisualStyle
  2
EdgeColorOff
 70
    22
177
     3
291
     1
 70
    58
 90
        2
176
     0
 90
        2
176
     0
 90
        0
176
     0
 90
        0
176
     0
 40
0.6
176
     0
 40
30.0
176
     0
 62
     7
420
 16777215
176
     0
 90
        1
176
     0
 90
        4
176
     0
 62
     7
176
     0
 62
   257
176
     0
 90
        1
176
     0
 90
        1
176
     0
 40
1.0
176
     0
 90
        8
176
     2
 62
     7
176
     0
 40
1.0
176
     0
 90
        1
176
     0
 90
        6
176
     0
 90
        2
176
     0
 62
     7
176
     0
 90
        5
176
     0
 90
        0
176
     0
 90
        0
176
     0
290
     0
176
     0
 90
        1
176
     0
 40
0.0
176
     0
 90
        0
176
     0
290
     0
176
     1
290
     1
176
     1
290
     1
176
     1
290
     0
176
     1
290
     0
176
     1
290
     0
176
     1
290
     0
176
     1
290
     0
176
     1
290
     0
176
     1
 90
       50
176
     0
 40
0.0
176
     0
 40
1.0
176
     0
 90
        0
176
     0
 62
    18
420
        0
176
     0
 90
       50
176
     0
 90
        3
176
     0
 62
     5
420
      255
176
     0
290
     0
176
     1
 90
       50
176
     0
 90
       50
176
     0
 90
       50
176
     0
290
     0
176
     1
 90
       50
176
     0
 62
   256
176
     0
 40
1.0
176
     0
 90
        2
176
     0
  1
strokes_ogs.tif
176
     0
290
     0
176
     1
 40
1.0
176
     0
 40
1.0
176
     0
  0
VISUALSTYLE
  5
224
102
{ACAD_REACTORS
330
215
102
}
330
215
100
AcDbVisualStyle
  2
Facepattern
 70
    15
177
     3
291
     1
 70
    58
 90
        2
176
     1
 90
        2
176
     1
 90
        0
176
     1
 90
        0
176
     1
 40
0.6
176
     1
 40
30.0
176
     1
 62
     7
420
 16777215
176
     1
 90
        1
176
     1
 90
        4
176
     1
 62
     7
176
     1
 62
   257
176
     1
 90
        1
176
     1
 90
        1
176
     1
 40
1.0
176
     1
 90
        8
176
     1
 62
     7
176
     1
 40
1.0
176
     1
 90
        1
176
     1
 90
        6
176
     1
 90
        2
176
     1
 62
     7
176
     1
 90
        5
176
     1
 90
        0
176
     1
 90
        0
176
     1
290
     0
176
     1
 90
        1
176
     1
 40
0.0
176
     1
 90
        0
176
     1
290
     0
176
     1
290
     1
176
     1
290
     1
176
     1
290
     0
176
     1
290
     0
176
     1
290
     0
176
     1
290
     0
176
     1
290
     0
176
     1
290
     0
176
     1
 90
       50
176
     1
 40
0.0
176
     1
 40
1.0
176
     1
 90
        0
176
     1
 62
    18
420
        0
176
     1
 90
       50
176
     1
 90
        3
176
     1
 62
     5
420
      255
176
     1
290
     0
176
     1
 90
       50
176
     1
 90
       50
176
     1
 90
       50
176
     1
290
     0
176
     1
 90
       50
176
     1
 62
   256
176
     0
 40
1.0
176
     0
 90
        2
176
     1
  1
strokes_ogs.tif
176
     1
290
     0
176
     1
 40
1.0
176
     1
 40
1.0
176
     1
  0
VISUALSTYLE
  5
216
102
{ACAD_REACTORS
330
215
102
}
330
215
100
AcDbVisualStyle
  2
Flat
 70
     0
177
     3
291
     1
 70
    58
 90
        2
176
     1
 90
        1
176
     1
 90
        1
176
     1
 90
        2
176
     1
 40
0.6
176
     1
 40
30.0
176
     1
 62
     7
420
 16777215
176
     1
 90
        0
176
     1
 90
        0
176
     1
 62
     7
176
     1
 62
   257
176
     1
 90
        1
176
     1
 90
        1
176
     1
 40
1.0
176
     1
 90
        8
176
     1
 62
     7
176
     1
 40
1.0
176
     1
 90
        1
176
     1
 90
        6
176
     1
 90
        2
176
     1
 62
     7
176
     1
 90
        5
176
     1
 90
        0
176
     1
 90
        0
176
     1
290
     0
176
     1
 90
       13
176
     1
 40
0.0
176
     1
 90
        0
176
     1
290
     0
176
     1
290
     1
176
     1
290
     1
176
     1
290
     0
176
     1
290
     0
176
     1
290
     0
176
     1
290
     0
176
     1
290
     0
176
     1
290
     0
176
     1
 90
       50
176
     1
 40
0.0
176
     1
 40
1.0
176
     1
 90
        0
176
     1
 62
    18
420
        0
176
     1
 90
       50
176
     1
 90
        3
176
     1
 62
     5
420
      255
176
     1
290
     0
176
     1
 90
       50
176
     1
 90
       50
176
     1
 90
       50
176
     1
290
     0
176
     1
 90
       50
176
     1
 62
   256
176
     0
 40
1.0
176
     0
 90
        2
176
     1
  1
strokes_ogs.tif
176
     1
290
     0
176
     1
 40
1.0
176
     1
 40
1.0
176
     1
  0
VISUALSTYLE
  5
217
102
{ACAD_REACTORS
330
215
102
}
330
215
100
AcDbVisualStyle
  2
FlatWithEdges
 70
     1
177
     3
291
     1
 70
    58
 90
        2
176
     1
 90
        1
176
     1
 90
        1
176
     1
 90
        2
176
     1
 40
0.6
176
     1
 40
30.0
176
     1
 62
     7
420
 16777215
176
     1
 90
        1
176
     1
 90
        0
176
     1
 62
     7
176
     1
 62
   257
176
     1
 90
        1
176
     1
 90
        1
176
     1
 40
1.0
176
     1
 90
        0
176
     1
 62
   257
176
     1
 40
1.0
176
     1
 90
        1
176
     1
 90
        6
176
     1
 90
        2
176
     1
 62
     7
176
     1
 90
        5
176
     1
 90
        0
176
     1
 90
        0
176
     1
290
     0
176
     1
 90
       13
176
     1
 40
0.0
176
     1
 90
        0
176
     1
290
     0
176
     1
290
     1
176
     1
290
     1
176
     1
290
     0
176
     1
290
     0
176
     1
290
     0
176
     1
290
     0
176
     1
290
     0
176
     1
290
     0
176
     1
 90
       50
176
     1
 40
0.0
176
     1
 40
1.0
176
     1
 90
        0
176
     1
 62
    18
420
        0
176
     1
 90
       50
176
     1
 90
        3
176
     1
 62
     5
420
      255
176
     1
290
     0
176
     1
 90
       50
176
     1
 90
       50
176
     1
 90
       50
176
     1
290
     0
176
     1
 90
       50
176
     1
 62
   256
176
     0
 40
1.0
176
     0
 90
        2
176
     1
  1
strokes_ogs.tif
176
     1
290
     0
176
     1
 40
1.0
176
     1
 40
1.0
176
     1
  0
VISUALSTYLE
  5
218
102
{ACAD_REACTORS
330
215
102
}
330
215
100
AcDbVisualStyle
  2
Gouraud
 70
     2
177
     3
291
     1
 70
    58
 90
        2
176
     1
 90
        2
176
     1
 90
        1
176
     1
 90
        2
176
     1
 40
0.6
176
     1
 40
30.0
176
     1
 62
     7
420
 16777215
176
     1
 90
        0
176
     1
 90
        0
176
     1
 62
     7
176
     1
 62
   257
176
     1
 90
        1
176
     1
 90
        1
176
     1
 40
1.0
176
     1
 90
        0
176
     1
 62
     7
176
     1
 40
1.0
176
     1
 90
        1
176
     1
 90
        6
176
     1
 90
        2
176
     1
 62
     7
176
     1
 90
        5
176
     1
 90
        0
176
     1
 90
        0
176
     1
290
     0
176
     1
 90
       13
176
     1
 40
0.0
176
     1
 90
        0
176
     1
290
     0
176
     1
290
     1
176
     1
290
     1
176
     1
290
     0
176
     1
290
     0
176
     1
290
     0
176
     1
290
     0
176
     1
290
     0
176
     1
290
     0
176
     1
 90
       50
176
     1
 40
0.0
176
     1
 40
1.0
176
     1
 90
        0
176
     1
 62
    18
420
        0
176
     1
 90
       50
176
     1
 90
        3
176
     1
 62
     5
420
      255
176
     1
290
     0
176
     1
 90
       50
176
     1
 90
       50
176
     1
 90
       50
176
     1
290
     0
176
     1
 90
       50
176
     1
 62
   256
176
     0
 40
1.0
176
     0
 90
        2
176
     1
  1
strokes_ogs.tif
176
     1
290
     0
176
     1
 40
1.0
176
     1
 40
1.0
176
     1
  0
VISUALSTYLE
  5
219
102
{ACAD_REACTORS
330
215
102
}
330
215
100
AcDbVisualStyle
  2
GouraudWithEdges
 70
     3
177
     3
291
     1
 70
    58
 90
        2
176
     1
 90
        2
176
     1
 90
        1
176
     1
 90
        2
176
     1
 40
0.6
176
     1
 40
30.0
176
     1
 62
     7
420
 16777215
176
     1
 90
        1
176
     1
 90
        0
176
     1
 62
     7
176
     1
 62
   257
176
     1
 90
        1
176
     1
 90
        1
176
     1
 40
1.0
176
     1
 90
        0
176
     1
 62
   257
176
     1
 40
1.0
176
     1
 90
        1
176
     1
 90
        6
176
     1
 90
        2
176
     1
 62
     7
176
     1
 90
        5
176
     1
 90
        0
176
     1
 90
        0
176
     1
290
     0
176
     1
 90
       13
176
     1
 40
0.0
176
     1
 90
        0
176
     1
290
     0
176
     1
290
     1
176
     1
290
     1
176
     1
290
     0
176
     1
290
     0
176
     1
290
     0
176
     1
290
     0
176
     1
290
     0
176
     1
290
     0
176
     1
 90
       50
176
     1
 40
0.0
176
     1
 40
1.0
176
     1
 90
        0
176
     1
 62
    18
420
        0
176
     1
 90
       50
176
     1
 90
        3
176
     1
 62
     5
420
      255
176
     1
290
     0
176
     1
 90
       50
176
     1
 90
       50
176
     1
 90
       50
176
     1
290
     0
176
     1
 90
       50
176
     1
 62
   256
176
     0
 40
1.0
176
     0
 90
        2
176
     1
  1
strokes_ogs.tif
176
     1
290
     0
176
     1
 40
1.0
176
     1
 40
1.0
176
     1
  0
VISUALSTYLE
  5
21D
102
{ACAD_REACTORS
330
215
102
}
330
215
100
AcDbVisualStyle
  2
Hidden
 70
     6
177
     3
291
     0
 70
    58
 90
        1
176
     1
 90
        2
176
     1
 90
        2
176
     1
 90
        0
176
     1
 40
0.6
176
     1
 40
30.0
176
     1
 62
     7
420
 16777215
176
     1
 90
        2
176
     1
 90
        2
176
     1
 62
     7
176
     1
 62
   257
176
     1
 90
        2
176
     1
 90
        1
176
     1
 40
40.0
176
     1
 90
        0
176
     1
 62
   257
176
     1
 40
1.0
176
     1
 90
        1
176
     1
 90
        6
176
     1
 90
        2
176
     1
 62
     7
176
     1
 90
        3
176
     1
 90
        0
176
     1
 90
        0
176
     1
290
     0
176
     1
 90
        1
176
     1
 40
0.0
176
     1
 90
        0
176
     1
290
     0
176
     1
290
     1
176
     1
290
     1
176
     1
290
     0
176
     1
290
     0
176
     1
290
     0
176
     1
290
     0
176
     1
290
     0
176
     1
290
     0
176
     1
 90
       50
176
     1
 40
0.0
176
     1
 40
1.0
176
     1
 90
        0
176
     1
 62
    18
420
        0
176
     1
 90
       50
176
     1
 90
        3
176
     1
 62
     5
420
      255
176
     1
290
     0
176
     1
 90
       50
176
     1
 90
       50
176
     1
 90
       50
176
     1
290
     0
176
     1
 90
       50
176
     1
 62
   256
176
     0
 40
1.0
176
     0
 90
        2
176
     1
  1
strokes_ogs.tif
176
     1
290
     0
176
     1
 40
1.0
176
     1
 40
1.0
176
     1
  0
VISUALSTYLE
  5
22B
102
{ACAD_REACTORS
330
215
102
}
330
215
100
AcDbVisualStyle
  2
JitterOff
 70
    20
177
     3
291
     1
 70
    58
 90
        2
176
     0
 90
        2
176
     0
 90
        0
176
     0
 90
        0
176
     0
 40
0.6
176
     0
 40
30.0
176
     0
 62
     7
420
 16777215
176
     0
 90
        1
176
     0
 90
        4
176
     0
 62
     7
176
     0
 62
   257
176
     0
 90
        1
176
     0
 90
        1
176
     0
 40
1.0
176
     0
 90
       10
176
     2
 62
     7
176
     0
 40
1.0
176
     0
 90
        1
176
     0
 90
        6
176
     0
 90
        2
176
     0
 62
     7
176
     0
 90
        5
176
     0
 90
        0
176
     0
 90
        0
176
     0
290
     0
176
     0
 90
        1
176
     0
 40
0.0
176
     0
 90
        0
176
     0
290
     0
176
     1
290
     1
176
     1
290
     1
176
     1
290
     0
176
     1
290
     0
176
     1
290
     0
176
     1
290
     0
176
     1
290
     0
176
     1
290
     0
176
     1
 90
       50
176
     0
 40
0.0
176
     0
 40
1.0
176
     0
 90
        0
176
     0
 62
    18
420
        0
176
     0
 90
       50
176
     0
 90
        3
176
     0
 62
     5
420
      255
176
     0
290
     0
176
     1
 90
       50
176
     0
 90
       50
176
     0
 90
       50
176
     0
290
     0
176
     1
 90
       50
176
     0
 62
   256
176
     0
 40
1.0
176
     0
 90
        2
176
     0
  1
strokes_ogs.tif
176
     0
290
     0
176
     1
 40
1.0
176
     0
 40
1.0
176
     0
  0
VISUALSTYLE
  5
223
102
{ACAD_REACTORS
330
215
102
}
330
215
100
AcDbVisualStyle
  2
Linepattern
 70
    14
177
     3
291
     1
 70
    58
 90
        2
176
     1
 90
        2
176
     1
 90
        0
176
     1
 90
        0
176
     1
 40
0.6
176
     1
 40
30.0
176
     1
 62
     7
420
 16777215
176
     1
 90
        1
176
     1
 90
        4
176
     1
 62
     7
176
     1
 62
   257
176
     1
 90
        7
176
     1
 90
        7
176
     1
 40
1.0
176
     1
 90
        8
176
     1
 62
     7
176
     1
 40
1.0
176
     1
 90
        1
176
     1
 90
        6
176
     1
 90
        2
176
     1
 62
     7
176
     1
 90
        5
176
     1
 90
        0
176
     1
 90
        0
176
     1
290
     0
176
     1
 90
        1
176
     1
 40
0.0
176
     1
 90
        0
176
     1
290
     0
176
     1
290
     1
176
     1
290
     1
176
     1
290
     0
176
     1
290
     0
176
     1
290
     0
176
     1
290
     0
176
     1
290
     0
176
     1
290
     0
176
     1
 90
       50
176
     1
 40
0.0
176
     1
 40
1.0
176
     1
 90
        0
176
     1
 62
    18
420
        0
176
     1
 90
       50
176
     1
 90
        3
176
     1
 62
     5
420
      255
176
     1
290
     0
176
     1
 90
       50
176
     1
 90
       50
176
     1
 90
       50
176
     1
290
     0
176
     1
 90
       50
176
     1
 62
   256
176
     0
 40
1.0
176
     0
 90
        2
176
     1
  1
strokes_ogs.tif
176
     1
290
     0
176
     1
 40
1.0
176
     1
 40
1.0
176
     1
  0
VISUALSTYLE
  5
22C
102
{ACAD_REACTORS
330
215
102
}
330
215
100
AcDbVisualStyle
  2
OverhangOff
 70
    21
177
     3
291
     1
 70
    58
 90
        2
176
     0
 90
        2
176
     0
 90
        0
176
     0
 90
        0
176
     0
 40
0.6
176
     0
 40
30.0
176
     0
 62
     7
420
 16777215
176
     0
 90
        1
176
     0
 90
        4
176
     0
 62
     7
176
     0
 62
   257
176
     0
 90
        1
176
     0
 90
        1
176
     0
 40
1.0
176
     0
 90
        9
176
     2
 62
     7
176
     0
 40
1.0
176
     0
 90
        1
176
     0
 90
        6
176
     0
 90
        2
176
     0
 62
     7
176
     0
 90
        5
176
     0
 90
        0
176
     0
 90
        0
176
     0
290
     0
176
     0
 90
        1
176
     0
 40
0.0
176
     0
 90
        0
176
     0
290
     0
176
     1
290
     1
176
     1
290
     1
176
     1
290
     0
176
     1
290
     0
176
     1
290
     0
176
     1
290
     0
176
     1
290
     0
176
     1
290
     0
176
     1
 90
       50
176
     0
 40
0.0
176
     0
 40
1.0
176
     0
 90
        0
176
     0
 62
    18
420
        0
176
     0
 90
       50
176
     0
 90
        3
176
     0
 62
     5
420
      255
176
     0
290
     0
176
     1
 90
       50
176
     0
 90
       50
176
     0
 90
       50
176
     0
290
     0
176
     1
 90
       50
176
     0
 62
   256
176
     0
 40
1.0
176
     0
 90
        2
176
     0
  1
strokes_ogs.tif
176
     0
290
     0
176
     1
 40
1.0
176
     0
 40
1.0
176
     0
  0
VISUALSTYLE
  5
21F
102
{ACAD_REACTORS
330
215
102
}
330
215
100
AcDbVisualStyle
  2
Realistic
 70
     8
177
     3
291
     0
 70
    58
 90
        2
176
     1
 90
        3
176
     1
 90
        0
176
     1
 90
        2
176
     1
 40
0.6
176
     1
 40
30.0
176
     1
 62
     7
420
 16777215
176
     1
 90
        0
176
     1
 90
        0
176
     1
 62
     7
176
     1
 62
   257
176
     1
 90
        1
176
     1
 90
        1
176
     1
 40
1.0
176
     1
 90
        8
176
     1
 62
   257
176
     1
 40
1.0
176
     1
 90
        1
176
     1
 90
        6
176
     1
 90
        2
176
     1
 62
     7
176
     1
 90
        3
176
     1
 90
        0
176
     1
 90
        0
176
     1
290
     0
176
     1
 90
       13
176
     1
 40
0.0
176
     1
 90
        0
176
     1
290
     0
176
     1
290
     1
176
     1
290
     1
176
     1
290
     0
176
     1
290
     0
176
     1
290
     0
176
     1
290
     0
176
     1
290
     0
176
     1
290
     0
176
     1
 90
       50
176
     1
 40
0.0
176
     1
 40
1.0
176
     1
 90
        0
176
     1
 62
    18
420
        0
176
     1
 90
       50
176
     1
 90
        3
176
     1
 62
     5
420
      255
176
     1
290
     0
176
     1
 90
       50
176
     1
 90
       50
176
     1
 90
       50
176
     1
290
     0
176
     1
 90
       50
176
     1
 62
   256
176
     0
 40
1.0
176
     0
 90
        2
176
     1
  1
strokes_ogs.tif
176
     1
290
     0
176
     1
 40
1.0
176
     1
 40
1.0
176
     1
  0
VISUALSTYLE
  5
22A
102
{ACAD_REACTORS
330
215
102
}
330
215
100
AcDbVisualStyle
  2
Shaded
 70
    27
177
     3
291
     0
 70
    58
 90
        2
176
     1
 90
        2
176
     1
 90
        1
176
     1
 90
        2
176
     1
 40
0.6
176
     1
 40
30.0
176
     1
 62
     7
420
 16777215
176
     1
 90
        0
176
     1
 90
        4
176
     1
 62
     7
176
     1
 62
   257
176
     1
 90
        1
176
     1
 90
        1
176
     1
 40
1.0
176
     1
 90
        8
176
     1
 62
   257
176
     1
 40
1.0
176
     1
 90
        1
176
     1
 90
        6
176
     1
 90
        2
176
     1
 62
     8
420
  7895160
176
     1
 90
        3
176
     1
 90
        0
176
     1
 90
        0
176
     1
290
     0
176
     1
 90
        5
176
     1
 40
0.0
176
     1
 90
        0
176
     1
290
     0
176
     1
290
     1
176
     1
290
     1
176
     1
290
     0
176
     1
290
     0
176
     1
290
     0
176
     1
290
     0
176
     1
290
     0
176
     1
290
     0
176
     1
 90
       50
176
     1
 40
0.0
176
     1
 40
1.0
176
     1
 90
        0
176
     1
 62
    18
420
        0
176
     1
 90
       50
176
     1
 90
        3
176
     1
 62
     5
420
      255
176
     1
290
     0
176
     1
 90
       50
176
     1
 90
       50
176
     1
 90
       50
176
     1
290
     0
176
     1
 90
       50
176
     1
 62
   256
176
     0
 40
1.0
176
     0
 90
        2
176
     1
  1
strokes_ogs.tif
176
     1
290
     0
176
     1
 40
1.0
176
     1
 40
1.0
176
     1
  0
VISUALSTYLE
  5
229
102
{ACAD_REACTORS
330
215
102
}
330
215
100
AcDbVisualStyle
  2
Shaded with edges
 70
    26
177
     3
291
     0
 70
    58
 90
        2
176
     1
 90
        2
176
     1
 90
        1
176
     1
 90
        2
176
     1
 40
0.6
176
     1
 40
30.0
176
     1
 62
     7
420
 16777215
176
     1
 90
        1
176
     1
 90
       10
176
     1
 62
     7
176
     1
 62
   257
176
     1
 90
        2
176
     1
 90
        1
176
     1
 40
1.0
176
     1
 90
        8
176
     1
 62
   257
176
     1
 40
1.0
176
     1
 90
        1
176
     1
 90
        6
176
     1
 90
        2
176
     1
 62
     7
176
     1
 90
        3
176
     1
 90
        0
176
     1
 90
        0
176
     1
290
     0
176
     1
 90
        5
176
     1
 40
0.0
176
     1
 90
        0
176
     1
290
     0
176
     1
290
     1
176
     1
290
     1
176
     1
290
     0
176
     1
290
     0
176
     1
290
     0
176
     1
290
     0
176
     1
290
     0
176
     1
290
     0
176
     1
 90
       50
176
     1
 40
0.0
176
     1
 40
1.0
176
     1
 90
        0
176
     1
 62
    18
420
        0
176
     1
 90
       50
176
     1
 90
        3
176
     1
 62
     5
420
      255
176
     1
290
     0
176
     1
 90
       50
176
     1
 90
       50
176
     1
 90
       50
176
     1
290
     0
176
     1
 90
       50
176
     1
 62
   256
176
     0
 40
1.0
176
     0
 90
        2
176
     1
  1
strokes_ogs.tif
176
     1
290
     0
176
     1
 40
1.0
176
     1
 40
1.0
176
     1
  0
VISUALSTYLE
  5
226
102
{ACAD_REACTORS
330
215
102
}
330
215
100
AcDbVisualStyle
  2
Shades of Gray
 70
    23
177
     3
291
     0
 70
    58
 90
        2
176
     1
 90
        2
176
     1
 90
        3
176
     1
 90
        0
176
     1
 40
0.6
176
     1
 40
30.0
176
     1
 62
     7
420
 16777215
176
     1
 90
        2
176
     1
 90
        2
176
     1
 62
     7
176
     1
 62
     7
176
     1
 90
        1
176
     1
 90
        1
176
     1
 40
40.0
176
     1
 90
        8
176
     1
 62
     7
176
     1
 40
1.0
176
     1
 90
        1
176
     1
 90
        6
176
     1
 90
        2
176
     1
 62
     7
176
     1
 90
        3
176
     1
 90
        0
176
     1
 90
        0
176
     1
290
     0
176
     1
 90
        1
176
     1
 40
0.0
176
     1
 90
        0
176
     1
290
     0
176
     1
290
     1
176
     1
290
     1
176
     1
290
     0
176
     1
290
     0
176
     1
290
     0
176
     1
290
     0
176
     1
290
     0
176
     1
290
     0
176
     1
 90
       50
176
     1
 40
0.0
176
     1
 40
1.0
176
     1
 90
        0
176
     1
 62
    18
420
        0
176
     1
 90
       50
176
     1
 90
        3
176
     1
 62
     5
420
      255
176
     1
290
     0
176
     1
 90
       50
176
     1
 90
       50
176
     1
 90
       50
176
     1
290
     0
176
     1
 90
       50
176
     1
 62
   256
176
     0
 40
1.0
176
     0
 90
        2
176
     1
  1
strokes_ogs.tif
176
     1
290
     0
176
     1
 40
1.0
176
     1
 40
1.0
176
     1
  0
VISUALSTYLE
  5
227
102
{ACAD_REACTORS
330
215
102
}
330
215
100
AcDbVisualStyle
  2
Sketchy
 70
    24
177
     3
291
     0
 70
    58
 90
        1
176
     1
 90
        2
176
     1
 90
        2
176
     1
 90
        0
176
     1
 40
0.6
176
     1
 40
30.0
176
     1
 62
     7
420
 16777215
176
     1
 90
        2
176
     1
 90
        2
176
     1
 62
     7
176
     1
 62
     7
176
     1
 90
        1
176
     1
 90
        1
176
     1
 40
40.0
176
     1
 90
       11
176
     1
 62
     7
176
     1
 40
1.0
176
     1
 90
        1
176
     1
 90
        6
176
     1
 90
        2
176
     1
 62
     7
176
     1
 90
        6
176
     1
 90
        0
176
     1
 90
        0
176
     1
290
     0
176
     1
 90
        1
176
     1
 40
0.0
176
     1
 90
        0
176
     1
290
     0
176
     1
290
     1
176
     1
290
     1
176
     1
290
     0
176
     1
290
     0
176
     1
290
     0
176
     1
290
     0
176
     1
290
     0
176
     1
290
     0
176
     1
 90
       50
176
     1
 40
0.0
176
     1
 40
1.0
176
     1
 90
        0
176
     1
 62
    18
420
        0
176
     1
 90
       50
176
     1
 90
        3
176
     1
 62
     5
420
      255
176
     1
290
     0
176
     1
 90
       50
176
     1
 90
       50
176
     1
 90
       50
176
     1
290
     0
176
     1
 90
       50
176
     1
 62
   256
176
     0
 40
1.0
176
     0
 90
        2
176
     1
  1
strokes_ogs.tif
176
     1
290
     0
176
     1
 40
1.0
176
     1
 40
1.0
176
     1
  0
VISUALSTYLE
  5
222
102
{ACAD_REACTORS
330
215
102
}
330
215
100
AcDbVisualStyle
  2
Thicken
 70
    13
177
     3
291
     1
 70
    58
 90
        2
176
     1
 90
        2
176
     1
 90
        0
176
     1
 90
        0
176
     1
 40
0.6
176
     1
 40
30.0
176
     1
 62
     7
420
 16777215
176
     1
 90
        1
176
     1
 90
        4
176
     1
 62
     7
176
     1
 62
   257
176
     1
 90
        1
176
     1
 90
        1
176
     1
 40
1.0
176
     1
 90
       12
176
     1
 62
     7
176
     1
 40
1.0
176
     1
 90
        1
176
     1
 90
        6
176
     1
 90
        2
176
     1
 62
     7
176
     1
 90
        5
176
     1
 90
        0
176
     1
 90
        0
176
     1
290
     0
176
     1
 90
        1
176
     1
 40
0.0
176
     1
 90
        0
176
     1
290
     0
176
     1
290
     1
176
     1
290
     1
176
     1
290
     0
176
     1
290
     0
176
     1
290
     0
176
     1
290
     0
176
     1
290
     0
176
     1
290
     0
176
     1
 90
       50
176
     1
 40
0.0
176
     1
 40
1.0
176
     1
 90
        0
176
     1
 62
    18
420
        0
176
     1
 90
       50
176
     1
 90
        3
176
     1
 62
     5
420
      255
176
     1
290
     0
176
     1
 90
       50
176
     1
 90
       50
176
     1
 90
       50
176
     1
290
     0
176
     1
 90
       50
176
     1
 62
   256
176
     0
 40
1.0
176
     0
 90
        2
176
     1
  1
strokes_ogs.tif
176
     1
290
     0
176
     1
 40
1.0
176
     1
 40
1.0
176
     1
  0
VISUALSTYLE
  5
21C
102
{ACAD_REACTORS
330
215
102
}
330
215
100
AcDbVisualStyle
  2
Wireframe
 70
     5
177
     3
291
     0
 70
    58
 90
        0
176
     1
 90
        2
176
     1
 90
        0
176
     1
 90
        0
176
     1
 40
0.6
176
     1
 40
30.0
176
     1
 62
     7
420
 16777215
176
     1
 90
        1
176
     1
 90
        4
176
     1
 62
     7
176
     1
 62
   257
176
     1
 90
        1
176
     1
 90
        1
176
     1
 40
1.0
176
     1
 90
        0
176
     1
 62
   257
176
     1
 40
1.0
176
     1
 90
        1
176
     1
 90
        6
176
     1
 90
        2
176
     1
 62
     7
176
     1
 90
        3
176
     1
 90
        0
176
     1
 90
        0
176
     1
290
     0
176
     1
 90
        1
176
     1
 40
0.0
176
     1
 90
        0
176
     1
290
     0
176
     1
290
     1
176
     1
290
     1
176
     1
290
     0
176
     1
290
     0
176
     1
290
     0
176
     1
290
     0
176
     1
290
     0
176
     1
290
     0
176
     1
 90
       50
176
     1
 40
0.0
176
     1
 40
1.0
176
     1
 90
        0
176
     1
 62
    18
420
        0
176
     1
 90
       50
176
     1
 90
        3
176
     1
 62
     5
420
      255
176
     1
290
     0
176
     1
 90
       50
176
     1
 90
       50
176
     1
 90
       50
176
     1
290
     0
176
     1
 90
       50
176
     1
 62
   256
176
     0
 40
1.0
176
     0
 90
        2
176
     1
  1
strokes_ogs.tif
176
     1
290
     0
176
     1
 40
1.0
176
     1
 40
1.0
176
     1
  0
VISUALSTYLE
  5
228
102
{ACAD_REACTORS
330
215
102
}
330
215
100
AcDbVisualStyle
  2
X-Ray
 70
    25
177
     3
291
     0
 70
    58
 90
        2
176
     1
 90
        2
176
     1
 90
        1
176
     1
 90
        1
176
     1
 40
0.5
176
     1
 40
30.0
176
     1
 62
     7
420
 16777215
176
     1
 90
        1
176
     1
 90
        0
176
     1
 62
     7
176
     1
 62
   257
176
     1
 90
        1
176
     1
 90
        1
176
     1
 40
1.0
176
     1
 90
        8
176
     1
 62
     7
176
     1
 40
1.0
176
     1
 90
        1
176
     1
 90
        6
176
     1
 90
        2
176
     1
 62
     7
176
     1
 90
        3
176
     1
 90
        0
176
     1
 90
        0
176
     1
290
     0
176
     1
 90
       13
176
     1
 40
0.0
176
     1
 90
        0
176
     1
290
     0
176
     1
290
     1
176
     1
290
     1
176
     1
290
     0
176
     1
290
     0
176
     1
290
     0
176
     1
290
     0
176
     1
290
     0
176
     1
290
     0
176
     1
 90
       50
176
     1
 40
0.0
176
     1
 40
1.0
176
     1
 90
        0
176
     1
 62
    18
420
        0
176
     1
 90
       50
176
     1
 90
        3
176
     1
 62
     5
420
      255
176
     1
290
     0
176
     1
 90
       50
176
     1
 90
       50
176
     1
 90
       50
176
     1
290
     0
176
     1
 90
       50
176
     1
 62
   256
176
     0
 40
1.0
176
     0
 90
        2
176
     1
  1
strokes_ogs.tif
176
     1
290
     0
176
     1
 40
1.0
176
     1
 40
1.0
176
     1
  0
DICTIONARYVAR
  5
7AF
102
{ACAD_REACTORS
330
7A9
102
}
330
7A9
100
DictionaryVariables
280
     0
  1
1:1
  0
DICTIONARYVAR
  5
7AB
102
{ACAD_REACTORS
330
7A9
102
}
330
7A9
100
DictionaryVariables
280
     0
  1
STANDARD
  0
DICTIONARYVAR
  5
7AA
102
{ACAD_REACTORS
330
7A9
102
}
330
7A9
100
DictionaryVariables
280
     0
  1
STANDARD
  0
DICTIONARYVAR
  5
7AC
102
{ACAD_REACTORS
330
7A9
102
}
330
7A9
100
DictionaryVariables
280
     0
  1
Imperial24
  0
DICTIONARYVAR
  5
7AD
102
{ACAD_REACTORS
330
7A9
102
}
330
7A9
100
DictionaryVariables
280
     0
  1
Imperial24
  0
DICTIONARYVAR
  5
7B1
102
{ACAD_REACTORS
330
7A9
102
}
330
7A9
100
DictionaryVariables
280
     0
  1
1
  0
DICTIONARYVAR
  5
7B2
102
{ACAD_REACTORS
330
7A9
102
}
330
7A9
100
DictionaryVariables
280
     0
  1
15
  0
DICTIONARYVAR
  5
7B0
102
{ACAD_REACTORS
330
7A9
102
}
330
7A9
100
DictionaryVariables
280
     0
  1
0
  0
DICTIONARYVAR
  5
7AE
102
{ACAD_REACTORS
330
7A9
102
}
330
7A9
100
DictionaryVariables
280
     0
  1
0
  0
DICTIONARY
  5
7B7
330
236
100
AcDbDictionary
280
     1
281
     1
  3
ACAD_XREC_ROUNDTRIP
360
7B8
  0
DICTIONARY
  5
206
330
205
100
AcDbDictionary
280
     1
281
     1
  3
BUMPTILE
360
208
  3
DIFFUSETILE
360
207
  3
OPACITYTILE
360
20B
  3
REFLECTIONTILE
360
20A
  3
REFRACTIONTILE
360
20C
  3
SPECULARTILE
360
209
  0
DICTIONARY
  5
1FE
330
1FD
100
AcDbDictionary
280
     1
281
     1
  3
BUMPTILE
360
200
  3
DIFFUSETILE
360
1FF
  3
OPACITYTILE
360
203
  3
REFLECTIONTILE
360
202
  3
REFRACTIONTILE
360
204
  3
SPECULARTILE
360
201
  0
DICTIONARY
  5
20E
330
20D
100
AcDbDictionary
280
     1
281
     1
  3
BUMPTILE
360
210
  3
DIFFUSETILE
360
20F
  3
OPACITYTILE
360
213
  3
REFLECTIONTILE
360
212
  3
REFRACTIONTILE
360
214
  3
SPECULARTILE
360
211
  0
DICTIONARY
  5
7B5
330
234
100
AcDbDictionary
280
     1
281
     1
  3
ACAD_XREC_ROUNDTRIP
360
7B6
  0
DICTIONARY
  5
7B3
330
230
100
AcDbDictionary
280
     1
281
     1
  3
ACAD_ROUNDTRIP_2008_TABLESTYLE_CELLSTYLEMAP
360
7B4
  0
XRECORD
  5
7B8
102
{ACAD_REACTORS
330
7B7
102
}
330
7B7
100
AcDbXrecord
280
     1
102
DISPLAYNAME
  1
Imperial24
102
FLAGS
 90
        0
  0
XRECORD
  5
208
102
{ACAD_REACTORS
330
206
102
}
330
206
100
AcDbXrecord
280
     1
270
     1
271
     1
  0
XRECORD
  5
207
102
{ACAD_REACTORS
330
206
102
}
330
206
100
AcDbXrecord
280
     1
270
     1
271
     1
  0
XRECORD
  5
20B
102
{ACAD_REACTORS
330
206
102
}
330
206
100
AcDbXrecord
280
     1
270
     1
271
     1
  0
XRECORD
  5
20A
102
{ACAD_REACTORS
330
206
102
}
330
206
100
AcDbXrecord
280
     1
270
     1
271
     1
  0
XRECORD
  5
20C
102
{ACAD_REACTORS
330
206
102
}
330
206
100
AcDbXrecord
280
     1
270
     1
271
     1
  0
XRECORD
  5
209
102
{ACAD_REACTORS
330
206
102
}
330
206
100
AcDbXrecord
280
     1
270
     1
271
     1
  0
XRECORD
  5
200
102
{ACAD_REACTORS
330
1FE
102
}
330
1FE
100
AcDbXrecord
280
     1
270
     1
271
     1
  0
XRECORD
  5
1FF
102
{ACAD_REACTORS
330
1FE
102
}
330
1FE
100
AcDbXrecord
280
     1
270
     1
271
     1
  0
XRECORD
  5
203
102
{ACAD_REACTORS
330
1FE
102
}
330
1FE
100
AcDbXrecord
280
     1
270
     1
271
     1
  0
XRECORD
  5
202
102
{ACAD_REACTORS
330
1FE
102
}
330
1FE
100
AcDbXrecord
280
     1
270
     1
271
     1
  0
XRECORD
  5
204
102
{ACAD_REACTORS
330
1FE
102
}
330
1FE
100
AcDbXrecord
280
     1
270
     1
271
     1
  0
XRECORD
  5
201
102
{ACAD_REACTORS
330
1FE
102
}
330
1FE
100
AcDbXrecord
280
     1
270
     1
271
     1
  0
XRECORD
  5
210
102
{ACAD_REACTORS
330
20E
102
}
330
20E
100
AcDbXrecord
280
     1
270
     1
271
     1
  0
XRECORD
  5
20F
102
{ACAD_REACTORS
330
20E
102
}
330
20E
100
AcDbXrecord
280
     1
270
     1
271
     1
  0
XRECORD
  5
213
102
{ACAD_REACTORS
330
20E
102
}
330
20E
100
AcDbXrecord
280
     1
270
     1
271
     1
  0
XRECORD
  5
212
102
{ACAD_REACTORS
330
20E
102
}
330
20E
100
AcDbXrecord
280
     1
270
     1
271
     1
  0
XRECORD
  5
214
102
{ACAD_REACTORS
330
20E
102
}
330
20E
100
AcDbXrecord
280
     1
270
     1
271
     1
  0
XRECORD
  5
211
102
{ACAD_REACTORS
330
20E
102
}
330
20E
100
AcDbXrecord
280
     1
270
     1
271
     1
  0
XRECORD
  5
7B6
102
{ACAD_REACTORS
330
7B5
102
}
330
7B5
100
AcDbXrecord
280
     1
102
DISPLAYNAME
  1
Imperial24
102
FLAGS
 90
        0
  0
CELLSTYLEMAP
  5
7B4
102
{ACAD_REACTORS
330
7B3
102
}
330
7B3
100
AcDbCellStyleMap
 90
        3
300
CELLSTYLE
  1
TABLEFORMAT_BEGIN
 90
        5
170
     1
 91
        0
 92
    32768
 62
   257
 93
        1
300
CONTENTFORMAT
  1
CONTENTFORMAT_BEGIN
 90
        0
 91
        0
 92
      512
 93
        0
300

 40
0.0
140
1.0
 94
        5
 62
     0
340
11
144
0.25
309
CONTENTFORMAT_END
171
     0
 94
        0
309
TABLEFORMAT_END
  1
CELLSTYLE_BEGIN
 90
        1
 91
        1
300
_TITLE
309
CELLSTYLE_END
300
CELLSTYLE
  1
TABLEFORMAT_BEGIN
 90
        5
170
     1
 91
        0
 92
        0
 62
   257
 93
        1
300
CONTENTFORMAT
  1
CONTENTFORMAT_BEGIN
 90
        0
 91
        0
 92
      512
 93
        0
300

 40
0.0
140
1.0
 94
        5
 62
     0
340
11
144
0.18
309
CONTENTFORMAT_END
171
     0
 94
        0
309
TABLEFORMAT_END
  1
CELLSTYLE_BEGIN
 90
        2
 91
        1
300
_HEADER
309
CELLSTYLE_END
300
CELLSTYLE
  1
TABLEFORMAT_BEGIN
 90
        5
170
     1
 91
        0
 92
        0
 62
   257
 93
        1
300
CONTENTFORMAT
  1
CONTENTFORMAT_BEGIN
 90
        0
 91
        0
 92
      512
 93
        0
300

 40
0.0
140
1.0
 94
        2
 62
     0
340
11
144
0.18
309
CONTENTFORMAT_END
171
     0
 94
        0
309
TABLEFORMAT_END
  1
CELLSTYLE_BEGIN
 90
        3
 91
        2
300
_DATA
309
CELLSTYLE_END
  0
ENDSEC
  0
EOF
