  0
SECTION
  2
HEADER
  9
$ACADVER
  1
AC1015
  9
$ACADMAINTVER
 70
     6
  9
$DWGCODEPAGE
  3
ANSI_1252
  9
$INSBASE
 10
0.0
 20
0.0
 30
0.0
  9
$EXTMIN
 10
0.0
 20
0.0
 30
0.0
  9
$EXTMAX
 10
28.0
 20
24.0
 30
0.0
  9
$LIMMIN
 10
0.0
 20
0.0
  9
$LIMMAX
 10
28.0
 20
24.0
  9
$ORTHOMODE
 70
     0
  9
$REGENMODE
 70
     1
  9
$FILLMODE
 70
     1
  9
$QTEXTMODE
 70
     0
  9
$MIRRTEXT
 70
     1
  9
$LTSCALE
 40
1.0
  9
$ATTMODE
 70
     1
  9
$TEXTSIZE
 40
0.2777777778
  9
$TRACEWID
 40
0.05
  9
$TEXTSTYLE
  7
Standard
  9
$CLAYER
  8
0
  9
$CELTYPE
  6
ByLayer
  9
$CECOLOR
 62
   256
  9
$CELTSCALE
 40
1.0
  9
$DISPSILH
 70
     0
  9
$DIMSCALE
 40
1.0
  9
$DIMASZ
 40
0.262898763
  9
$DIMEXO
 40
0.05
  9
$DIMDLI
 40
0.38
  9
$DIMRND
 40
0.0
  9
$DIMDLE
 40
0.0
  9
$DIMEXE
 40
0.125
  9
$DIMTP
 40
0.0
  9
$DIMTM
 40
0.0
  9
$DIMTXT
 40
0.3611111111
  9
$DIMCEN
 40
0.09
  9
$DIMTSZ
 40
0.0
  9
$DIMTOL
 70
     0
  9
$DIMLIM
 70
     0
  9
$DIMTIH
 70
     1
  9
$DIMTOH
 70
     1
  9
$DIMSE1
 70
     0
  9
$DIMSE2
 70
     0
  9
$DIMTAD
 70
     0
  9
$DIMZIN
 70
     0
  9
$DIMBLK
  1

  9
$DIMASO
 70
     1
  9
$DIMSHO
 70
     1
  9
$DIMPOST
  1

  9
$DIMAPOST
  1

  9
$DIMALT
 70
     0
  9
$DIMALTD
 70
     2
  9
$DIMALTF
 40
25.4
  9
$DIMLFAC
 40
1.0
  9
$DIMTOFL
 70
     0
  9
$DIMTVP
 40
0.0
  9
$DIMTIX
 70
     0
  9
$DIMSOXD
 70
     0
  9
$DIMSAH
 70
     0
  9
$DIMBLK1
  1

  9
$DIMBLK2
  1

  9
$DIMSTYLE
  2
Standard
  9
$DIMCLRD
 70
     0
  9
$DIMCLRE
 70
     0
  9
$DIMCLRT
 70
     0
  9
$DIMTFAC
 40
1.0
  9
$DIMGAP
 40
0.06
  9
$DIMJUST
 70
     0
  9
$DIMSD1
 70
     0
  9
$DIMSD2
 70
     0
  9
$DIMTOLJ
 70
     1
  9
$DIMTZIN
 70
     0
  9
$DIMALTZ
 70
     0
  9
$DIMALTTZ
 70
     0
  9
$DIMUPT
 70
     0
  9
$DIMDEC
 70
     3
  9
$DIMTDEC
 70
     3
  9
$DIMALTU
 70
     2
  9
$DIMALTTD
 70
     2
  9
$DIMTXSTY
  7
Standard
  9
$DIMAUNIT
 70
     0
  9
$DIMADEC
 70
     1
  9
$DIMALTRND
 40
0.0
  9
$DIMAZIN
 70
     0
  9
$DIMDSEP
 70
    46
  9
$DIMATFIT
 70
     3
  9
$DIMFRAC
 70
     0
  9
$DIMLDRBLK
  1

  9
$DIMLUNIT
 70
     2
  9
$DIMLWD
 70
    -2
  9
$DIMLWE
 70
    -2
  9
$DIMTMOVE
 70
     0
  9
$LUNITS
 70
     2
  9
$LUPREC
 70
     3
  9
$SKETCHINC
 40
0.1
  9
$FILLETRAD
 40
0.5
  9
$AUNITS
 70
     0
  9
$AUPREC
 70
     1
  9
$MENU
  1
.
  9
$ELEVATION
 40
0.0
  9
$PELEVATION
 40
0.0
  9
$THICKNESS
 40
0.0
  9
$LIMCHECK
 70
     0
  9
$CHAMFERA
 40
0.5
  9
$CHAMFERB
 40
0.5
  9
$CHAMFERC
 40
1.0
  9
$CHAMFERD
 40
0.0
  9
$SKPOLY
 70
     0
  9
$TDCREATE
 40
2457589.635454028
  9
$TDUCREATE
 40
2457589.843787361
  9
$TDUPDATE
 40
2457589.635455289
  9
$TDUUPDATE
 40
2457589.843788623
  9
$TDINDWG
 40
0.0000000116
  9
$TDUSRTIMER
 40
0.0000000116
  9
$USRTIMER
 70
     1
  9
$ANGBASE
 50
0.0
  9
$ANGDIR
 70
     0
  9
$PDMODE
 70
     0
  9
$PDSIZE
 40
-1.0
  9
$PLINEWID
 40
0.0
  9
$SPLFRAME
 70
     0
  9
$SPLINETYPE
 70
     6
  9
$SPLINESEGS
 70
     8
  9
$HANDSEED
  5
122
  9
$SURFTAB1
 70
     6
  9
$SURFTAB2
 70
     6
  9
$SURFTYPE
 70
     6
  9
$SURFU
 70
     6
  9
$SURFV
 70
     6
  9
$UCSBASE
  2

  9
$UCSNAME
  2

  9
$UCSORG
 10
0.0
 20
0.0
 30
0.0
  9
$UCSXDIR
 10
1.0
 20
0.0
 30
0.0
  9
$UCSYDIR
 10
0.0
 20
1.0
 30
0.0
  9
$UCSORTHOREF
  2

  9
$UCSORTHOVIEW
 70
     0
  9
$UCSORGTOP
 10
0.0
 20
0.0
 30
0.0
  9
$UCSORGBOTTOM
 10
0.0
 20
0.0
 30
0.0
  9
$UCSORGLEFT
 10
0.0
 20
0.0
 30
0.0
  9
$UCSORGRIGHT
 10
0.0
 20
0.0
 30
0.0
  9
$UCSORGFRONT
 10
0.0
 20
0.0
 30
0.0
  9
$UCSORGBACK
 10
0.0
 20
0.0
 30
0.0
  9
$PUCSBASE
  2

  9
$PUCSNAME
  2

  9
$PUCSORG
 10
0.0
 20
0.0
 30
0.0
  9
$PUCSXDIR
 10
1.0
 20
0.0
 30
0.0
  9
$PUCSYDIR
 10
0.0
 20
1.0
 30
0.0
  9
$PUCSORTHOREF
  2

  9
$PUCSORTHOVIEW
 70
     0
  9
$PUCSORGTOP
 10
0.0
 20
0.0
 30
0.0
  9
$PUCSORGBOTTOM
 10
0.0
 20
0.0
 30
0.0
  9
$PUCSORGLEFT
 10
0.0
 20
0.0
 30
0.0
  9
$PUCSORGRIGHT
 10
0.0
 20
0.0
 30
0.0
  9
$PUCSORGFRONT
 10
0.0
 20
0.0
 30
0.0
  9
$PUCSORGBACK
 10
0.0
 20
0.0
 30
0.0
  9
$USERI1
 70
     0
  9
$USERI2
 70
     0
  9
$USERI3
 70
     0
  9
$USERI4
 70
     0
  9
$USERI5
 70
     0
  9
$USERR1
 40
0.0
  9
$USERR2
 40
0.0
  9
$USERR3
 40
0.0
  9
$USERR4
 40
0.0
  9
$USERR5
 40
0.0
  9
$WORLDVIEW
 70
     1
  9
$SHADEDGE
 70
     3
  9
$SHADEDIF
 70
    70
  9
$TILEMODE
 70
     1
  9
$MAXACTVP
 70
    64
  9
$PINSBASE
 10
0.0
 20
0.0
 30
0.0
  9
$PLIMCHECK
 70
     0
  9
$PEXTMIN
 10
1.0000000000E+20
 20
1.0000000000E+20
 30
1.0000000000E+20
  9
$PEXTMAX
 10
-1.0000000000E+20
 20
-1.0000000000E+20
 30
-1.0000000000E+20
  9
$PLIMMIN
 10
0.0
 20
0.0
  9
$PLIMMAX
 10
12.0
 20
9.0
  9
$UNITMODE
 70
     0
  9
$VISRETAIN
 70
     1
  9
$PLINEGEN
 70
     0
  9
$PSLTSCALE
 70
     1
  9
$TREEDEPTH
 70
  3020
  9
$CMLSTYLE
  2
Standard
  9
$CMLJUST
 70
     0
  9
$CMLSCALE
 40
1.0
  9
$PROXYGRAPHICS
 70
     1
  9
$MEASUREMENT
 70
     0
  9
$CELWEIGHT
370
    -1
  9
$ENDCAPS
280
     0
  9
$JOINSTYLE
280
     0
  9
$LWDISPLAY
290
     1
  9
$INSUNITS
 70
     1
  9
$HYPERLINKBASE
  1

  9
$STYLESHEET
  1

  9
$XEDIT
290
     1
  9
$CEPSNTYPE
380
     0
  9
$PSTYLEMODE
290
     1
  9
$FINGERPRINTGUID
  2
{B7DC8C5B-8424-4BE2-B104-AF867117EE1C}
  9
$VERSIONGUID
  2
{FAEB1C32-E019-11D5-929B-00C0DF256EC4}
  9
$EXTNAMES
290
     1
  9
$PSVPSCALE
 40
0.0
  9
$OLESTARTUP
290
     0
  0
ENDSEC
  0
SECTION
  2
CLASSES
  0
CLASS
  1
ACDBDICTIONARYWDFLT
  2
AcDbDictionaryWithDefault
  3
ObjectDBX Classes
 90
        0
280
     0
281
     0
  0
CLASS
  1
VISUALSTYLE
  2
AcDbVisualStyle
  3
ObjectDBX Classes
 90
     4095
280
     0
281
     0
  0
CLASS
  1
MATERIAL
  2
AcDbMaterial
  3
ObjectDBX Classes
 90
     1153
280
     0
281
     0
  0
CLASS
  1
LARGE_RADIAL_DIMENSION
  2
AcDbRadialDimensionLarge
  3
ObjectDBX Classes
 90
     1025
280
     0
281
     1
  0
CLASS
  1
ACDBPLACEHOLDER
  2
AcDbPlaceHolder
  3
ObjectDBX Classes
 90
        0
280
     0
281
     0
  0
CLASS
  1
LAYOUT
  2
AcDbLayout
  3
ObjectDBX Classes
 90
        0
280
     0
281
     0
  0
ENDSEC
  0
SECTION
  2
TABLES
  0
TABLE
  2
VPORT
  5
8
330
0
100
AcDbSymbolTable
 70
     1
  0
VPORT
  5
29
330
8
100
AcDbSymbolTableRecord
100
AcDbViewportTableRecord
  2
*Active
 70
     0
 10
0.0
 20
0.0
 11
1.0
 21
1.0
 12
14.0
 22
12.0
 13
0.0
 23
0.0
 14
0.5
 24
0.5
 15
0.5
 25
0.5
 16
0.0
 26
0.0
 36
1.0
 17
0.0
 27
0.0
 37
0.0
 40
24.0
 41
1.1666666667
 42
50.0
 43
0.0
 44
0.0
 50
0.0
 51
0.0
 71
     0
 72
  2000
 73
     1
 74
     3
 75
     0
 76
     0
 77
     0
 78
     0
281
     0
 65
     1
110
0.0
120
0.0
130
0.0
111
1.0
121
0.0
131
0.0
112
0.0
122
1.0
132
0.0
 79
     0
146
0.0
  0
ENDTAB
  0
TABLE
  2
LTYPE
  5
5
330
0
100
AcDbSymbolTable
 70
     6
  0
LTYPE
  5
14
330
5
100
AcDbSymbolTableRecord
100
AcDbLinetypeTableRecord
  2
ByBlock
 70
     0
  3

 72
    65
 73
     0
 40
0.0
  0
LTYPE
  5
15
330
5
100
AcDbSymbolTableRecord
100
AcDbLinetypeTableRecord
  2
ByLayer
 70
     0
  3

 72
    65
 73
     0
 40
0.0
  0
LTYPE
  5
16
330
5
100
AcDbSymbolTableRecord
100
AcDbLinetypeTableRecord
  2
Continuous
 70
     0
  3
Solid line
 72
    65
 73
     0
 40
0.0
  0
LTYPE
  5
3F
330
5
100
AcDbSymbolTableRecord
100
AcDbLinetypeTableRecord
  2
HIDDEN
 70
     0
  3
Hidden __ __ __ __ __ __ __ __ __ __ __ __ __ __
 72
    65
 73
     2
 40
0.075
 49
0.05
 74
     0
 49
-0.025
 74
     0
  0
LTYPE
  5
40
330
5
100
AcDbSymbolTableRecord
100
AcDbLinetypeTableRecord
  2
PHANTOM
 70
     0
  3
Phantom ______  __  __  ______  __  __  ______
 72
    65
 73
     6
 40
0.5
 49
0.25
 74
     0
 49
-0.05
 74
     0
 49
0.05
 74
     0
 49
-0.05
 74
     0
 49
0.05
 74
     0
 49
-0.05
 74
     0
  0
LTYPE
  5
41
330
5
100
AcDbSymbolTableRecord
100
AcDbLinetypeTableRecord
  2
CENTER
 70
     0
  3
Center ____ _ ____ _ ____ _ ____ _ ____ _ ____
 72
    65
 73
     4
 40
0.4
 49
0.25
 74
     0
 49
-0.05
 74
     0
 49
0.05
 74
     0
 49
-0.05
 74
     0
  0
LTYPE
  5
42
330
5
100
AcDbSymbolTableRecord
100
AcDbLinetypeTableRecord
  2
CENTERX2
 70
     0
  3
Center (2x) ________  __  ________  __  _____
 72
    65
 73
     4
 40
0.8
 49
0.5
 74
     0
 49
-0.1
 74
     0
 49
0.1
 74
     0
 49
-0.1
 74
     0
  0
LTYPE
  5
43
330
5
100
AcDbSymbolTableRecord
100
AcDbLinetypeTableRecord
  2
DOT2
 70
     0
  3
Dot (.5x) ........................................
 72
    65
 73
     2
 40
0.025
 49
0.0
 74
     0
 49
-0.025
 74
     0
  0
ENDTAB
  0
TABLE
  2
LAYER
  5
2
330
0
100
AcDbSymbolTable
 70
     8
  0
LAYER
  5
10
330
2
100
AcDbSymbolTableRecord
100
AcDbLayerTableRecord
  2
0
 70
     0
 62
     7
  6
Continuous
370
    -3
390
F
  0
LAYER
  5
44
330
2
100
AcDbSymbolTableRecord
100
AcDbLayerTableRecord
  2
SLD-0
 70
     0
 62
   179
  6
Continuous
370
    -3
390
F
  0
LAYER
  5
45
330
2
100
AcDbSymbolTableRecord
100
AcDbLayerTableRecord
  2
OBJECTS
 70
     0
 62
     5
  6
Continuous
370
    -3
390
F
  0
LAYER
  5
46
330
2
100
AcDbSymbolTableRecord
100
AcDbLayerTableRecord
  2
DIMS
 70
     0
 62
     1
  6
Continuous
370
    -3
390
F
  0
LAYER
  5
47
330
2
100
AcDbSymbolTableRecord
100
AcDbLayerTableRecord
  2
NOTES
 70
     0
 62
     7
  6
Continuous
370
    -3
390
F
  0
LAYER
  5
48
330
2
100
AcDbSymbolTableRecord
100
AcDbLayerTableRecord
  2
IMAGES
 70
     0
 62
     7
  6
Continuous
370
    -3
390
F
  0
LAYER
  5
49
330
2
100
AcDbSymbolTableRecord
100
AcDbLayerTableRecord
  2
CENTERLINES
 70
     0
 62
     7
  6
HIDDEN
370
    -3
390
F
  0
LAYER
  5
4A
330
2
100
AcDbSymbolTableRecord
100
AcDbLayerTableRecord
  2
BLOCKS
 70
     0
 62
    16
  6
Continuous
370
    -3
390
F
  0
ENDTAB
  0
TABLE
  2
STYLE
  5
3
330
0
100
AcDbSymbolTable
 70
     2
  0
STYLE
  5
11
330
3
100
AcDbSymbolTableRecord
100
AcDbTextStyleTableRecord
  2
Standard
 70
     0
 40
0.0
 41
1.0
 50
0.0
 71
     0
 42
0.2777777778
  3
txt
  4

  0
STYLE
  5
8C
330
3
100
AcDbSymbolTableRecord
100
AcDbTextStyleTableRecord
  2
SLDTEXTSTYLE0
 70
     0
 40
0.0
 41
0.605
 50
0.0
 71
     0
 42
0.2
  3
TXT
  4

  0
ENDTAB
  0
TABLE
  2
VIEW
  5
6
330
0
100
AcDbSymbolTable
 70
     0
  0
ENDTAB
  0
TABLE
  2
UCS
  5
7
330
0
100
AcDbSymbolTable
 70
     0
  0
ENDTAB
  0
TABLE
  2
APPID
  5
9
330
0
100
AcDbSymbolTable
 70
     1
  0
APPID
  5
12
330
9
100
AcDbSymbolTableRecord
100
AcDbRegAppTableRecord
  2
ACAD
 70
     0
  0
ENDTAB
  0
TABLE
  2
DIMSTYLE
  5
A
330
0
100
AcDbSymbolTable
 70
     5
100
AcDbDimStyleTable
  0
DIMSTYLE
105
27
330
A
100
AcDbSymbolTableRecord
100
AcDbDimStyleTableRecord
  2
Standard
 70
     0
178
     0
340
11
  0
DIMSTYLE
105
A0
102
{ACAD_REACTORS
330
9F
330
B4
102
}
330
A
100
AcDbSymbolTableRecord
100
AcDbDimStyleTableRecord
  2
SLDDIMSTYLE0
 70
     0
 41
0.262898763
 44
0.0
 45
0.000000001
 78
    12
 79
     3
140
0.262898763
147
0.0657246908
148
0.000000001
170
     1
173
     1
178
     0
271
     6
272
     3
276
     2
277
     5
284
    12
340
8C
  0
DIMSTYLE
105
CB
102
{ACAD_REACTORS
330
CA
102
}
330
A
100
AcDbSymbolTableRecord
100
AcDbDimStyleTableRecord
  2
SLDDIMSTYLE1
 70
     0
 41
0.262898763
 44
0.0
 45
0.000000001
 78
    12
 79
     3
140
0.262898763
141
0.0
147
0.0657246908
148
0.000000001
170
     1
173
     1
178
     0
271
     3
272
     3
276
     2
277
     5
284
    12
340
8C
  0
DIMSTYLE
105
DE
102
{ACAD_REACTORS
330
DD
102
}
330
A
100
AcDbSymbolTableRecord
100
AcDbDimStyleTableRecord
  2
SLDDIMSTYLE2
 70
     0
 41
0.262898763
 44
0.0
 45
0.000000001
 78
    12
 79
     3
140
0.262898763
141
0.0
147
0.0657246908
148
0.000000001
170
     1
173
     1
178
     0
271
     3
272
     3
276
     2
277
     5
284
    12
340
8C
  0
DIMSTYLE
105
10D
330
A
100
AcDbSymbolTableRecord
100
AcDbDimStyleTableRecord
  2
SLDDIMSTYLE3
 70
     0
 41
0.262898763
 44
0.0
 45
0.000000001
140
0.0
146
0.262898763
147
0.0
173
     1
178
     0
271
     0
272
     0
276
     2
277
     5
340
11
  0
ENDTAB
  0
TABLE
  2
BLOCK_RECORD
  5
1
330
0
100
AcDbSymbolTable
 70
    12
  0
BLOCK_RECORD
  5
1F
330
1
100
AcDbSymbolTableRecord
100
AcDbBlockTableRecord
  2
*Model_Space
340
22
  0
BLOCK_RECORD
  5
1B
330
1
100
AcDbSymbolTableRecord
100
AcDbBlockTableRecord
  2
*Paper_Space
340
1E
  0
BLOCK_RECORD
  5
23
330
1
100
AcDbSymbolTableRecord
100
AcDbBlockTableRecord
  2
*Paper_Space0
340
26
  0
BLOCK_RECORD
  5
4B
330
1
100
AcDbSymbolTableRecord
100
AcDbBlockTableRecord
  2
REVEAL - .125
340
0
102
{BLKREFS
331
9E
102
}
  0
BLOCK_RECORD
  5
7D
330
1
100
AcDbSymbolTableRecord
100
AcDbBlockTableRecord
  2
SW_BLOCK_DIMENSION_0
340
0
102
{BLKREFS
331
91
102
}
  0
BLOCK_RECORD
  5
A1
330
1
100
AcDbSymbolTableRecord
100
AcDbBlockTableRecord
  2
_D
340
0
  0
BLOCK_RECORD
  5
B5
330
1
100
AcDbSymbolTableRecord
100
AcDbBlockTableRecord
  2
_D_1
340
0
  0
BLOCK_RECORD
  5
CC
330
1
100
AcDbSymbolTableRecord
100
AcDbBlockTableRecord
  2
_D_2
340
0
  0
BLOCK_RECORD
  5
DF
330
1
100
AcDbSymbolTableRecord
100
AcDbBlockTableRecord
  2
_D_3
340
0
  0
BLOCK_RECORD
  5
F2
330
1
100
AcDbSymbolTableRecord
100
AcDbBlockTableRecord
  2
SW_NOTE_0
340
0
102
{BLKREFS
331
FD
102
}
  0
BLOCK_RECORD
  5
FE
330
1
100
AcDbSymbolTableRecord
100
AcDbBlockTableRecord
  2
SW_NOTE_1
340
0
102
{BLKREFS
331
104
102
}
  0
BLOCK_RECORD
  5
105
330
1
100
AcDbSymbolTableRecord
100
AcDbBlockTableRecord
  2
SW_NOTE_2
340
0
102
{BLKREFS
331
10C
102
}
  0
BLOCK_RECORD
  5
110
330
1
100
AcDbSymbolTableRecord
100
AcDbBlockTableRecord
  2
SW_NOTE_3
340
0
102
{BLKREFS
331
115
102
}
  0
BLOCK_RECORD
  5
117
330
1
100
AcDbSymbolTableRecord
100
AcDbBlockTableRecord
  2
SW_NOTE_4
340
0
102
{BLKREFS
331
121
102
}
  0
ENDTAB
  0
ENDSEC
  0
SECTION
  2
BLOCKS
  0
BLOCK
  5
20
330
1F
100
AcDbEntity
  8
0
100
AcDbBlockBegin
  2
*Model_Space
 70
     0
 10
0.0
 20
0.0
 30
0.0
  3
*Model_Space
  1

  0
ENDBLK
  5
21
330
1F
100
AcDbEntity
  8
0
100
AcDbBlockEnd
  0
BLOCK
  5
1C
330
1B
100
AcDbEntity
 67
     1
  8
0
100
AcDbBlockBegin
  2
*Paper_Space
 70
     0
 10
0.0
 20
0.0
 30
0.0
  3
*Paper_Space
  1

  0
ENDBLK
  5
1D
330
1B
100
AcDbEntity
 67
     1
  8
0
100
AcDbBlockEnd
  0
BLOCK
  5
24
330
23
100
AcDbEntity
  8
0
100
AcDbBlockBegin
  2
*Paper_Space0
 70
     0
 10
0.0
 20
0.0
 30
0.0
  3
*Paper_Space0
  1

  0
ENDBLK
  5
25
330
23
100
AcDbEntity
  8
0
100
AcDbBlockEnd
  0
BLOCK
  5
4C
330
4B
100
AcDbEntity
  8
0
100
AcDbBlockBegin
  2
REVEAL - .125
 70
     0
 10
0.0
 20
0.0
 30
0.0
  3
REVEAL - .125
  1

  0
ARC
  5
4E
330
4B
100
AcDbEntity
  8
BLOCKS
100
AcDbCircle
 10
-1.4047720451
 20
-12.8442954347
 30
0.0
 40
0.2333367804802293
100
AcDbArc
 50
0.0
 51
90.0
  0
ARC
  5
4F
330
4B
100
AcDbEntity
  8
BLOCKS
100
AcDbCircle
 10
-1.4394760169
 20
-12.1962194696
 30
0.0
 40
0.0041583245038854
100
AcDbArc
 50
0.0
 51
90.0
  0
ARC
  5
50
330
4B
100
AcDbEntity
  8
BLOCKS
100
AcDbCircle
 10
-2.2191634439
 20
-12.7398388164
 30
0.0
 40
0.0881257319589163
100
AcDbArc
 50
200.9822712638
 51
339.0177287362
  0
ARC
  5
51
330
4B
100
AcDbEntity
  8
BLOCKS
100
AcDbCircle
 10
-1.4047720451
 20
-12.8442954347
 30
0.0
 40
0.1874525384626438
100
AcDbArc
 50
0.0
 51
90.0
  0
LINE
  5
52
330
4B
100
AcDbEntity
  8
BLOCKS
100
AcDbLine
 10
-1.4394760169
 20
-12.1920611451
 30
0.0
 11
-3.01526606
 21
-12.1920611451
 31
0.0
  0
LINE
  5
53
330
4B
100
AcDbEntity
  8
BLOCKS
100
AcDbLine
 10
-2.9855824064
 20
-12.587244826
 30
0.0
 11
-1.4353176924
 21
-12.5884178222
 31
0.0
  0
LINE
  5
54
330
4B
100
AcDbEntity
  8
BLOCKS
100
AcDbLine
 10
-1.9656725284
 20
-12.6109586542
 30
0.0
 11
-1.4047720451
 21
-12.6109586542
 31
0.0
  0
LINE
  5
55
330
4B
100
AcDbEntity
  8
BLOCKS
100
AcDbLine
 10
-1.1714352646
 20
-12.8442954347
 30
0.0
 11
-1.1714352646
 21
-13.2310110215
 31
0.0
  0
LINE
  5
56
330
4B
100
AcDbEntity
  8
BLOCKS
100
AcDbLine
 10
-1.1714352646
 20
-13.2310110215
 30
0.0
 11
-1.2173195066
 21
-13.2310110215
 31
0.0
  0
LINE
  5
57
330
4B
100
AcDbEntity
  8
BLOCKS
100
AcDbLine
 10
-1.2173195066
 20
-13.2310110215
 30
0.0
 11
-1.2173195066
 21
-12.8442954347
 31
0.0
  0
LINE
  5
58
330
4B
100
AcDbEntity
  8
BLOCKS
100
AcDbLine
 10
-1.4047720451
 20
-12.6568428962
 30
0.0
 11
-1.9656725284
 21
-12.6568428962
 31
0.0
  0
LINE
  5
59
330
4B
100
AcDbEntity
  8
BLOCKS
100
AcDbLine
 10
-1.9656725284
 20
-12.6568428962
 30
0.0
 11
-1.9656725284
 21
-12.6109586542
 31
0.0
  0
LINE
  5
5A
330
4B
100
AcDbEntity
  8
BLOCKS
100
AcDbLine
 10
-1.5885264144
 20
-12.7093957625
 30
0.0
 11
-1.5358283025
 21
-12.6587686221
 31
0.0
  0
LINE
  5
5B
330
4B
100
AcDbEntity
  8
BLOCKS
100
AcDbLine
 10
-1.5358283025
 20
-12.6587686221
 30
0.0
 11
-1.4932052497
 21
-12.7031352284
 31
0.0
  0
LINE
  5
5C
330
4B
100
AcDbEntity
  8
BLOCKS
100
AcDbLine
 10
-1.4932052497
 20
-12.7031352284
 30
0.0
 11
-1.562140852
 21
-12.7693617458
 31
0.0
  0
LINE
  5
5D
330
4B
100
AcDbEntity
  8
BLOCKS
100
AcDbLine
 10
-2.8296332645
 20
-12.6419825586
 30
0.0
 11
-2.8821446813
 21
-12.5873230914
 31
0.0
  0
LINE
  5
5E
330
4B
100
AcDbEntity
  8
BLOCKS
100
AcDbLine
 10
-2.8821446813
 20
-12.5873230914
 30
0.0
 11
-2.9245601437
 21
-12.6280716779
 31
0.0
  0
LINE
  5
5F
330
4B
100
AcDbEntity
  8
BLOCKS
100
AcDbLine
 10
-2.9245601437
 20
-12.6280716779
 30
0.0
 11
-2.8624774729
 21
-12.692693924
 31
0.0
  0
LINE
  5
60
330
4B
100
AcDbEntity
  8
BLOCKS
100
AcDbLine
 10
-2.8296332645
 20
-12.6419825586
 30
0.0
 11
-1.5885264144
 21
-12.7093957625
 31
0.0
  0
LINE
  5
61
330
4B
100
AcDbEntity
  8
BLOCKS
100
AcDbLine
 10
-1.562140852
 20
-12.7693617458
 30
0.0
 11
-2.8624774729
 21
-12.692693924
 31
0.0
  0
LINE
  5
62
330
4B
100
AcDbEntity
  8
BLOCKS
100
AcDbLine
 10
-2.1393972724
 20
-12.6794741087
 30
0.0
 11
-2.1393972724
 21
-12.7353267185
 31
0.0
  0
LINE
  5
63
330
4B
100
AcDbEntity
  8
BLOCKS
100
AcDbLine
 10
-2.2940106407
 20
-12.671075974
 30
0.0
 11
-2.2940106407
 21
-12.7262107174
 31
0.0
  0
LINE
  5
64
330
4B
100
AcDbEntity
  8
BLOCKS
100
AcDbLine
 10
-2.3014456705
 20
-12.7713947956
 30
0.0
 11
-2.1368812173
 21
-12.7713947956
 31
0.0
  0
LINE
  5
65
330
4B
100
AcDbEntity
  8
BLOCKS
100
AcDbLine
 10
-2.2566740506
 20
-12.381095059
 30
0.0
 11
-2.2566740506
 21
-12.7713947956
 31
0.0
  0
LINE
  5
66
330
4B
100
AcDbEntity
  8
BLOCKS
100
AcDbLine
 10
-2.1797821788
 20
-12.381095059
 30
0.0
 11
-2.1797821788
 21
-12.7713947956
 31
0.0
  0
LINE
  5
67
330
4B
100
AcDbEntity
  8
BLOCKS
100
AcDbLine
 10
-2.3194491289
 20
-12.7273697282
 30
0.0
 11
-2.1070425499
 21
-12.739893216
 31
0.0
  0
LINE
  5
68
330
4B
100
AcDbEntity
  8
BLOCKS
100
AcDbLine
 10
-2.2566740506
 20
-12.381095059
 30
0.0
 11
-2.2187090708
 21
-12.325905678
 31
0.0
  0
LINE
  5
69
330
4B
100
AcDbEntity
  8
BLOCKS
100
AcDbLine
 10
-2.2187090708
 20
-12.325905678
 30
0.0
 11
-2.1797821788
 21
-12.381095059
 31
0.0
  0
LINE
  5
6A
330
4B
100
AcDbEntity
  8
BLOCKS
100
AcDbLine
 10
-2.108936665
 20
-12.7720186533
 30
0.0
 11
-2.3213432441
 21
-12.7594951655
 31
0.0
  0
LINE
  5
6B
330
4B
100
AcDbEntity
  8
BLOCKS
100
AcDbLine
 10
-2.1070425499
 20
-12.739893216
 30
0.0
 11
-2.108936665
 21
-12.7720186533
 31
0.0
  0
LINE
  5
6C
330
4B
100
AcDbEntity
  8
BLOCKS
100
AcDbLine
 10
-2.3194491289
 20
-12.7273697282
 30
0.0
 11
-2.3213432441
 21
-12.7594951655
 31
0.0
  0
LINE
  5
6D
330
4B
100
AcDbEntity
  8
BLOCKS
100
AcDbLine
 10
-2.1534117467
 20
-12.5878744817
 30
0.0
 11
-2.1534117467
 21
-12.3074165013
 31
0.0
  0
LINE
  5
6E
330
4B
100
AcDbEntity
  8
BLOCKS
100
AcDbLine
 10
-2.1534117467
 20
-12.3074165013
 30
0.0
 11
-2.2799487024
 21
-12.3074165013
 31
0.0
  0
LINE
  5
6F
330
4B
100
AcDbEntity
  8
BLOCKS
100
AcDbLine
 10
-2.2799487024
 20
-12.3074165013
 30
0.0
 11
-2.2799487024
 21
-12.5877787385
 31
0.0
  0
LINE
  5
70
330
4B
100
AcDbEntity
  8
BLOCKS
  6
Continuous
100
AcDbLine
 10
-1.4353176924
 20
-12.5884178222
 30
0.0
 11
-1.4353176924
 21
-12.1962194696
 31
0.0
  0
LINE
  5
71
330
4B
100
AcDbEntity
  8
BLOCKS
100
AcDbLine
 10
-1.9656725284
 20
-12.5880165332
 30
0.0
 11
-1.9656725284
 21
-12.6339007752
 31
0.0
  0
LINE
  5
72
330
4B
100
AcDbEntity
  8
BLOCKS
100
AcDbLine
 10
-1.4353176924
 20
-12.5884178222
 30
0.0
 11
-1.4200334992
 21
-12.6109586542
 31
0.0
  0
SPLINE
  5
73
330
4B
100
AcDbEntity
  8
BLOCKS
100
AcDbSpline
210
0.0
220
0.0
230
1.0
 70
     8
 71
     3
 72
     9
 73
     5
 74
     0
 42
0.00000001
 43
0.00000001
 12
1.0
 22
0.0
 32
0.0
 13
1.0
 23
0.0
 33
0.0
 40
0.0
 40
0.0
 40
0.0
 40
0.0
 40
0.5928291688347104
 40
1.0
 40
1.0
 40
1.0
 40
1.0
 10
-2.985582406350157
 20
-12.58724482604875
 30
0.0
 10
-3.030158058563441
 20
-12.50141038487578
 30
0.0
 10
-2.950675096239938
 20
-12.38218687093916
 30
0.0
 10
-2.968787917689462
 20
-12.22793862570682
 30
0.0
 10
-3.015266060000032
 20
-12.19206114512515
 30
0.0
  0
HATCH
  5
74
330
4B
100
AcDbEntity
  8
BLOCKS
 62
    16
100
AcDbHatch
 10
0.0
 20
0.0
 30
0.0
210
0.0
220
0.0
230
1.0
  2
ANSI36
 70
     0
 71
     0
 91
        1
 92
        0
 93
       10
 72
     4
 94
        3
 73
     1
 74
     0
 95
        9
 96
        5
 40
0.0
 40
0.0
 40
0.0
 40
0.0
 40
0.4071708311652896
 40
1.0
 40
1.0
 40
1.0
 40
1.0
 10
-3.015266060000032
 20
-12.19206114512515
 42
1.0
 10
-2.968787917689462
 20
-12.22793862570682
 42
1.0
 10
-2.950675096239938
 20
-12.38218687093916
 42
1.0
 10
-3.030158058563441
 20
-12.50141038487578
 42
1.0
 10
-2.985582406350157
 20
-12.58724482604875
 42
1.0
 72
     1
 10
-2.985582406350157
 20
-12.58724482604875
 11
-2.279948702443812
 21
-12.58777873850265
 72
     1
 10
-2.279948702443812
 20
-12.58777873850265
 11
-2.279948702443812
 21
-12.30741650130867
 72
     1
 10
-2.279948702443812
 20
-12.30741650130867
 11
-2.153411746731021
 21
-12.30741650130867
 72
     1
 10
-2.153411746731021
 20
-12.30741650130867
 11
-2.153411746731021
 21
-12.5878744817419
 72
     1
 10
-2.153411746731021
 20
-12.5878744817419
 11
-1.965672528406843
 21
-12.58801653321449
 72
     1
 10
-1.965672528406843
 20
-12.58801653321449
 11
-1.435317692358862
 21
-12.5884178222266
 72
     1
 10
-1.435317692358862
 20
-12.5884178222266
 11
-1.435317692358862
 21
-12.19621946962904
 72
     2
 10
-1.439476016862747
 20
-12.19621946962904
 40
0.0041583245038848
 50
0.0
 51
90.0
 73
     1
 72
     1
 10
-1.439476016862747
 20
-12.19206114512515
 11
-3.015266060000032
 21
-12.19206114512515
 97
        0
 75
     0
 76
     1
 52
0.0
 41
0.5
 77
     0
 78
     1
 53
45.0
 43
0.0
 44
0.0
 45
0.0331456303681194
 46
0.1215339780164378
 79
     4
 49
0.15625
 49
-0.03125
 49
0.0
 49
-0.03125
 98
        1
 10
0.0
 20
0.0
  0
HATCH
  5
75
330
4B
100
AcDbEntity
  8
BLOCKS
 62
    16
100
AcDbHatch
 10
0.0
 20
0.0
 30
0.0
210
0.0
220
0.0
230
1.0
  2
ANSI32
 70
     0
 71
     0
 91
        1
 92
        0
 93
        5
 72
     1
 10
-2.179782178789117
 20
-12.38109505902804
 11
-2.218709070778683
 21
-12.32590567801565
 72
     1
 10
-2.218709070778683
 20
-12.32590567801565
 11
-2.256674050591661
 21
-12.38109505902804
 72
     1
 10
-2.256674050591661
 20
-12.38109505902804
 11
-2.256674050591661
 21
-12.58779634909355
 72
     1
 10
-2.256674050591661
 20
-12.58779634909355
 11
-2.179782178789117
 21
-12.58785452875211
 72
     1
 10
-2.179782178789117
 20
-12.58785452875211
 11
-2.179782178789117
 21
-12.38109505902804
 97
        0
 75
     0
 76
     1
 52
0.0
 41
0.1666666667
 77
     0
 78
     2
 53
45.0
 43
0.0
 44
0.0
 45
-0.0441941738241592
 46
0.0441941738241592
 79
     0
 53
45.0
 43
0.0294627825
 44
0.0
 45
-0.0441941738241592
 46
0.0441941738241592
 79
     0
 98
        1
 10
0.0
 20
0.0
  0
HATCH
  5
76
330
4B
100
AcDbEntity
  8
BLOCKS
 62
    16
100
AcDbHatch
 10
0.0
 20
0.0
 30
0.0
210
0.0
220
0.0
230
1.0
  2
ANSI32
 70
     0
 71
     0
 91
        1
 92
        0
 93
        4
 72
     1
 10
-2.179782178789117
 20
-12.67728052166976
 11
-2.179782178789117
 21
-12.58785452875211
 72
     1
 10
-2.179782178789117
 20
-12.58785452875211
 11
-2.256674050591661
 21
-12.58779634909355
 72
     1
 10
-2.256674050591661
 20
-12.58779634909355
 11
-2.256674050591661
 21
-12.67310398567544
 72
     1
 10
-2.256674050591661
 20
-12.67310398567544
 11
-2.179782178789117
 21
-12.67728052166976
 97
        0
 75
     0
 76
     1
 52
0.0
 41
0.1666666667
 77
     0
 78
     2
 53
45.0
 43
0.0
 44
0.0
 45
-0.0441941738241592
 46
0.0441941738241592
 79
     0
 53
45.0
 43
0.0294627825
 44
0.0
 45
-0.0441941738241592
 46
0.0441941738241592
 79
     0
 98
        1
 10
0.0
 20
0.0
  0
HATCH
  5
77
330
4B
100
AcDbEntity
  8
BLOCKS
 62
    16
100
AcDbHatch
 10
0.0
 20
0.0
 30
0.0
210
0.0
220
0.0
230
1.0
  2
ANSI32
 70
     0
 71
     0
 91
        1
 92
        0
 93
        4
 72
     1
 10
-2.179782178789117
 20
-12.73294562524584
 11
-2.179782178789117
 21
-12.67728052166976
 72
     1
 10
-2.179782178789117
 20
-12.67728052166976
 11
-2.256674050591661
 21
-12.67310398567544
 72
     1
 10
-2.256674050591661
 20
-12.67310398567544
 11
-2.256674050591661
 21
-12.72841208198663
 72
     1
 10
-2.256674050591661
 20
-12.72841208198663
 11
-2.179782178789117
 21
-12.73294562524584
 97
        0
 75
     0
 76
     1
 52
0.0
 41
0.1666666667
 77
     0
 78
     2
 53
45.0
 43
0.0
 44
0.0
 45
-0.0441941738241592
 46
0.0441941738241592
 79
     0
 53
45.0
 43
0.0294627825
 44
0.0
 45
-0.0441941738241592
 46
0.0441941738241592
 79
     0
 98
        1
 10
0.0
 20
0.0
  0
HATCH
  5
78
330
4B
100
AcDbEntity
  8
BLOCKS
 62
    16
100
AcDbHatch
 10
0.0
 20
0.0
 30
0.0
210
0.0
220
0.0
230
1.0
  2
ANSI32
 70
     0
 71
     0
 91
        1
 92
        0
 93
        4
 72
     1
 10
-2.256674050591661
 20
-12.76330805989465
 11
-2.179782178789118
 21
-12.76784160315386
 72
     1
 10
-2.179782178789118
 20
-12.76784160315386
 11
-2.179782178789118
 21
-12.73560448884958
 72
     1
 10
-2.179782178789118
 20
-12.73560448884958
 11
-2.256674050591661
 21
-12.73107094559037
 72
     1
 10
-2.256674050591661
 20
-12.73107094559037
 11
-2.256674050591661
 21
-12.76330805989465
 97
        0
 75
     0
 76
     1
 52
0.0
 41
0.1666666667
 77
     0
 78
     2
 53
45.0
 43
0.0
 44
0.0
 45
-0.0441941738241592
 46
0.0441941738241592
 79
     0
 53
45.0
 43
0.0294627825
 44
0.0
 45
-0.0441941738241592
 46
0.0441941738241592
 79
     0
 98
        1
 10
0.0
 20
0.0
  0
HATCH
  5
79
330
4B
100
AcDbEntity
  8
BLOCKS
 62
    16
100
AcDbHatch
 10
0.0
 20
0.0
 30
0.0
210
0.0
220
0.0
230
1.0
  2
ANSI32
 70
     0
 71
     0
 91
        1
 92
        0
 93
        4
 72
     1
 10
-2.256674050591661
 20
-12.73107094559037
 11
-2.319449128927512
 21
-12.72736972819816
 72
     1
 10
-2.319449128927512
 20
-12.72736972819816
 11
-2.321343244083758
 21
-12.75949516550983
 72
     1
 10
-2.321343244083758
 20
-12.75949516550983
 11
-2.256674050591661
 21
-12.76330805989465
 72
     1
 10
-2.256674050591661
 20
-12.76330805989465
 11
-2.256674050591661
 21
-12.73107094559037
 97
        0
 75
     0
 76
     1
 52
0.0
 41
0.1666666667
 77
     0
 78
     2
 53
45.0
 43
0.0
 44
0.0
 45
-0.0441941738241592
 46
0.0441941738241592
 79
     0
 53
45.0
 43
0.0294627825
 44
0.0
 45
-0.0441941738241592
 46
0.0441941738241592
 79
     0
 98
        1
 10
0.0
 20
0.0
  0
HATCH
  5
7A
330
4B
100
AcDbEntity
  8
BLOCKS
 62
    16
100
AcDbHatch
 10
0.0
 20
0.0
 30
0.0
210
0.0
220
0.0
230
1.0
  2
ANSI32
 70
     0
 71
     0
 91
        1
 92
        0
 93
        4
 72
     1
 10
-2.108936665011524
 20
-12.77201865326204
 11
-2.107042549855277
 21
-12.73989321595037
 72
     1
 10
-2.107042549855277
 20
-12.73989321595037
 11
-2.179782178789118
 21
-12.73560448884958
 72
     1
 10
-2.179782178789118
 20
-12.73560448884958
 11
-2.179782178789118
 21
-12.76784160315386
 72
     1
 10
-2.179782178789118
 20
-12.76784160315386
 11
-2.108936665011524
 21
-12.77201865326204
 97
        0
 75
     0
 76
     1
 52
0.0
 41
0.1666666667
 77
     0
 78
     2
 53
45.0
 43
0.0
 44
0.0
 45
-0.0441941738241592
 46
0.0441941738241592
 79
     0
 53
45.0
 43
0.0294627825
 44
0.0
 45
-0.0441941738241592
 46
0.0441941738241592
 79
     0
 98
        1
 10
0.0
 20
0.0
  0
HATCH
  5
7B
330
4B
100
AcDbEntity
  8
BLOCKS
 62
    16
100
AcDbHatch
 10
0.0
 20
0.0
 30
0.0
210
0.0
220
0.0
230
1.0
  2
ANSI32
 70
     0
 71
     0
 91
        1
 92
        0
 93
        4
 72
     1
 10
-2.256674050591661
 20
-12.7713947955757
 11
-2.301445670477764
 21
-12.7713947955757
 72
     2
 10
-2.219163443908178
 20
-12.73983881636341
 40
0.0881257319589163
 50
200.9822712637967
 51
339.0177287362049
 73
     1
 72
     1
 10
-2.136881217338592
 20
-12.7713947955757
 11
-2.179782178789117
 21
-12.7713947955757
 72
     1
 10
-2.179782178789117
 20
-12.7713947955757
 11
-2.256674050591661
 21
-12.7713947955757
 97
        0
 75
     0
 76
     1
 52
0.0
 41
0.1666666667
 77
     0
 78
     2
 53
45.0
 43
0.0
 44
0.0
 45
-0.0441941738241592
 46
0.0441941738241592
 79
     0
 53
45.0
 43
0.0294627825
 44
0.0
 45
-0.0441941738241592
 46
0.0441941738241592
 79
     0
 98
        1
 10
0.0
 20
0.0
  0
HATCH
  5
7C
330
4B
100
AcDbEntity
  8
BLOCKS
 62
    16
100
AcDbHatch
 10
0.0
 20
0.0
 30
0.0
210
0.0
220
0.0
230
1.0
  2
SOLID
 70
     1
 71
     0
 91
        1
 92
        0
 93
        4
 72
     1
 10
-1.420033499233286
 20
-12.61095865422328
 11
-1.435317692358862
 21
-12.5884178222266
 72
     1
 10
-1.435317692358862
 20
-12.5884178222266
 11
-1.965672528406843
 21
-12.58801653321449
 72
     1
 10
-1.965672528406843
 20
-12.58801653321449
 11
-1.965672528406843
 21
-12.61095865422328
 72
     1
 10
-1.965672528406843
 20
-12.61095865422328
 11
-1.420033499233286
 21
-12.61095865422328
 97
        0
 75
     0
 76
     1
 98
        1
 10
0.0
 20
0.0
  0
INSERT
  5
91
330
4B
100
AcDbEntity
  8
BLOCKS
100
AcDbBlockReference
  2
SW_BLOCK_DIMENSION_0
 10
-2.0655976363
 20
-11.8809041343
 30
0.0
  0
ENDBLK
  5
4D
330
4B
100
AcDbEntity
  8
0
100
AcDbBlockEnd
  0
BLOCK
  5
7E
330
7D
100
AcDbEntity
  8
0
100
AcDbBlockBegin
  2
SW_BLOCK_DIMENSION_0
 70
     0
 10
0.0
 20
0.0
 30
0.0
  3
SW_BLOCK_DIMENSION_0
  1

  0
SOLID
  5
80
330
7D
100
AcDbEntity
  8
BLOCKS
 62
     0
100
AcDbTrace
 10
0.8941623717
 20
-0.0231481578
 30
0.0
 11
0.9952772806
 21
-0.0387042976
 31
0.0
 12
0.9952772806
 22
-0.007592018
 32
0.0
 13
0.9952772806
 23
-0.007592018
 33
0.0
  0
SOLID
  5
81
330
7D
100
AcDbEntity
  8
BLOCKS
 62
     0
100
AcDbTrace
 10
0.630279944
 20
-0.0231481578
 30
0.0
 11
0.5291650351
 21
-0.007592018
 31
0.0
 12
0.5291650351
 22
-0.0387042976
 32
0.0
 13
0.5291650351
 23
-0.0387042976
 33
0.0
  0
LINE
  5
82
330
7D
100
AcDbEntity
  8
BLOCKS
 62
     0
100
AcDbLine
 10
0.079089508
 20
-0.0231481486
 30
0.0
 11
0.0559413594
 21
-0.0231481486
 31
0.0
  0
LINE
  5
83
330
7D
100
AcDbEntity
  8
BLOCKS
 62
     0
100
AcDbLine
 10
0.0559413594
 20
-0.0231481486
 30
0.0
 11
0.0559413594
 21
-0.1784336481
 31
0.0
  0
LINE
  5
84
330
7D
100
AcDbEntity
  8
BLOCKS
 62
     0
100
AcDbLine
 10
0.0559413594
 20
-0.1784336481
 30
0.0
 11
0.079089508
 21
-0.1784336481
 31
0.0
  0
LINE
  5
85
330
7D
100
AcDbEntity
  8
BLOCKS
 62
     0
100
AcDbLine
 10
0.4070216247
 20
-0.0231481486
 30
0.0
 11
0.4301697734
 21
-0.0231481486
 31
0.0
  0
LINE
  5
86
330
7D
100
AcDbEntity
  8
BLOCKS
 62
     0
100
AcDbLine
 10
0.4301697734
 20
-0.0231481486
 30
0.0
 11
0.4301697734
 21
-0.1784336481
 31
0.0
  0
LINE
  5
87
330
7D
100
AcDbEntity
  8
BLOCKS
 62
     0
100
AcDbLine
 10
0.4301697734
 20
-0.1784336481
 30
0.0
 11
0.4070216247
 21
-0.1784336481
 31
0.0
  0
LINE
  5
88
330
7D
100
AcDbEntity
  8
BLOCKS
 62
     0
100
AcDbLine
 10
0.8941623717
 20
-0.9133913004
 30
0.0
 11
0.8941623717
 21
0.1018518422
 31
0.0
  0
LINE
  5
89
330
7D
100
AcDbEntity
  8
BLOCKS
 62
     0
100
AcDbLine
 10
0.630279944
 20
-0.2653153354
 30
0.0
 11
0.630279944
 21
0.1018518422
 31
0.0
  0
LINE
  5
8A
330
7D
100
AcDbEntity
  8
BLOCKS
 62
     0
100
AcDbLine
 10
0.8941623717
 20
-0.0231481578
 30
0.0
 11
1.0886141195
 21
-0.0231481578
 31
0.0
  0
LINE
  5
8B
330
7D
100
AcDbEntity
  8
BLOCKS
 62
     0
100
AcDbLine
 10
0.630279944
 20
-0.0231481578
 30
0.0
 11
0.486763034
 21
-0.0231481578
 31
0.0
  0
MTEXT
  5
8D
330
7D
100
AcDbEntity
  8
BLOCKS
 62
     0
100
AcDbMText
 10
0.0390625
 20
0.1342778896
 30
0.0039370079
 40
0.1041666667
 41
0.0
 71
     1
 72
     1
  1

  7
SLDTEXTSTYLE0
 73
     1
 44
1.0
  0
MTEXT
  5
8E
330
7D
100
AcDbEntity
  8
BLOCKS
 62
     0
100
AcDbMText
 10
0.1466049406
 20
0.1342778896
 30
0.0039370079
 40
0.1041666667
 41
0.0
 71
     1
 72
     1
  1
1/8
  7
SLDTEXTSTYLE0
 73
     1
 44
1.0
  0
MTEXT
  5
8F
330
7D
100
AcDbEntity
  8
BLOCKS
 62
     0
100
AcDbMText
 10
0.1080246921
 20
-0.0441557517
 30
0.0039370079
 40
0.1041666667
 41
0.0
 71
     1
 72
     1
  1
3.20
  7
SLDTEXTSTYLE0
 73
     1
 44
1.0
  0
MTEXT
  5
90
330
7D
100
AcDbEntity
  8
BLOCKS
 62
     0
100
AcDbMText
 10
0.4865933934
 20
0.1342778896
 30
0.0039370079
 40
0.1041666667
 41
0.0
 71
     1
 72
     1
  1

  7
SLDTEXTSTYLE0
 73
     1
 44
1.0
  0
ENDBLK
  5
7F
330
7D
100
AcDbEntity
  8
0
100
AcDbBlockEnd
  0
BLOCK
  5
A2
330
A1
100
AcDbEntity
  8
0
100
AcDbBlockBegin
  2
_D
 70
     0
 10
0.0
 20
0.0
 30
0.0
  3
_D
  1

  0
SOLID
  5
A4
330
A1
100
AcDbEntity
  8
DIMS
100
AcDbTrace
 10
11.9540684862
 20
2.2083551285
 30
0.0
 11
11.9945144498
 21
2.4712538915
 31
0.0
 12
11.9136225227
 22
2.4712538915
 32
0.0
 13
11.9136225227
 23
2.4712538915
 33
0.0
  0
SOLID
  5
A5
330
A1
100
AcDbEntity
  8
DIMS
100
AcDbTrace
 10
11.9540684862
 20
21.6966453446
 30
0.0
 11
11.9136225227
 21
21.4337465816
 31
0.0
 12
11.9945144498
 22
21.4337465816
 32
0.0
 13
11.9945144498
 23
21.4337465816
 33
0.0
  0
LINE
  5
A6
330
A1
100
AcDbEntity
  8
DIMS
100
AcDbLine
 10
11.9518115598
 20
18.5681420827
 30
0.0
 11
12.2291649408
 21
18.5681420827
 31
0.0
  0
LINE
  5
A7
330
A1
100
AcDbEntity
  8
DIMS
100
AcDbLine
 10
11.5779111116
 20
18.116151355
 30
0.0
 11
11.5177259256
 21
18.116151355
 31
0.0
  0
LINE
  5
A8
330
A1
100
AcDbEntity
  8
DIMS
100
AcDbLine
 10
11.5177259256
 20
18.116151355
 30
0.0
 11
11.5177259256
 21
17.7124090857
 31
0.0
  0
LINE
  5
A9
330
A1
100
AcDbEntity
  8
DIMS
100
AcDbLine
 10
11.5177259256
 20
17.7124090857
 30
0.0
 11
11.5779111116
 21
17.7124090857
 31
0.0
  0
LINE
  5
AA
330
A1
100
AcDbEntity
  8
DIMS
100
AcDbLine
 10
12.3302258975
 20
18.116151355
 30
0.0
 11
12.3904110835
 21
18.116151355
 31
0.0
  0
LINE
  5
AB
330
A1
100
AcDbEntity
  8
DIMS
100
AcDbLine
 10
12.3904110835
 20
18.116151355
 30
0.0
 11
12.3904110835
 21
17.7124090857
 31
0.0
  0
LINE
  5
AC
330
A1
100
AcDbEntity
  8
DIMS
100
AcDbLine
 10
12.3904110835
 20
17.7124090857
 30
0.0
 11
12.3302258975
 21
17.7124090857
 31
0.0
  0
LINE
  5
AD
330
A1
100
AcDbEntity
  8
DIMS
100
AcDbLine
 10
11.9540684862
 20
2.2083551285
 30
0.0
 11
11.9540684862
 21
17.6522239777
 31
0.0
  0
LINE
  5
AE
330
A1
100
AcDbEntity
  8
DIMS
100
AcDbLine
 10
11.9540684862
 20
21.6966453446
 30
0.0
 11
11.9540684862
 21
18.9062323713
 31
0.0
  0
MTEXT
  5
AF
330
A1
100
AcDbEntity
  8
DIMS
100
AcDbMText
 10
11.5122089439
 20
18.709732248
 30
0.0039370079
 40
0.2708333333
 41
0.0
 71
     1
 72
     1
  1
19
  7
SLDTEXTSTYLE0
 73
     1
 44
1.0
  0
MTEXT
  5
B0
330
A1
100
AcDbEntity
  8
DIMS
100
AcDbMText
 10
11.9901796116
 20
18.8942437682
 30
0.0039370079
 40
0.2708333333
 41
0.0
 71
     1
 72
     1
  1
1
  7
SLDTEXTSTYLE0
 73
     1
 44
1.0
  0
MTEXT
  5
B1
330
A1
100
AcDbEntity
  8
DIMS
100
AcDbMText
 10
11.9901796116
 20
18.5254590309
 30
0.0039370079
 40
0.2708333333
 41
0.0
 71
     1
 72
     1
  1
2
  7
SLDTEXTSTYLE0
 73
     1
 44
1.0
  0
MTEXT
  5
B2
330
A1
100
AcDbEntity
  8
DIMS
100
AcDbMText
 10
12.267532965
 20
18.709732248
 30
0.0039370079
 40
0.2708333333
 41
0.0
 71
     1
 72
     1
  1
"
  7
SLDTEXTSTYLE0
 73
     1
 44
1.0
  0
MTEXT
  5
B3
330
A1
100
AcDbEntity
  8
DIMS
100
AcDbMText
 10
11.6531425975
 20
18.0615315894
 30
0.0039370079
 40
0.2708333333
 41
0.0
 71
     1
 72
     1
  1
495
  7
SLDTEXTSTYLE0
 73
     1
 44
1.0
  0
ENDBLK
  5
A3
330
A1
100
AcDbEntity
  8
0
100
AcDbBlockEnd
  0
BLOCK
  5
B6
330
B5
100
AcDbEntity
  8
0
100
AcDbBlockBegin
  2
_D_1
 70
     0
 10
0.0
 20
0.0
 30
0.0
  3
_D_1
  1

  0
SOLID
  5
B8
330
B5
100
AcDbEntity
  8
DIMS
100
AcDbTrace
 10
2.7198703445
 20
9.7677323661
 30
0.0
 11
2.9827691075
 21
9.7272864026
 31
0.0
 12
2.9827691075
 22
9.8081783296
 32
0.0
 13
2.9827691075
 23
9.8081783296
 33
0.0
  0
SOLID
  5
B9
330
B5
100
AcDbEntity
  8
DIMS
100
AcDbTrace
 10
25.2081605606
 20
9.7677323661
 30
0.0
 11
24.9452617976
 21
9.8081783296
 31
0.0
 12
24.9452617976
 22
9.7272864026
 32
0.0
 13
24.9452617976
 23
9.7272864026
 33
0.0
  0
LINE
  5
BA
330
B5
100
AcDbEntity
  8
DIMS
100
AcDbLine
 10
15.39518107
 20
10.0566462744
 30
0.0
 11
15.672534451
 21
10.0566462744
 31
0.0
  0
LINE
  5
BB
330
B5
100
AcDbEntity
  8
DIMS
100
AcDbLine
 10
14.7705089654
 20
9.6046555466
 30
0.0
 11
14.7103237794
 21
9.6046555466
 31
0.0
  0
LINE
  5
BC
330
B5
100
AcDbEntity
  8
DIMS
100
AcDbLine
 10
14.7103237794
 20
9.6046555466
 30
0.0
 11
14.7103237794
 21
9.2009132774
 31
0.0
  0
LINE
  5
BD
330
B5
100
AcDbEntity
  8
DIMS
100
AcDbLine
 10
14.7103237794
 20
9.2009132774
 30
0.0
 11
14.7705089654
 21
9.2009132774
 31
0.0
  0
LINE
  5
BE
330
B5
100
AcDbEntity
  8
DIMS
100
AcDbLine
 10
16.0243669907
 20
9.6046555466
 30
0.0
 11
16.0845521767
 21
9.6046555466
 31
0.0
  0
LINE
  5
BF
330
B5
100
AcDbEntity
  8
DIMS
100
AcDbLine
 10
16.0845521767
 20
9.6046555466
 30
0.0
 11
16.0845521767
 21
9.2009132774
 31
0.0
  0
LINE
  5
C0
330
B5
100
AcDbEntity
  8
DIMS
100
AcDbLine
 10
16.0845521767
 20
9.2009132774
 30
0.0
 11
16.0243669907
 21
9.2009132774
 31
0.0
  0
LINE
  5
C1
330
B5
100
AcDbEntity
  8
DIMS
100
AcDbLine
 10
2.7198703445
 20
11.9025002366
 30
0.0
 11
2.7198703445
 21
9.6427323661
 31
0.0
  0
LINE
  5
C2
330
B5
100
AcDbEntity
  8
DIMS
100
AcDbLine
 10
25.2081605606
 20
11.9025002366
 30
0.0
 11
25.2081605606
 21
9.6427323661
 31
0.0
  0
LINE
  5
C3
330
B5
100
AcDbEntity
  8
DIMS
100
AcDbLine
 10
2.7198703445
 20
9.7677323661
 30
0.0
 11
14.6049746133
 21
9.7677323661
 31
0.0
  0
LINE
  5
C4
330
B5
100
AcDbEntity
  8
DIMS
100
AcDbLine
 10
25.2081605606
 20
9.7677323661
 30
0.0
 11
16.1899013795
 21
9.7677323661
 31
0.0
  0
MTEXT
  5
C5
330
B5
100
AcDbEntity
  8
DIMS
100
AcDbMText
 10
14.9555784541
 20
10.1982364397
 30
0.0039370079
 40
0.2708333333
 41
0.0
 71
     1
 72
     1
  1
22
  7
SLDTEXTSTYLE0
 73
     1
 44
1.0
  0
MTEXT
  5
C6
330
B5
100
AcDbEntity
  8
DIMS
100
AcDbMText
 10
15.4335491217
 20
10.3827479598
 30
0.0039370079
 40
0.2708333333
 41
0.0
 71
     1
 72
     1
  1
1
  7
SLDTEXTSTYLE0
 73
     1
 44
1.0
  0
MTEXT
  5
C7
330
B5
100
AcDbEntity
  8
DIMS
100
AcDbMText
 10
15.4335491217
 20
10.0139632226
 30
0.0039370079
 40
0.2708333333
 41
0.0
 71
     1
 72
     1
  1
2
  7
SLDTEXTSTYLE0
 73
     1
 44
1.0
  0
MTEXT
  5
C8
330
B5
100
AcDbEntity
  8
DIMS
100
AcDbMText
 10
15.7109024752
 20
10.1982364397
 30
0.0039370079
 40
0.2708333333
 41
0.0
 71
     1
 72
     1
  1
"
  7
SLDTEXTSTYLE0
 73
     1
 44
1.0
  0
MTEXT
  5
C9
330
B5
100
AcDbEntity
  8
DIMS
100
AcDbMText
 10
14.8457404513
 20
9.5500357811
 30
0.0039370079
 40
0.2708333333
 41
0.0
 71
     1
 72
     1
  1
571.20
  7
SLDTEXTSTYLE0
 73
     1
 44
1.0
  0
ENDBLK
  5
B7
330
B5
100
AcDbEntity
  8
0
100
AcDbBlockEnd
  0
BLOCK
  5
CD
330
CC
100
AcDbEntity
  8
0
100
AcDbBlockBegin
  2
_D_2
 70
     0
 10
0.0
 20
0.0
 30
0.0
  3
_D_2
  1

  0
SOLID
  5
CF
330
CC
100
AcDbEntity
  8
DIMS
100
AcDbTrace
 10
3.6595708725
 20
2.7493714706
 30
0.0
 11
3.8660254698
 21
2.917085915
 31
0.0
 12
3.8060671583
 22
2.9713860508
 32
0.0
 13
3.8060671583
 23
2.9713860508
 33
0.0
  0
LINE
  5
D0
330
CC
100
AcDbEntity
  8
DIMS
100
AcDbLine
 10
4.6759386647
 20
4.2405854186
 30
0.0
 11
5.1539093415
 21
4.2405854186
 31
0.0
  0
LINE
  5
D1
330
CC
100
AcDbEntity
  8
DIMS
100
AcDbLine
 10
4.2217912836
 20
3.7885946909
 30
0.0
 11
4.1616060976
 21
3.7885946909
 31
0.0
  0
LINE
  5
D2
330
CC
100
AcDbEntity
  8
DIMS
100
AcDbLine
 10
4.1616060976
 20
3.7885946909
 30
0.0
 11
4.1616060976
 21
3.3848524216
 31
0.0
  0
LINE
  5
D3
330
CC
100
AcDbEntity
  8
DIMS
100
AcDbLine
 10
4.1616060976
 20
3.3848524216
 30
0.0
 11
4.2217912836
 21
3.3848524216
 31
0.0
  0
LINE
  5
D4
330
CC
100
AcDbEntity
  8
DIMS
100
AcDbLine
 10
5.2750320131
 20
3.7885946909
 30
0.0
 11
5.3352171991
 21
3.7885946909
 31
0.0
  0
LINE
  5
D5
330
CC
100
AcDbEntity
  8
DIMS
100
AcDbLine
 10
5.3352171991
 20
3.7885946909
 30
0.0
 11
5.3352171991
 21
3.3848524216
 31
0.0
  0
LINE
  5
D6
330
CC
100
AcDbEntity
  8
DIMS
100
AcDbLine
 10
5.3352171991
 20
3.3848524216
 30
0.0
 11
5.2750320131
 21
3.3848524216
 31
0.0
  0
LINE
  5
D7
330
CC
100
AcDbEntity
  8
DIMS
100
AcDbLine
 10
3.6595708725
 20
2.7493714706
 30
0.0
 11
4.1805769125
 21
3.3246673135
 31
0.0
  0
MTEXT
  5
D8
330
CC
100
AcDbEntity
  8
DIMS
100
AcDbMText
 10
4.1761508675
 20
4.3821755839
 30
0.0039370079
 40
0.2708333333
 41
0.0
 71
     1
 72
     1
  1
R2
  7
SLDTEXTSTYLE0
 73
     1
 44
1.0
  0
MTEXT
  5
D9
330
CC
100
AcDbEntity
  8
DIMS
100
AcDbMText
 10
4.8146153644
 20
4.5666871041
 30
0.0039370079
 40
0.2708333333
 41
0.0
 71
     1
 72
     1
  1
1
  7
SLDTEXTSTYLE0
 73
     1
 44
1.0
  0
MTEXT
  5
DA
330
CC
100
AcDbEntity
  8
DIMS
100
AcDbMText
 10
4.7143067257
 20
4.1979023668
 30
0.0039370079
 40
0.2708333333
 41
0.0
 71
     1
 72
     1
  1
16
  7
SLDTEXTSTYLE0
 73
     1
 44
1.0
  0
MTEXT
  5
DB
330
CC
100
AcDbEntity
  8
DIMS
100
AcDbMText
 10
5.1922774025
 20
4.3821755839
 30
0.0039370079
 40
0.2708333333
 41
0.0
 71
     1
 72
     1
  1
"
  7
SLDTEXTSTYLE0
 73
     1
 44
1.0
  0
MTEXT
  5
DC
330
CC
100
AcDbEntity
  8
DIMS
100
AcDbMText
 10
4.2970227695
 20
3.7339749253
 30
0.0039370079
 40
0.2708333333
 41
0.0
 71
     1
 72
     1
  1
53.10
  7
SLDTEXTSTYLE0
 73
     1
 44
1.0
  0
ENDBLK
  5
CE
330
CC
100
AcDbEntity
  8
0
100
AcDbBlockEnd
  0
BLOCK
  5
E0
330
DF
100
AcDbEntity
  8
0
100
AcDbBlockBegin
  2
_D_3
 70
     0
 10
0.0
 20
0.0
 30
0.0
  3
_D_3
  1

  0
SOLID
  5
E2
330
DF
100
AcDbEntity
  8
DIMS
100
AcDbTrace
 10
23.2904768409
 20
18.8795117045
 30
0.0
 11
23.0639762596
 21
18.7400515946
 31
0.0
 12
23.1163689207
 22
18.6784195175
 32
0.0
 13
23.1163689207
 23
18.6784195175
 33
0.0
  0
LINE
  5
E3
330
DF
100
AcDbEntity
  8
DIMS
100
AcDbLine
 10
21.5526826049
 20
17.9564946035
 30
0.0
 11
21.4924974189
 21
17.9564946035
 31
0.0
  0
LINE
  5
E4
330
DF
100
AcDbEntity
  8
DIMS
100
AcDbLine
 10
21.4924974189
 20
17.9564946035
 30
0.0
 11
21.4924974189
 21
17.5527523343
 31
0.0
  0
LINE
  5
E5
330
DF
100
AcDbEntity
  8
DIMS
100
AcDbLine
 10
21.4924974189
 20
17.5527523343
 30
0.0
 11
21.5526826049
 21
17.5527523343
 31
0.0
  0
LINE
  5
E6
330
DF
100
AcDbEntity
  8
DIMS
100
AcDbLine
 10
22.8065406302
 20
17.9564946035
 30
0.0
 11
22.8667258162
 21
17.9564946035
 31
0.0
  0
LINE
  5
E7
330
DF
100
AcDbEntity
  8
DIMS
100
AcDbLine
 10
22.8667258162
 20
17.9564946035
 30
0.0
 11
22.8667258162
 21
17.5527523343
 31
0.0
  0
LINE
  5
E8
330
DF
100
AcDbEntity
  8
DIMS
100
AcDbLine
 10
22.8667258162
 20
17.5527523343
 30
0.0
 11
22.8065406302
 21
17.5527523343
 31
0.0
  0
LINE
  5
E9
330
DF
100
AcDbEntity
  8
DIMS
100
AcDbLine
 10
21.2800210894
 20
17.1704483138
 30
0.0
 11
21.6589454248
 21
17.4925671712
 31
0.0
  0
LINE
  5
EA
330
DF
100
AcDbEntity
  8
DIMS
100
AcDbLine
 10
23.2904768409
 20
18.8795117045
 30
0.0
 11
22.700277847
 21
18.3777908917
 31
0.0
  0
LINE
  5
EB
330
DF
100
AcDbEntity
  8
DIMS
100
AcDbLine
 10
21.2800210894
 20
17.1704483138
 30
0.0
 11
21.956297297
 21
17.1156497027
 31
0.0
  0
LINE
  5
EC
330
DF
100
AcDbEntity
  8
DIMS
100
AcDbLine
 10
21.956297297
 20
17.1156497027
 30
0.0
 11
20.9815308721
 21
16.2870129072
 31
0.0
  0
LINE
  5
ED
330
DF
100
AcDbEntity
  8
DIMS
100
AcDbLine
 10
20.9815308721
 20
16.6907062112
 30
0.0
 11
20.9815308721
 21
15.8833196032
 31
0.0
  0
LINE
  5
EE
330
DF
100
AcDbEntity
  8
DIMS
100
AcDbLine
 10
20.5778375681
 20
16.2870129072
 30
0.0
 11
21.385224176
 21
16.2870129072
 31
0.0
  0
MTEXT
  5
EF
330
DF
100
AcDbEntity
  8
DIMS
100
AcDbMText
 10
21.884704236
 20
18.3658023069
 30
0.0039370079
 40
0.2708333333
 41
0.0
 71
     1
 72
     1
  1
R8"
  7
SLDTEXTSTYLE0
 73
     1
 44
1.0
  0
MTEXT
  5
F0
330
DF
100
AcDbEntity
  8
DIMS
100
AcDbMText
 10
21.6279140908
 20
17.9018748379
 30
0.0039370079
 40
0.2708333333
 41
0.0
 71
     1
 72
     1
  1
203.10
  7
SLDTEXTSTYLE0
 73
     1
 44
1.0
  0
ENDBLK
  5
E1
330
DF
100
AcDbEntity
  8
0
100
AcDbBlockEnd
  0
BLOCK
  5
F3
330
F2
100
AcDbEntity
  8
0
100
AcDbBlockBegin
  2
SW_NOTE_0
 70
     0
 10
0.0
 20
0.0
 30
0.0
  3
SW_NOTE_0
  1

  0
MTEXT
  5
F5
330
F2
100
AcDbEntity
  8
NOTES
 62
     0
100
AcDbMText
 10
0.0
 20
0.2685557791
 30
0.0
 40
0.2083333333
 41
0.0
 71
     1
 72
     1
  1
NOTES:
  7
SLDTEXTSTYLE0
 73
     1
 44
1.0
  0
MTEXT
  5
F6
330
F2
100
AcDbEntity
  8
NOTES
 62
     0
100
AcDbMText
 10
0.4399970804
 20
-0.2869997697
 30
0.0
 40
0.2083333333
 41
0.0
 71
     1
 72
     1
  1
THOROUGHLY READ ALL  INSTALLATION
  7
SLDTEXTSTYLE0
 73
     1
 44
1.0
  0
MTEXT
  5
F7
330
F2
100
AcDbEntity
  8
NOTES
 62
     0
100
AcDbMText
 10
0.0
 20
-0.2869997697
 30
0.0
 40
0.2083333333
 41
0.0
 71
     1
 72
     1
  1
1.
  7
SLDTEXTSTYLE0
 73
     1
 44
1.0
  0
MTEXT
  5
F8
330
F2
100
AcDbEntity
  8
NOTES
 62
     0
100
AcDbMText
 10
0.3937007786
 20
-0.5647775441
 30
0.0
 40
0.2083333333
 41
0.0
 71
     1
 72
     1
  1
INSTRUCTIONS
  7
SLDTEXTSTYLE0
 73
     1
 44
1.0
  0
MTEXT
  5
F9
330
F2
100
AcDbEntity
  8
NOTES
 62
     0
100
AcDbMText
 10
0.0
 20
-0.8425553186
 30
0.0
 40
0.2083333333
 41
0.0
 71
     1
 72
     1
  1
BEFORE CUTTING COUNTERTOP.
  7
SLDTEXTSTYLE0
 73
     1
 44
1.0
  0
MTEXT
  5
FA
330
F2
100
AcDbEntity
  8
NOTES
 62
     0
100
AcDbMText
 10
0.0
 20
-1.3981108674
 30
0.0
 40
0.2083333333
 41
0.0
 71
     1
 72
     1
  1
2.  DIMENSIONS ARE IN INCHES [MM].
  7
SLDTEXTSTYLE0
 73
     1
 44
1.0
  0
MTEXT
  5
FB
330
F2
100
AcDbEntity
  8
NOTES
 62
     0
100
AcDbMText
 10
0.0
 20
-2.2314441907
 30
0.0
 40
0.2083333333
 41
0.0
 71
     1
 72
     1
  1
PLEASE CHECK TEMPLATE AGAINST
  7
SLDTEXTSTYLE0
 73
     1
 44
1.0
  0
MTEXT
  5
FC
330
F2
100
AcDbEntity
  8
NOTES
 62
     0
100
AcDbMText
 10
0.0
 20
-2.5092219651
 30
0.0
 40
0.2083333333
 41
0.0
 71
     1
 72
     1
  1
PHYSICAL SINK FOR MOST ACCURATE CUT.
  7
SLDTEXTSTYLE0
 73
     1
 44
1.0
  0
ENDBLK
  5
F4
330
F2
100
AcDbEntity
  8
0
100
AcDbBlockEnd
  0
BLOCK
  5
FF
330
FE
100
AcDbEntity
  8
0
100
AcDbBlockBegin
  2
SW_NOTE_1
 70
     0
 10
0.0
 20
0.0
 30
0.0
  3
SW_NOTE_1
  1

  0
MTEXT
  5
101
330
FE
100
AcDbEntity
  8
NOTES
 62
     0
100
AcDbMText
 10
4.1171875
 20
0.6445338699
 30
0.0
 40
0.5
 41
0.0
 71
     2
 72
     1
  1
TEMPLATE #: 1000003467
  7
SLDTEXTSTYLE0
 73
     1
 44
1.0
  0
MTEXT
  5
102
330
FE
100
AcDbEntity
  8
NOTES
 62
     0
100
AcDbMText
 10
4.0378335062
 20
-0.0165995915
 30
0.0
 40
0.375
 41
0.0
 71
     2
 72
     1
  1
REVEAL UNDERMOUNT TEMPLATE
  7
SLDTEXTSTYLE0
 73
     1
 44
1.0
  0
MTEXT
  5
103
330
FE
100
AcDbEntity
  8
NOTES
 62
     0
100
AcDbMText
 10
4.1149165813
 20
-0.5165995855
 30
0.0
 40
0.375
 41
0.0
 71
     2
 72
     1
  1
22-1/4" X 19-1/4" W/ 2" RADIUS
  7
SLDTEXTSTYLE0
 73
     1
 44
1.0
  0
ENDBLK
  5
100
330
FE
100
AcDbEntity
  8
0
100
AcDbBlockEnd
  0
BLOCK
  5
106
330
105
100
AcDbEntity
  8
0
100
AcDbBlockBegin
  2
SW_NOTE_2
 70
     0
 10
0.0
 20
0.0
 30
0.0
  3
SW_NOTE_2
  1

  0
MTEXT
  5
108
330
105
100
AcDbEntity
  8
NOTES
 62
     0
100
AcDbMText
 10
-1.0645967738
 20
0.8248697162
 30
0.0
 40
0.25
 41
0.0
 71
     2
 72
     1
  1
TEMPLATE
  7
SLDTEXTSTYLE0
 73
     1
 44
1.0
  0
MTEXT
  5
109
330
105
100
AcDbEntity
  8
NOTES
 62
     0
100
AcDbMText
 10
-1.0608351548
 20
0.4915363868
 30
0.0
 40
0.25
 41
0.0
 71
     2
 72
     1
  1
CENTERLINE
  7
SLDTEXTSTYLE0
 73
     1
 44
1.0
  0
MTEXT
  5
10A
330
105
100
AcDbEntity
  8
NOTES
 62
     0
100
AcDbMText
 10
-1.0606905238
 20
-0.1751302718
 30
0.0
 40
0.25
 41
0.0
 71
     2
 72
     1
  1
PLANTILLA
  7
SLDTEXTSTYLE0
 73
     1
 44
1.0
  0
MTEXT
  5
10B
330
105
100
AcDbEntity
  8
NOTES
 62
     0
100
AcDbMText
 10
-1.0643074171
 20
-0.5084636011
 30
0.0
 40
0.25
 41
0.0
 71
     2
 72
     1
  1
CENTRAL
  7
SLDTEXTSTYLE0
 73
     1
 44
1.0
  0
ENDBLK
  5
107
330
105
100
AcDbEntity
  8
0
100
AcDbBlockEnd
  0
BLOCK
  5
111
330
110
100
AcDbEntity
  8
0
100
AcDbBlockBegin
  2
SW_NOTE_3
 70
     0
 10
0.0
 20
0.0
 30
0.0
  3
SW_NOTE_3
  1

  0
MTEXT
  5
113
330
110
100
AcDbEntity
  8
NOTES
 62
     0
100
AcDbMText
 10
2.1757195692
 20
0.2695091489
 30
0.0
 40
0.2083333333
 41
0.0
 71
     3
 72
     1
  1
1/8" REVEAL
  7
SLDTEXTSTYLE0
 73
     1
 44
1.0
  0
MTEXT
  5
114
330
110
100
AcDbEntity
  8
NOTES
 62
     0
100
AcDbMText
 10
2.1787579344
 20
-0.0082686255
 30
0.0
 40
0.2083333333
 41
0.0
 71
     3
 72
     1
  1
[3.2 REVELADO]
  7
SLDTEXTSTYLE0
 73
     1
 44
1.0
  0
ENDBLK
  5
112
330
110
100
AcDbEntity
  8
0
100
AcDbBlockEnd
  0
BLOCK
  5
118
330
117
100
AcDbEntity
  8
0
100
AcDbBlockBegin
  2
SW_NOTE_4
 70
     0
 10
0.0
 20
0.0
 30
0.0
  3
SW_NOTE_4
  1

  0
MTEXT
  5
11A
330
117
100
AcDbEntity
  8
DIMS
 62
     0
100
AcDbMText
 10
0.0
 20
0.2685557791
 30
0.0
 40
0.2083333333
 41
0.0
 71
     1
 72
     1
  1
NOTAS:
  7
SLDTEXTSTYLE0
 73
     1
 44
1.0
  0
MTEXT
  5
11B
330
117
100
AcDbEntity
  8
DIMS
 62
     0
100
AcDbMText
 10
0.5181220804
 20
-0.2869997697
 30
0.0
 40
0.2083333333
 41
0.0
 71
     1
 72
     1
  1
LEA ATENTAMENTE LAS INSTRUCCIONES DE
  7
SLDTEXTSTYLE0
 73
     1
 44
1.0
  0
MTEXT
  5
11C
330
117
100
AcDbEntity
  8
DIMS
 62
     0
100
AcDbMText
 10
0.0
 20
-0.2869997697
 30
0.0
 40
0.2083333333
 41
0.0
 71
     1
 72
     1
  1
1.
  7
SLDTEXTSTYLE0
 73
     1
 44
1.0
  0
MTEXT
  5
11D
330
117
100
AcDbEntity
  8
DIMS
 62
     0
100
AcDbMText
 10
0.0
 20
-0.5647775441
 30
0.0
 40
0.2083333333
 41
0.0
 71
     1
 72
     1
  1
INSTALACIÓN ANTES DE CORTAR LA ENCIMERA.
  7
SLDTEXTSTYLE0
 73
     1
 44
1.0
  0
MTEXT
  5
11E
330
117
100
AcDbEntity
  8
DIMS
 62
     0
100
AcDbMText
 10
0.0
 20
-1.120333093
 30
0.0
 40
0.2083333333
 41
0.0
 71
     1
 72
     1
  1
2.  DIMENSIONES EN PULGADAS [MM].
  7
SLDTEXTSTYLE0
 73
     1
 44
1.0
  0
MTEXT
  5
11F
330
117
100
AcDbEntity
  8
DIMS
 62
     0
100
AcDbMText
 10
0.0
 20
-1.9536664162
 30
0.0
 40
0.2083333333
 41
0.0
 71
     1
 72
     1
  1
POR FAVOR COMPRUEBE PLANTILLA CONTRA
  7
SLDTEXTSTYLE0
 73
     1
 44
1.0
  0
MTEXT
  5
120
330
117
100
AcDbEntity
  8
DIMS
 62
     0
100
AcDbMText
 10
0.0
 20
-2.2314441907
 30
0.0
 40
0.2083333333
 41
0.0
 71
     1
 72
     1
  1
FREGADERO FÍSICO PARA CORTE MÁS EXACTO.
  7
SLDTEXTSTYLE0
 73
     1
 44
1.0
  0
ENDBLK
  5
119
330
117
100
AcDbEntity
  8
0
100
AcDbBlockEnd
  0
ENDSEC
  0
SECTION
  2
ENTITIES
  0
LINE
  5
92
330
1F
100
AcDbEntity
  8
OBJECTS
100
AcDbLine
 10
17.1981866847
 20
21.6966453446
 30
0.0
 11
10.7298442204
 21
21.6966453446
 31
0.0
  0
LINE
  5
93
330
1F
100
AcDbEntity
  8
OBJECTS
100
AcDbLine
 10
5.0629242834
 20
2.2083551285
 30
0.0
 11
22.8651066217
 21
2.2083551285
 31
0.0
  0
LINE
  5
94
330
1F
100
AcDbEntity
  8
OBJECTS
  6
CENTERX2
100
AcDbLine
 10
13.9640154413
 20
2.2083551285
 30
0.0
 11
13.9640154413
 21
3.609128161
 31
0.0
  0
LINE
  5
95
330
1F
100
AcDbEntity
  8
OBJECTS
  6
CENTERX2
100
AcDbLine
 10
25.2081605606
 20
11.9525002366
 30
0.0
 11
23.8073875282
 21
11.9525002366
 31
0.0
  0
LINE
  5
96
330
1F
100
AcDbEntity
  8
OBJECTS
  6
CENTERX2
100
AcDbLine
 10
2.7198703445
 20
11.9525002366
 30
0.0
 11
4.120643377
 21
11.9525002366
 31
0.0
  0
LINE
  5
97
330
1F
100
AcDbEntity
  8
OBJECTS
  6
CENTERX2
100
AcDbLine
 10
13.9640154413
 20
21.6966453446
 30
0.0
 11
13.9640154413
 21
20.2958723121
 31
0.0
  0
ARC
  5
98
330
1F
100
AcDbEntity
  8
OBJECTS
100
AcDbCircle
 10
-93.0241735238
 20
11.9525002366
 30
0.0
 40
118.2323340844329
100
AcDbArc
 50
356.221567174
 51
0.9085854407
  0
ARC
  5
99
330
1F
100
AcDbEntity
  8
OBJECTS
100
AcDbCircle
 10
17.1981866847
 20
13.7005317326
 30
0.0
 40
7.996113611990655
100
AcDbArc
 50
0.9085854407
 51
90.0
  0
ARC
  5
9A
330
1F
100
AcDbEntity
  8
OBJECTS
100
AcDbCircle
 10
10.7298442204
 20
13.7005317326
 30
0.0
 40
7.996113611992779
100
AcDbArc
 50
90.0
 51
179.0914145593
  0
ARC
  5
9B
330
1F
100
AcDbEntity
  8
OBJECTS
100
AcDbCircle
 10
120.952204429
 20
11.9525002366
 30
0.0
 40
118.2323340844327
100
AcDbArc
 50
179.0914145593
 51
183.778432826
  0
ARC
  5
9C
330
1F
100
AcDbEntity
  8
OBJECTS
100
AcDbCircle
 10
5.0629242834
 20
4.2989569295
 30
0.0
 40
2.090601800968057
100
AcDbArc
 50
183.778432826
 51
270.0
  0
ARC
  5
9D
330
1F
100
AcDbEntity
  8
OBJECTS
100
AcDbCircle
 10
22.8651066217
 20
4.2989569295
 30
0.0
 40
2.090601800968768
100
AcDbArc
 50
270.0
 51
356.221567174
  0
INSERT
  5
9E
330
1F
100
AcDbEntity
  8
NOTES
100
AcDbBlockReference
  2
REVEAL - .125
 10
18.3821181605
 20
16.2446752423
 30
0.0
  0
DIMENSION
  5
9F
330
1F
100
AcDbEntity
  8
DIMS
100
AcDbDimension
  2
_D
 10
11.9540684862
 20
21.6966453446
 30
0.0
 11
11.9540684862
 21
18.2792281745
 31
0.0
 70
   160
  1
<>
 71
     2
 42
-1.0
  3
SLDDIMSTYLE0
100
AcDbAlignedDimension
 13
5.0629242834
 23
2.2083551285
 33
0.0
 14
10.7298442204
 24
21.6966453446
 34
0.0
 50
90.0
100
AcDbRotatedDimension
  0
DIMENSION
  5
B4
330
1F
100
AcDbEntity
  8
DIMS
100
AcDbDimension
  2
_D_1
 10
25.2081605606
 20
9.7677323661
 30
0.0
 11
15.3974379964
 21
9.7677323661
 31
0.0
 70
   160
  1
<>
 71
     2
 42
-1.0
  3
SLDDIMSTYLE0
100
AcDbAlignedDimension
 13
2.7198703445
 23
11.9525002366
 33
0.0
 14
25.2081605606
 24
11.9525002366
 34
0.0
100
AcDbRotatedDimension
  0
DIMENSION
  5
CA
330
1F
100
AcDbEntity
  8
DIMS
100
AcDbDimension
  2
_D_2
 10
5.0629242834
 20
4.2989569295
 30
0.0
 11
4.7484120604
 21
3.951671904
 31
0.0
 70
   164
  1
<>
 71
     1
 42
-1.0
  3
SLDDIMSTYLE1
100
AcDbRadialDimension
 15
3.6595708725
 25
2.7493714706
 35
0.0
 40
0.0
  0
LARGE_RADIAL_DIMENSION
  5
DD
330
1F
100
AcDbEntity
  8
DIMS
 92
     1544
310
08060000140000000C00000012000000000000000C0000001400000001000000A0000000090000000400000074DFB3B05C4A37408B2CD7AD27E1324000000000000000005BB986BF601037402A3C740574BD324000000000000000001D84845ACA1D37400677C8E6ACAD324000000000000000001D84845ACA1D37400677C8
310
E6ACAD32400000000000000000050000000400000000000000010000000200000003000000200000000100000002000000030000000400000000000000000000000C00000012000000FF7F00000C00000014000000020000005400000020000000020000000716719B7C8D35402AF190D4DCF4314000000000000000000193
310
934F147E35402AF190D4DCF43140000000000000000000000000000000000000000000000000000000000000F03F5400000020000000020000000193934F147E35402AF190D4DCF4314000000000000000000193934F147E3540206C4E2D818D31400000000000000000000000000000000000000000000000000000000000
310
00F03F5400000020000000020000000193934F147E3540206C4E2D818D314000000000000000000716719B7C8D3540206C4E2D818D3140000000000000000000000000000000000000000000000000000000000000F03F54000000200000000200000039AF5D7279CE36402AF190D4DCF43140000000000000000040323BBE
310
E1DD36402AF190D4DCF43140000000000000000000000000000000000000000000000000000000000000F03F54000000200000000200000040323BBEE1DD36402AF190D4DCF43140000000000000000040323BBEE1DD3640206C4E2D818D3140000000000000000000000000000000000000000000000000000000000000F0
310
3F54000000200000000200000040323BBEE1DD3640206C4E2D818D3140000000000000000039AF5D7279CE3640206C4E2D818D3140000000000000000000000000000000000000000000000000000000000000F03F540000002000000002000000C3F84C76AF4735400F452D80A22B314000000000000000009770B9A5B0A8
310
3540F355D3E1187E3140000000000000000000000000000000000000000000000000000000000000F03F54000000200000000200000074DFB3B05C4A37408B2CD7AD27E132400000000000000000A1CFB26845B33640387864E7B6603240000000000000000000000000000000000000000000000000000000000000F03F54
310
0000002000000002000000C3F84C76AF4735400F452D80A22B31400000000000000000F90650E6CFF435401DE80A389B1D3140000000000000000000000000000000000000000000000000000000000000F03F540000002000000002000000F90650E6CFF435401DE80A389B1D314000000000000000001878739B45FB3440
310
C1FB89AD79493040000000000000000000000000000000000000000000000000000000000000F03F5400000020000000020000001878739B45FB3440A92F4C1FD2B0304000000000000000001878739B45FB3440B38F8F7742C42F40000000000000000000000000000000000000000000000000000000000000F03F540000
310
0020000000020000003144B129ED933440C1FB89AD79493040000000000000000000AC350D9E623540C1FB89AD79493040000000000000000000000000000000000000000000000000000000000000F03F0C0000001200000000000000980000000B000000078973CBF0DB35407C69DCA48C173240070402814020703F0000
310
0000000000000000000000000000000000000000F03F000000000000F03F00000000000000000000000000000000523822000300000001000000555555555555D13F5C8FC2F5285CE33F0000000000000000000000000000F03F000000000000000000000000000000000000000000000000000000009C0000000B000000D9
310
F1B7CB339A3540505381B1C8A03140070402814020703F00000000000000000000000000000000000000000000F03F000000000000F03F000000000000000000000000000000003230332E313000000600000001000000555555555555D13F5C8FC2F5285CE33F0000000000000000000000000000F03F0000000000000000
310
0000000000000000000000000000000000000000
100
AcDbDimension
  2
_D_3
 10
27.0
 20
11.28
 30
0.0
 11
22.1796116359
 21
17.9351790314
 31
0.0
 70
   169
  1
<>
 71
     1
 42
-1.0
  3
SLDDIMSTYLE2
100
AcDbRadialDimensionLarge
 13
27.0
 23
11.28
 33
0.0
 14
27.07
 24
12.1
 34
0.0
 15
27.15
 25
13.0
 35
0.0
 40
0.0
  0
MTEXT
  5
F1
330
1F
100
AcDbEntity
  8
NOTES
100
AcDbMText
 10
20.7938777143
 20
2.9116914723
 30
0.0
 40
0.2083333333
 41
0.0
 71
     1
 72
     1
  1
REV_A  4/16
  7
SLDTEXTSTYLE0
 73
     1
 44
1.0
  0
INSERT
  5
FD
330
1F
100
AcDbEntity
  8
NOTES
100
AcDbBlockReference
  2
SW_NOTE_0
 10
4.1943570951
 20
15.8513210904
 30
0.0
  0
INSERT
  5
104
330
1F
100
AcDbEntity
  8
NOTES
100
AcDbBlockReference
  2
SW_NOTE_1
 10
13.9012741243
 20
7.7362783591
 30
0.0
  0
INSERT
  5
10C
102
{ACAD_REACTORS
330
10E
330
10F
102
}
330
1F
100
AcDbEntity
  8
NOTES
100
AcDbBlockReference
  2
SW_NOTE_2
 10
19.0470339989
 20
17.0839651424
 30
0.0
  0
LEADER
  5
10E
330
1F
100
AcDbEntity
  8
NOTES
100
AcDbLeader
  3
SLDDIMSTYLE3
 73
     2
 76
     3
 10
24.446804122
 20
11.9525002366
 30
0.0
 10
19.2970339989
 20
17.0839651424
 30
0.0
 10
19.0470339989
 20
17.0839651424
 30
0.0
340
10C
  0
LEADER
  5
10F
330
1F
100
AcDbEntity
  8
NOTES
100
AcDbLeader
  3
SLDDIMSTYLE3
 73
     2
 76
     3
 10
13.9640154413
 20
20.896218393
 30
0.0
 10
16.6475738532
 20
17.0839651424
 30
0.0
 10
16.8975738532
 20
17.0839651424
 30
0.0
340
10C
212
-2.149460145788044
222
0.0
232
0.0
  0
INSERT
  5
115
102
{ACAD_REACTORS
330
116
102
}
330
1F
100
AcDbEntity
  8
NOTES
100
AcDbBlockReference
  2
SW_NOTE_3
 10
18.6194438862
 20
3.9438588158
 30
0.0
  0
LEADER
  5
116
330
1F
100
AcDbEntity
  8
NOTES
100
AcDbLeader
  3
SLDDIMSTYLE3
 73
     2
 76
     3
 10
17.5319905311
 20
2.2083551285
 30
0.0
 10
18.3694438862
 20
3.9438588158
 30
0.0
 10
18.6194438862
 20
3.9438588158
 30
0.0
340
115
  0
INSERT
  5
121
330
1F
100
AcDbEntity
  8
DIMS
100
AcDbBlockReference
  2
SW_NOTE_4
 10
13.1091129847
 20
15.6039281123
 30
0.0
  0
ENDSEC
  0
SECTION
  2
OBJECTS
  0
DICTIONARY
  5
C
330
0
100
AcDbDictionary
281
     1
  3
ACAD_GROUP
350
D
  3
ACAD_LAYOUT
350
1A
  3
ACAD_MLINESTYLE
350
17
  3
ACAD_PLOTSETTINGS
350
19
  3
ACAD_PLOTSTYLENAME
350
E
  0
DICTIONARY
  5
D
102
{ACAD_REACTORS
330
C
102
}
330
C
100
AcDbDictionary
281
     1
  0
DICTIONARY
  5
1A
102
{ACAD_REACTORS
330
C
102
}
330
C
100
AcDbDictionary
281
     1
  3
Layout1
350
1E
  3
Layout2
350
26
  3
Model
350
22
  0
DICTIONARY
  5
17
102
{ACAD_REACTORS
330
C
102
}
330
C
100
AcDbDictionary
281
     1
  3
Standard
350
18
  0
DICTIONARY
  5
19
102
{ACAD_REACTORS
330
C
102
}
330
C
100
AcDbDictionary
281
     1
  0
ACDBDICTIONARYWDFLT
  5
E
102
{ACAD_REACTORS
330
C
102
}
330
C
100
AcDbDictionary
281
     1
  3
Normal
350
F
100
AcDbDictionaryWithDefault
340
F
  0
LAYOUT
  5
1E
102
{ACAD_REACTORS
330
1A
102
}
330
1A
100
AcDbPlotSettings
  1

  2
none_device
  4

  6

 40
0.0
 41
0.0
 42
0.0
 43
0.0
 44
0.0
 45
0.0
 46
0.0
 47
0.0
 48
0.0
 49
0.0
140
0.0
141
0.0
142
1.0
143
1.0
 70
   688
 72
     0
 73
     0
 74
     5
  7

 75
    16
147
1.0
148
0.0
149
0.0
100
AcDbLayout
  1
Layout1
 70
     1
 71
     1
 10
0.0
 20
0.0
 11
12.0
 21
9.0
 12
0.0
 22
0.0
 32
0.0
 14
1.0000000000E+20
 24
1.0000000000E+20
 34
1.0000000000E+20
 15
-1.0000000000E+20
 25
-1.0000000000E+20
 35
-1.0000000000E+20
146
0.0
 13
0.0
 23
0.0
 33
0.0
 16
1.0
 26
0.0
 36
0.0
 17
0.0
 27
1.0
 37
0.0
 76
     0
330
1B
  0
LAYOUT
  5
26
102
{ACAD_REACTORS
330
1A
102
}
330
1A
100
AcDbPlotSettings
  1

  2
none_device
  4

  6

 40
0.0
 41
0.0
 42
0.0
 43
0.0
 44
0.0
 45
0.0
 46
0.0
 47
0.0
 48
0.0
 49
0.0
140
0.0
141
0.0
142
1.0
143
1.0
 70
   688
 72
     0
 73
     0
 74
     5
  7

 75
    16
147
1.0
148
0.0
149
0.0
100
AcDbLayout
  1
Layout2
 70
     1
 71
     2
 10
0.0
 20
0.0
 11
0.0
 21
0.0
 12
0.0
 22
0.0
 32
0.0
 14
0.0
 24
0.0
 34
0.0
 15
0.0
 25
0.0
 35
0.0
146
0.0
 13
0.0
 23
0.0
 33
0.0
 16
1.0
 26
0.0
 36
0.0
 17
0.0
 27
1.0
 37
0.0
 76
     0
330
23
  0
LAYOUT
  5
22
102
{ACAD_REACTORS
330
1A
102
}
330
1A
100
AcDbPlotSettings
  1

  2
none_device
  4

  6

 40
0.0
 41
0.0
 42
0.0
 43
0.0
 44
0.0
 45
0.0
 46
0.0
 47
0.0
 48
0.0
 49
0.0
140
0.0
141
0.0
142
1.0
143
1.0
 70
  1712
 72
     0
 73
     0
 74
     0
  7

 75
     0
147
1.0
148
0.0
149
0.0
100
AcDbLayout
  1
Model
 70
     1
 71
     0
 10
0.0
 20
0.0
 11
28.0
 21
24.0
 12
0.0
 22
0.0
 32
0.0
 14
0.0
 24
0.0
 34
0.0
 15
28.0
 25
24.0
 35
0.0
146
0.0
 13
0.0
 23
0.0
 33
0.0
 16
1.0
 26
0.0
 36
0.0
 17
0.0
 27
1.0
 37
0.0
 76
     0
330
1F
331
29
  0
MLINESTYLE
  5
18
102
{ACAD_REACTORS
330
17
102
}
330
17
100
AcDbMlineStyle
  2
Standard
 70
     0
  3

 62
   256
 51
90.0
 52
90.0
 71
     2
 49
0.5
 62
   256
  6
BYLAYER
 49
-0.5
 62
   256
  6
BYLAYER
  0
ACDBPLACEHOLDER
  5
F
102
{ACAD_REACTORS
330
E
102
}
330
E
  0
ENDSEC
  0
EOF
