  0
SECTION
  2
HEADER
  9
$ACADVER
  1
AC1018
  9
$ACADMAINTVER
 70
     0
  9
$DWGCODEPAGE
  3
ANSI_1252
  9
$INSBASE
 10
0.0
 20
0.0
 30
0.0
  9
$EXTMIN
 10
0.0
 20
0.0
 30
0.0
  9
$EXTMAX
 10
34.0
 20
22.0
 30
0.0
  9
$LIMMIN
 10
0.0
 20
0.0
  9
$LIMMAX
 10
34.0
 20
22.0
  9
$ORTHOMODE
 70
     0
  9
$REGENMODE
 70
     1
  9
$FILLMODE
 70
     1
  9
$QTEXTMODE
 70
     0
  9
$MIRRTEXT
 70
     1
  9
$LTSCALE
 40
1.0
  9
$ATTMODE
 70
     1
  9
$TEXTSIZE
 40
0.2777777778
  9
$TRACEWID
 40
0.05
  9
$TEXTSTYLE
  7
STANDARD
  9
$CLAYER
  8
0
  9
$CELTYPE
  6
ByLayer
  9
$CECOLOR
 62
   256
  9
$CELTSCALE
 40
1.0
  9
$DISPSILH
 70
     0
  9
$DIMSCALE
 40
1.0
  9
$DIMASZ
 40
0.3640136719
  9
$DIMEXO
 40
0.05
  9
$DIMDLI
 40
0.38
  9
$DIMRND
 40
0.0
  9
$DIMDLE
 40
0.0
  9
$DIMEXE
 40
0.125
  9
$DIMTP
 40
0.0
  9
$DIMTM
 40
0.0
  9
$DIMTXT
 40
0.5
  9
$DIMCEN
 40
0.09
  9
$DIMTSZ
 40
0.0
  9
$DIMTOL
 70
     0
  9
$DIMLIM
 70
     0
  9
$DIMTIH
 70
     1
  9
$DIMTOH
 70
     1
  9
$DIMSE1
 70
     0
  9
$DIMSE2
 70
     0
  9
$DIMTAD
 70
     0
  9
$DIMZIN
 70
     0
  9
$DIMBLK
  1

  9
$DIMASO
 70
     1
  9
$DIMSHO
 70
     1
  9
$DIMPOST
  1

  9
$DIMAPOST
  1

  9
$DIMALT
 70
     0
  9
$DIMALTD
 70
     2
  9
$DIMALTF
 40
25.4
  9
$DIMLFAC
 40
1.0
  9
$DIMTOFL
 70
     0
  9
$DIMTVP
 40
0.0
  9
$DIMTIX
 70
     0
  9
$DIMSOXD
 70
     0
  9
$DIMSAH
 70
     0
  9
$DIMBLK1
  1

  9
$DIMBLK2
  1

  9
$DIMSTYLE
  2
Standard
  9
$DIMCLRD
 70
     0
  9
$DIMCLRE
 70
     0
  9
$DIMCLRT
 70
     0
  9
$DIMTFAC
 40
1.0
  9
$DIMGAP
 40
0.06
  9
$DIMJUST
 70
     0
  9
$DIMSD1
 70
     0
  9
$DIMSD2
 70
     0
  9
$DIMTOLJ
 70
     1
  9
$DIMTZIN
 70
     0
  9
$DIMALTZ
 70
     0
  9
$DIMALTTZ
 70
     0
  9
$DIMUPT
 70
     0
  9
$DIMDEC
 70
     3
  9
$DIMTDEC
 70
     3
  9
$DIMALTU
 70
     2
  9
$DIMALTTD
 70
     2
  9
$DIMTXSTY
  7
STANDARD
  9
$DIMAUNIT
 70
     0
  9
$DIMADEC
 70
     1
  9
$DIMALTRND
 40
0.0
  9
$DIMAZIN
 70
     0
  9
$DIMDSEP
 70
    46
  9
$DIMATFIT
 70
     3
  9
$DIMFRAC
 70
     0
  9
$DIMLDRBLK
  1

  9
$DIMLUNIT
 70
     2
  9
$DIMLWD
 70
    -2
  9
$DIMLWE
 70
    -2
  9
$DIMTMOVE
 70
     0
  9
$LUNITS
 70
     2
  9
$LUPREC
 70
     3
  9
$SKETCHINC
 40
0.1
  9
$FILLETRAD
 40
0.5
  9
$AUNITS
 70
     0
  9
$AUPREC
 70
     1
  9
$MENU
  1
.
  9
$ELEVATION
 40
0.0
  9
$PELEVATION
 40
0.0
  9
$THICKNESS
 40
0.0
  9
$LIMCHECK
 70
     0
  9
$CHAMFERA
 40
0.5
  9
$CHAMFERB
 40
0.5
  9
$CHAMFERC
 40
1.0
  9
$CHAMFERD
 40
0.0
  9
$SKPOLY
 70
     0
  9
$TDCREATE
 40
2457501.387055926
  9
$TDUCREATE
 40
2457501.595389259
  9
$TDUPDATE
 40
2457501.387056678
  9
$TDUUPDATE
 40
2457501.595390012
  9
$TDINDWG
 40
0.0000000116
  9
$TDUSRTIMER
 40
0.0000000116
  9
$USRTIMER
 70
     1
  9
$ANGBASE
 50
0.0
  9
$ANGDIR
 70
     0
  9
$PDMODE
 70
     0
  9
$PDSIZE
 40
-1.0
  9
$PLINEWID
 40
0.0
  9
$SPLFRAME
 70
     0
  9
$SPLINETYPE
 70
     6
  9
$SPLINESEGS
 70
     8
  9
$HANDSEED
  5
111
  9
$SURFTAB1
 70
     6
  9
$SURFTAB2
 70
     6
  9
$SURFTYPE
 70
     6
  9
$SURFU
 70
     6
  9
$SURFV
 70
     6
  9
$UCSBASE
  2

  9
$UCSNAME
  2

  9
$UCSORG
 10
0.0
 20
0.0
 30
0.0
  9
$UCSXDIR
 10
1.0
 20
0.0
 30
0.0
  9
$UCSYDIR
 10
0.0
 20
1.0
 30
0.0
  9
$UCSORTHOREF
  2

  9
$UCSORTHOVIEW
 70
     0
  9
$UCSORGTOP
 10
0.0
 20
0.0
 30
0.0
  9
$UCSORGBOTTOM
 10
0.0
 20
0.0
 30
0.0
  9
$UCSORGLEFT
 10
0.0
 20
0.0
 30
0.0
  9
$UCSORGRIGHT
 10
0.0
 20
0.0
 30
0.0
  9
$UCSORGFRONT
 10
0.0
 20
0.0
 30
0.0
  9
$UCSORGBACK
 10
0.0
 20
0.0
 30
0.0
  9
$PUCSBASE
  2

  9
$PUCSNAME
  2

  9
$PUCSORG
 10
0.0
 20
0.0
 30
0.0
  9
$PUCSXDIR
 10
1.0
 20
0.0
 30
0.0
  9
$PUCSYDIR
 10
0.0
 20
1.0
 30
0.0
  9
$PUCSORTHOREF
  2

  9
$PUCSORTHOVIEW
 70
     0
  9
$PUCSORGTOP
 10
0.0
 20
0.0
 30
0.0
  9
$PUCSORGBOTTOM
 10
0.0
 20
0.0
 30
0.0
  9
$PUCSORGLEFT
 10
0.0
 20
0.0
 30
0.0
  9
$PUCSORGRIGHT
 10
0.0
 20
0.0
 30
0.0
  9
$PUCSORGFRONT
 10
0.0
 20
0.0
 30
0.0
  9
$PUCSORGBACK
 10
0.0
 20
0.0
 30
0.0
  9
$USERI1
 70
     0
  9
$USERI2
 70
     0
  9
$USERI3
 70
     0
  9
$USERI4
 70
     0
  9
$USERI5
 70
     0
  9
$USERR1
 40
0.0
  9
$USERR2
 40
0.0
  9
$USERR3
 40
0.0
  9
$USERR4
 40
0.0
  9
$USERR5
 40
0.0
  9
$WORLDVIEW
 70
     1
  9
$SHADEDGE
 70
     3
  9
$SHADEDIF
 70
    70
  9
$TILEMODE
 70
     1
  9
$MAXACTVP
 70
    64
  9
$PINSBASE
 10
0.0
 20
0.0
 30
0.0
  9
$PLIMCHECK
 70
     0
  9
$PEXTMIN
 10
1.0000000000E+20
 20
1.0000000000E+20
 30
1.0000000000E+20
  9
$PEXTMAX
 10
-1.0000000000E+20
 20
-1.0000000000E+20
 30
-1.0000000000E+20
  9
$PLIMMIN
 10
0.0
 20
0.0
  9
$PLIMMAX
 10
12.0
 20
9.0
  9
$UNITMODE
 70
     0
  9
$VISRETAIN
 70
     1
  9
$PLINEGEN
 70
     0
  9
$PSLTSCALE
 70
     1
  9
$TREEDEPTH
 70
  3020
  9
$CMLSTYLE
  2
Standard
  9
$CMLJUST
 70
     0
  9
$CMLSCALE
 40
1.0
  9
$PROXYGRAPHICS
 70
     1
  9
$MEASUREMENT
 70
     0
  9
$CELWEIGHT
370
    -1
  9
$ENDCAPS
280
     0
  9
$JOINSTYLE
280
     0
  9
$LWDISPLAY
290
     1
  9
$INSUNITS
 70
     1
  9
$HYPERLINKBASE
  1

  9
$STYLESHEET
  1

  9
$XEDIT
290
     1
  9
$CEPSNTYPE
380
     0
  9
$PSTYLEMODE
290
     1
  9
$FINGERPRINTGUID
  2
{C46A306A-C582-49D0-B5BD-79E5666DB82C}
  9
$VERSIONGUID
  2
{FAEB1C32-E019-11D5-929B-00C0DF256EC4}
  9
$EXTNAMES
290
     1
  9
$PSVPSCALE
 40
0.0
  9
$OLESTARTUP
290
     0
  9
$SORTENTS
280
   127
  9
$INDEXCTL
280
     0
  9
$HIDETEXT
280
     1
  9
$XCLIPFRAME
290
     0
  9
$HALOGAP
280
     0
  9
$OBSCOLOR
 70
   257
  9
$OBSLTYPE
280
     0
  9
$INTERSECTIONDISPLAY
280
     0
  9
$INTERSECTIONCOLOR
 70
   257
  9
$DIMASSOC
280
     2
  9
$PROJECTNAME
  1

  0
ENDSEC
  0
SECTION
  2
CLASSES
  0
CLASS
  1
ACDBDICTIONARYWDFLT
  2
AcDbDictionaryWithDefault
  3
ObjectDBX Classes
 90
        0
 91
        4
280
     0
281
     0
  0
CLASS
  1
VISUALSTYLE
  2
AcDbVisualStyle
  3
ObjectDBX Classes
 90
     4095
 91
        4
280
     0
281
     0
  0
CLASS
  1
MATERIAL
  2
AcDbMaterial
  3
ObjectDBX Classes
 90
     1153
 91
        4
280
     0
281
     0
  0
ENDSEC
  0
SECTION
  2
TABLES
  0
TABLE
  2
VPORT
  5
8
330
0
100
AcDbSymbolTable
 70
     1
  0
VPORT
  5
29
330
8
100
AcDbSymbolTableRecord
100
AcDbViewportTableRecord
  2
*Active
 70
     0
 10
0.0
 20
0.0
 11
1.0
 21
1.0
 12
17.0
 22
11.0
 13
0.0
 23
0.0
 14
0.5
 24
0.5
 15
0.5
 25
0.5
 16
0.0
 26
0.0
 36
1.0
 17
0.0
 27
0.0
 37
0.0
 40
22.0
 41
1.5454545455
 42
50.0
 43
0.0
 44
0.0
 50
0.0
 51
0.0
 71
     0
 72
  2000
 73
     1
 74
     3
 75
     0
 76
     0
 77
     0
 78
     0
281
     0
 65
     1
110
0.0
120
0.0
130
0.0
111
1.0
121
0.0
131
0.0
112
0.0
122
1.0
132
0.0
 79
     0
146
0.0
  0
ENDTAB
  0
TABLE
  2
LTYPE
  5
5
330
0
100
AcDbSymbolTable
 70
     6
  0
LTYPE
  5
14
330
5
100
AcDbSymbolTableRecord
100
AcDbLinetypeTableRecord
  2
ByBlock
 70
     0
  3

 72
    65
 73
     0
 40
0.0
  0
LTYPE
  5
15
330
5
100
AcDbSymbolTableRecord
100
AcDbLinetypeTableRecord
  2
ByLayer
 70
     0
  3

 72
    65
 73
     0
 40
0.0
  0
LTYPE
  5
16
330
5
100
AcDbSymbolTableRecord
100
AcDbLinetypeTableRecord
  2
Continuous
 70
     0
  3
Solid line
 72
    65
 73
     0
 40
0.0
  0
LTYPE
  5
3F
330
5
100
AcDbSymbolTableRecord
100
AcDbLinetypeTableRecord
  2
HIDDEN
 70
     0
  3
Hidden __ __ __ __ __ __ __ __ __ __ __ __ __ __
 72
    65
 73
     2
 40
0.075
 49
0.05
 74
     0
 49
-0.025
 74
     0
  0
LTYPE
  5
40
330
5
100
AcDbSymbolTableRecord
100
AcDbLinetypeTableRecord
  2
PHANTOM
 70
     0
  3
Phantom ______  __  __  ______  __  __  ______
 72
    65
 73
     6
 40
0.5
 49
0.25
 74
     0
 49
-0.05
 74
     0
 49
0.05
 74
     0
 49
-0.05
 74
     0
 49
0.05
 74
     0
 49
-0.05
 74
     0
  0
LTYPE
  5
41
330
5
100
AcDbSymbolTableRecord
100
AcDbLinetypeTableRecord
  2
CENTER
 70
     0
  3
Center ____ _ ____ _ ____ _ ____ _ ____ _ ____
 72
    65
 73
     4
 40
0.4
 49
0.25
 74
     0
 49
-0.05
 74
     0
 49
0.05
 74
     0
 49
-0.05
 74
     0
  0
LTYPE
  5
42
330
5
100
AcDbSymbolTableRecord
100
AcDbLinetypeTableRecord
  2
CENTERX2
 70
     0
  3
Center (2x) ________  __  ________  __  _____
 72
    65
 73
     4
 40
0.8
 49
0.5
 74
     0
 49
-0.1
 74
     0
 49
0.1
 74
     0
 49
-0.1
 74
     0
  0
LTYPE
  5
43
330
5
100
AcDbSymbolTableRecord
100
AcDbLinetypeTableRecord
  2
DOT2
 70
     0
  3
Dot (.5x) ........................................
 72
    65
 73
     2
 40
0.025
 49
0.0
 74
     0
 49
-0.025
 74
     0
  0
ENDTAB
  0
TABLE
  2
LAYER
  5
2
330
0
100
AcDbSymbolTable
 70
     8
  0
LAYER
  5
10
330
2
100
AcDbSymbolTableRecord
100
AcDbLayerTableRecord
  2
0
 70
     0
 62
     7
  6
Continuous
370
    -3
390
F
  0
LAYER
  5
44
330
2
100
AcDbSymbolTableRecord
100
AcDbLayerTableRecord
  2
SLD-0
 70
     0
 62
   179
  6
Continuous
370
    -3
390
F
  0
LAYER
  5
45
330
2
100
AcDbSymbolTableRecord
100
AcDbLayerTableRecord
  2
OBJECTS
 70
     0
 62
     5
  6
Continuous
370
    -3
390
F
  0
LAYER
  5
46
330
2
100
AcDbSymbolTableRecord
100
AcDbLayerTableRecord
  2
DIMEMSIONS
 70
     0
 62
     1
  6
Continuous
370
    -3
390
F
  0
LAYER
  5
47
330
2
100
AcDbSymbolTableRecord
100
AcDbLayerTableRecord
  2
NOTES
 70
     0
 62
     7
  6
Continuous
370
    -3
390
F
  0
LAYER
  5
48
330
2
100
AcDbSymbolTableRecord
100
AcDbLayerTableRecord
  2
IMAGES
 70
     0
 62
     7
  6
Continuous
370
    -3
390
F
  0
LAYER
  5
49
330
2
100
AcDbSymbolTableRecord
100
AcDbLayerTableRecord
  2
CENTERLINES
 70
     0
 62
     7
  6
HIDDEN
370
    -3
390
F
  0
LAYER
  5
4A
330
2
100
AcDbSymbolTableRecord
100
AcDbLayerTableRecord
  2
BLOCKS
 70
     0
 62
    16
  6
Continuous
370
    -3
390
F
  0
ENDTAB
  0
TABLE
  2
STYLE
  5
3
330
0
100
AcDbSymbolTable
 70
     3
  0
STYLE
  5
11
330
3
100
AcDbSymbolTableRecord
100
AcDbTextStyleTableRecord
  2
STANDARD
 70
     0
 40
0.0
 41
1.0
 50
0.0
 71
     0
 42
0.2777777778
  3
ARIAL.TTF
  4

1001
ACAD
1000
ARIAL
1071
       34
  0
STYLE
  5
5C
330
3
100
AcDbSymbolTableRecord
100
AcDbTextStyleTableRecord
  2
SLDTEXTSTYLE0
 70
     0
 40
0.0
 41
0.948
 50
0.0
 71
     0
 42
0.2
  3
ARIAL.TTF
  4

1001
ACAD
1000
Arial
1071
      290
  0
STYLE
  5
F4
330
3
100
AcDbSymbolTableRecord
100
AcDbTextStyleTableRecord
  2
SLDTEXTSTYLE1
 70
     0
 40
0.0
 41
0.948
 50
0.0
 71
     0
 42
0.2
  3
ARIALBD.TTF
  4

1001
ACAD
1000
Arial
1071
 33554722
  0
ENDTAB
  0
TABLE
  2
VIEW
  5
6
330
0
100
AcDbSymbolTable
 70
     0
  0
ENDTAB
  0
TABLE
  2
UCS
  5
7
330
0
100
AcDbSymbolTable
 70
     0
  0
ENDTAB
  0
TABLE
  2
APPID
  5
9
330
0
100
AcDbSymbolTable
 70
     1
  0
APPID
  5
12
330
9
100
AcDbSymbolTableRecord
100
AcDbRegAppTableRecord
  2
ACAD
 70
     0
  0
ENDTAB
  0
TABLE
  2
DIMSTYLE
  5
A
330
0
100
AcDbSymbolTable
 70
     5
100
AcDbDimStyleTable
  0
DIMSTYLE
105
27
330
A
100
AcDbSymbolTableRecord
100
AcDbDimStyleTableRecord
  2
Standard
 70
     0
178
     0
340
11
  0
DIMSTYLE
105
5D
102
{ACAD_REACTORS
330
5B
102
}
330
A
100
AcDbSymbolTableRecord
100
AcDbDimStyleTableRecord
  2
SLDDIMSTYLE0
 70
     0
 41
0.3640136719
 44
0.0
 45
0.000000001
 78
    12
 79
     3
140
0.3640136719
141
0.0
147
0.091003418
148
0.000000001
170
     1
171
     0
173
     1
178
     0
271
     3
272
     3
274
     0
276
     2
277
     5
279
     1
284
    12
340
5C
  0
DIMSTYLE
105
72
102
{ACAD_REACTORS
330
71
102
}
330
A
100
AcDbSymbolTableRecord
100
AcDbDimStyleTableRecord
  2
SLDDIMSTYLE1
 70
     0
 41
0.3640136719
 44
0.0
 45
0.000000001
 78
    12
 79
     3
140
0.3640136719
141
0.0
147
0.091003418
148
0.000000001
170
     1
171
     0
173
     1
178
     0
271
     3
272
     3
274
     0
276
     2
277
     5
284
    12
340
5C
  0
DIMSTYLE
105
86
102
{ACAD_REACTORS
330
85
330
9B
330
AF
330
C3
330
D7
102
}
330
A
100
AcDbSymbolTableRecord
100
AcDbDimStyleTableRecord
  2
SLDDIMSTYLE2
 70
     0
 41
0.3640136719
 44
0.0
 45
0.000000001
 78
    12
 79
     3
140
0.3640136719
147
0.091003418
148
0.000000001
170
     1
171
     0
173
     1
178
     0
271
     6
272
     3
274
     0
276
     2
277
     5
284
    12
340
5C
  0
DIMSTYLE
105
10C
330
A
100
AcDbSymbolTableRecord
100
AcDbDimStyleTableRecord
  2
SLDDIMSTYLE3
 70
     0
 41
0.3640136719
 44
0.0
 45
0.000000001
140
0.0
146
0.3640136719
147
0.0
173
     1
178
     0
271
     0
272
     0
276
     2
277
     5
340
11
  0
ENDTAB
  0
TABLE
  2
BLOCK_RECORD
  5
1
330
0
100
AcDbSymbolTable
 70
    11
  0
BLOCK_RECORD
  5
1F
330
1
100
AcDbSymbolTableRecord
100
AcDbBlockTableRecord
  2
*Model_Space
340
22
  0
BLOCK_RECORD
  5
1B
330
1
100
AcDbSymbolTableRecord
100
AcDbBlockTableRecord
  2
*Paper_Space
340
1E
  0
BLOCK_RECORD
  5
23
330
1
100
AcDbSymbolTableRecord
100
AcDbBlockTableRecord
  2
*Paper_Space0
340
26
  0
BLOCK_RECORD
  5
5E
330
1
100
AcDbSymbolTableRecord
100
AcDbBlockTableRecord
  2
_D
340
0
  0
BLOCK_RECORD
  5
73
330
1
100
AcDbSymbolTableRecord
100
AcDbBlockTableRecord
  2
_D_1
340
0
  0
BLOCK_RECORD
  5
87
330
1
100
AcDbSymbolTableRecord
100
AcDbBlockTableRecord
  2
_D_2
340
0
  0
BLOCK_RECORD
  5
9C
330
1
100
AcDbSymbolTableRecord
100
AcDbBlockTableRecord
  2
_D_3
340
0
  0
BLOCK_RECORD
  5
B0
330
1
100
AcDbSymbolTableRecord
100
AcDbBlockTableRecord
  2
_D_4
340
0
  0
BLOCK_RECORD
  5
C4
330
1
100
AcDbSymbolTableRecord
100
AcDbBlockTableRecord
  2
_D_5
340
0
  0
BLOCK_RECORD
  5
D8
330
1
100
AcDbSymbolTableRecord
100
AcDbBlockTableRecord
  2
_D_6
340
0
  0
BLOCK_RECORD
  5
EC
330
1
100
AcDbSymbolTableRecord
100
AcDbBlockTableRecord
  2
SW_NOTE_0
340
0
102
{BLKREFS
331
FD
102
}
  0
BLOCK_RECORD
  5
FE
330
1
100
AcDbSymbolTableRecord
100
AcDbBlockTableRecord
  2
SW_NOTE_1
340
0
102
{BLKREFS
331
103
102
}
  0
BLOCK_RECORD
  5
104
330
1
100
AcDbSymbolTableRecord
100
AcDbBlockTableRecord
  2
SW_NOTE_2
340
0
102
{BLKREFS
331
10B
102
}
  0
ENDTAB
  0
ENDSEC
  0
SECTION
  2
BLOCKS
  0
BLOCK
  5
20
330
1F
100
AcDbEntity
  8
0
100
AcDbBlockBegin
  2
*Model_Space
 70
     0
 10
0.0
 20
0.0
 30
0.0
  3
*Model_Space
  1

  0
ENDBLK
  5
21
330
1F
100
AcDbEntity
  8
0
100
AcDbBlockEnd
  0
BLOCK
  5
1C
330
1B
100
AcDbEntity
 67
     1
  8
0
100
AcDbBlockBegin
  2
*Paper_Space
 70
     0
 10
0.0
 20
0.0
 30
0.0
  3
*Paper_Space
  1

  0
ENDBLK
  5
1D
330
1B
100
AcDbEntity
 67
     1
  8
0
100
AcDbBlockEnd
  0
BLOCK
  5
24
330
23
100
AcDbEntity
  8
0
100
AcDbBlockBegin
  2
*Paper_Space0
 70
     0
 10
0.0
 20
0.0
 30
0.0
  3
*Paper_Space0
  1

  0
ENDBLK
  5
25
330
23
100
AcDbEntity
  8
0
100
AcDbBlockEnd
  0
BLOCK
  5
5F
330
5E
100
AcDbEntity
  8
0
100
AcDbBlockBegin
  2
_D
 70
     0
 10
0.0
 20
0.0
 30
0.0
  3
_D
  1

  0
SOLID
  5
61
330
5E
100
AcDbEntity
  8
DIMEMSIONS
100
AcDbTrace
 10
32.1782088444
 20
2.5278141028
 30
0.0
 11
31.890964809
 21
2.7583201829
 31
0.0
 12
31.8349627056
 22
2.6613216945
 32
0.0
 13
31.8349627056
 23
2.6613216945
 33
0.0
  0
LINE
  5
62
330
5E
100
AcDbEntity
  8
DIMEMSIONS
100
AcDbLine
 10
28.9622799412
 20
4.871283739
 30
0.0
 11
29.3463077249
 21
4.871283739
 31
0.0
  0
LINE
  5
63
330
5E
100
AcDbEntity
  8
DIMEMSIONS
100
AcDbLine
 10
28.5417938166
 20
4.2454504329
 30
0.0
 11
28.4584604843
 21
4.2454504329
 31
0.0
  0
LINE
  5
64
330
5E
100
AcDbEntity
  8
DIMEMSIONS
100
AcDbLine
 10
28.4584604843
 20
4.2454504329
 30
0.0
 11
28.4584604843
 21
3.6864226641
 31
0.0
  0
LINE
  5
65
330
5E
100
AcDbEntity
  8
DIMEMSIONS
100
AcDbLine
 10
28.4584604843
 20
3.6864226641
 30
0.0
 11
28.5417938166
 21
3.6864226641
 31
0.0
  0
LINE
  5
66
330
5E
100
AcDbEntity
  8
DIMEMSIONS
100
AcDbLine
 10
29.3056826963
 20
4.2454504329
 30
0.0
 11
29.3890160286
 21
4.2454504329
 31
0.0
  0
LINE
  5
67
330
5E
100
AcDbEntity
  8
DIMEMSIONS
100
AcDbLine
 10
29.3890160286
 20
4.2454504329
 30
0.0
 11
29.3890160286
 21
3.6864226641
 31
0.0
  0
LINE
  5
68
330
5E
100
AcDbEntity
  8
DIMEMSIONS
100
AcDbLine
 10
29.3890160286
 20
3.6864226641
 30
0.0
 11
29.3056826963
 21
3.6864226641
 31
0.0
  0
LINE
  5
69
330
5E
100
AcDbEntity
  8
DIMEMSIONS
100
AcDbLine
 10
32.1782088444
 20
2.5278141028
 30
0.0
 11
29.8584605125
 21
3.8671214267
 31
0.0
  0
LINE
  5
6A
330
5E
100
AcDbEntity
  8
DIMEMSIONS
100
AcDbLine
 10
29.8584605125
 20
3.8671214267
 30
0.0
 11
29.6397105125
 21
3.8671214267
 31
0.0
  0
MTEXT
  5
6B
330
5E
100
AcDbEntity
  8
DIMEMSIONS
100
AcDbMText
 10
28.2702660371
 20
5.0673316743
 30
0.0039370079
 40
0.375
 41
0.0
 71
     1
 72
     1
  1
R1
  7
SLDTEXTSTYLE0
 73
     1
 44
1.0
  0
MTEXT
  5
6C
330
5E
100
AcDbEntity
  8
DIMEMSIONS
100
AcDbMText
 10
29.0154049459
 20
5.3228091496
 30
0.0039370079
 40
0.375
 41
0.0
 71
     1
 72
     1
  1
1
  7
SLDTEXTSTYLE0
 73
     1
 44
1.0
  0
MTEXT
  5
6D
330
5E
100
AcDbEntity
  8
DIMEMSIONS
100
AcDbMText
 10
29.0154049459
 20
4.812184155
 30
0.0039370079
 40
0.375
 41
0.0
 71
     1
 72
     1
  1
8
  7
SLDTEXTSTYLE0
 73
     1
 44
1.0
  0
MTEXT
  5
6E
330
5E
100
AcDbEntity
  8
DIMEMSIONS
100
AcDbMText
 10
29.3994327662
 20
5.0673316743
 30
0.0039370079
 40
0.375
 41
0.0
 71
     1
 72
     1
  1
"
  7
SLDTEXTSTYLE0
 73
     1
 44
1.0
  0
MTEXT
  5
6F
330
5E
100
AcDbEntity
  8
DIMEMSIONS
100
AcDbMText
 10
28.645960482
 20
4.1698230757
 30
0.0039370079
 40
0.375
 41
0.0
 71
     1
 72
     1
  1
29
  7
SLDTEXTSTYLE0
 73
     1
 44
1.0
  0
MTEXT
  5
70
330
5E
100
AcDbEntity
  8
DIMEMSIONS
100
AcDbMText
 10
28.6598493799
 20
3.527461993
 30
0.0039370079
 40
0.375
 41
0.0
 71
     1
 72
     1
  1
5x
  7
SLDTEXTSTYLE0
 73
     1
 44
1.0
  0
ENDBLK
  5
60
330
5E
100
AcDbEntity
  8
0
100
AcDbBlockEnd
  0
BLOCK
  5
74
330
73
100
AcDbEntity
  8
0
100
AcDbBlockBegin
  2
_D_1
 70
     0
 10
0.0
 20
0.0
 30
0.0
  3
_D_1
  1

  0
SOLID
  5
76
330
73
100
AcDbEntity
  8
DIMEMSIONS
100
AcDbTrace
 10
19.493694328
 20
18.6041781907
 30
0.0
 11
19.1966983252
 21
18.3863811219
 31
0.0
 12
19.2758972593
 22
18.3071821878
 32
0.0
 13
19.2758972593
 23
18.3071821878
 33
0.0
  0
LINE
  5
77
330
73
100
AcDbEntity
  8
DIMEMSIONS
100
AcDbLine
 10
17.1241430378
 20
17.6870205628
 30
0.0
 11
17.7859485959
 21
17.6870205628
 31
0.0
  0
LINE
  5
78
330
73
100
AcDbEntity
  8
DIMEMSIONS
100
AcDbLine
 10
16.9814346876
 20
17.0611872567
 30
0.0
 11
16.8981013553
 21
17.0611872567
 31
0.0
  0
LINE
  5
79
330
73
100
AcDbEntity
  8
DIMEMSIONS
100
AcDbLine
 10
16.8981013553
 20
17.0611872567
 30
0.0
 11
16.8981013553
 21
16.502159488
 31
0.0
  0
LINE
  5
7A
330
73
100
AcDbEntity
  8
DIMEMSIONS
100
AcDbLine
 10
16.8981013553
 20
16.502159488
 30
0.0
 11
16.9814346876
 21
16.502159488
 31
0.0
  0
LINE
  5
7B
330
73
100
AcDbEntity
  8
DIMEMSIONS
100
AcDbLine
 10
17.7453235673
 20
17.0611872567
 30
0.0
 11
17.8286568996
 21
17.0611872567
 31
0.0
  0
LINE
  5
7C
330
73
100
AcDbEntity
  8
DIMEMSIONS
100
AcDbLine
 10
17.8286568996
 20
17.0611872567
 30
0.0
 11
17.8286568996
 21
16.502159488
 31
0.0
  0
LINE
  5
7D
330
73
100
AcDbEntity
  8
DIMEMSIONS
100
AcDbLine
 10
17.8286568996
 20
16.502159488
 30
0.0
 11
17.7453235673
 21
16.502159488
 31
0.0
  0
LINE
  5
7E
330
73
100
AcDbEntity
  8
DIMEMSIONS
100
AcDbLine
 10
19.493694328
 20
18.6041781907
 30
0.0
 11
18.2668513835
 21
17.3773352462
 31
0.0
  0
LINE
  5
7F
330
73
100
AcDbEntity
  8
DIMEMSIONS
100
AcDbLine
 10
18.2668513835
 20
17.3773352462
 30
0.0
 11
18.0168513835
 21
17.3773352462
 31
0.0
  0
MTEXT
  5
80
330
73
100
AcDbEntity
  8
DIMEMSIONS
100
AcDbMText
 10
16.7099069081
 20
17.8830684981
 30
0.0039370079
 40
0.375
 41
0.0
 71
     1
 72
     1
  1
R
  7
SLDTEXTSTYLE0
 73
     1
 44
1.0
  0
MTEXT
  5
81
330
73
100
AcDbEntity
  8
DIMEMSIONS
100
AcDbMText
 10
17.1772680424
 20
18.1385459735
 30
0.0039370079
 40
0.375
 41
0.0
 71
     1
 72
     1
  1
11
  7
SLDTEXTSTYLE0
 73
     1
 44
1.0
  0
MTEXT
  5
82
330
73
100
AcDbEntity
  8
DIMEMSIONS
100
AcDbMText
 10
17.1772680424
 20
17.6279209788
 30
0.0039370079
 40
0.375
 41
0.0
 71
     1
 72
     1
  1
16
  7
SLDTEXTSTYLE0
 73
     1
 44
1.0
  0
MTEXT
  5
83
330
73
100
AcDbEntity
  8
DIMEMSIONS
100
AcDbMText
 10
17.8390736372
 20
17.8830684981
 30
0.0039370079
 40
0.375
 41
0.0
 71
     1
 72
     1
  1
"
  7
SLDTEXTSTYLE0
 73
     1
 44
1.0
  0
MTEXT
  5
84
330
73
100
AcDbEntity
  8
DIMEMSIONS
100
AcDbMText
 10
17.0856013531
 20
16.9855598995
 30
0.0039370079
 40
0.375
 41
0.0
 71
     1
 72
     1
  1
17
  7
SLDTEXTSTYLE0
 73
     1
 44
1.0
  0
ENDBLK
  5
75
330
73
100
AcDbEntity
  8
0
100
AcDbBlockEnd
  0
BLOCK
  5
88
330
87
100
AcDbEntity
  8
0
100
AcDbBlockBegin
  2
_D_2
 70
     0
 10
0.0
 20
0.0
 30
0.0
  3
_D_2
  1

  0
SOLID
  5
8A
330
87
100
AcDbEntity
  8
DIMEMSIONS
100
AcDbTrace
 10
32.3289302652
 20
16.2216707317
 30
0.0
 11
31.9649165933
 21
16.2776728351
 31
0.0
 12
31.9649165933
 22
16.1656686284
 32
0.0
 13
31.9649165933
 23
16.1656686284
 33
0.0
  0
SOLID
  5
8B
330
87
100
AcDbEntity
  8
DIMEMSIONS
100
AcDbTrace
 10
19.2923302401
 20
16.2216707317
 30
0.0
 11
19.656343912
 21
16.1656686284
 31
0.0
 12
19.656343912
 22
16.2776728351
 32
0.0
 13
19.656343912
 23
16.2776728351
 33
0.0
  0
LINE
  5
8C
330
87
100
AcDbEntity
  8
DIMEMSIONS
100
AcDbLine
 10
25.2573976053
 20
16.6217054297
 30
0.0
 11
25.9192031634
 21
16.6217054297
 31
0.0
  0
LINE
  5
8D
330
87
100
AcDbEntity
  8
DIMEMSIONS
100
AcDbLine
 10
24.8785781927
 20
15.9958721235
 30
0.0
 11
24.7952448604
 21
15.9958721235
 31
0.0
  0
LINE
  5
8E
330
87
100
AcDbEntity
  8
DIMEMSIONS
100
AcDbLine
 10
24.7952448604
 20
15.9958721235
 30
0.0
 11
24.7952448604
 21
15.4368443548
 31
0.0
  0
LINE
  5
8F
330
87
100
AcDbEntity
  8
DIMEMSIONS
100
AcDbLine
 10
24.7952448604
 20
15.4368443548
 30
0.0
 11
24.8785781927
 21
15.4368443548
 31
0.0
  0
LINE
  5
90
330
87
100
AcDbEntity
  8
DIMEMSIONS
100
AcDbLine
 10
25.9202448834
 20
15.9958721235
 30
0.0
 11
26.0035782158
 21
15.9958721235
 31
0.0
  0
LINE
  5
91
330
87
100
AcDbEntity
  8
DIMEMSIONS
100
AcDbLine
 10
26.0035782158
 20
15.9958721235
 30
0.0
 11
26.0035782158
 21
15.4368443548
 31
0.0
  0
LINE
  5
92
330
87
100
AcDbEntity
  8
DIMEMSIONS
100
AcDbLine
 10
26.0035782158
 20
15.4368443548
 30
0.0
 11
25.9202448834
 21
15.4368443548
 31
0.0
  0
LINE
  5
93
330
87
100
AcDbEntity
  8
DIMEMSIONS
100
AcDbLine
 10
19.2923302401
 20
19.0403141028
 30
0.0
 11
19.2923302401
 21
16.0966707317
 31
0.0
  0
LINE
  5
94
330
87
100
AcDbEntity
  8
DIMEMSIONS
100
AcDbLine
 10
32.3289302652
 20
16.2216707317
 30
0.0
 11
26.2334899237
 21
16.2216707317
 31
0.0
  0
LINE
  5
95
330
87
100
AcDbEntity
  8
DIMEMSIONS
100
AcDbLine
 10
19.2923302401
 20
16.2216707317
 30
0.0
 11
24.5653331158
 21
16.2216707317
 31
0.0
  0
MTEXT
  5
96
330
87
100
AcDbEntity
  8
DIMEMSIONS
100
AcDbMText
 10
24.6487170518
 20
16.8177533649
 30
0.0039370079
 40
0.375
 41
0.0
 71
     1
 72
     1
  1
13
  7
SLDTEXTSTYLE0
 73
     1
 44
1.0
  0
MTEXT
  5
97
330
87
100
AcDbEntity
  8
DIMEMSIONS
100
AcDbMText
 10
25.4494114971
 20
17.0732308403
 30
0.0039370079
 40
0.375
 41
0.0
 71
     1
 72
     1
  1
1
  7
SLDTEXTSTYLE0
 73
     1
 44
1.0
  0
MTEXT
  5
98
330
87
100
AcDbEntity
  8
DIMEMSIONS
100
AcDbMText
 10
25.3105226099
 20
16.5626058456
 30
0.0039370079
 40
0.375
 41
0.0
 71
     1
 72
     1
  1
16
  7
SLDTEXTSTYLE0
 73
     1
 44
1.0
  0
MTEXT
  5
99
330
87
100
AcDbEntity
  8
DIMEMSIONS
100
AcDbMText
 10
25.9723282413
 20
16.8177533649
 30
0.0039370079
 40
0.375
 41
0.0
 71
     1
 72
     1
  1
"
  7
SLDTEXTSTYLE0
 73
     1
 44
1.0
  0
MTEXT
  5
9A
330
87
100
AcDbEntity
  8
DIMEMSIONS
100
AcDbMText
 10
24.9827448581
 20
15.9202447663
 30
0.0039370079
 40
0.375
 41
0.0
 71
     1
 72
     1
  1
331
  7
SLDTEXTSTYLE0
 73
     1
 44
1.0
  0
ENDBLK
  5
89
330
87
100
AcDbEntity
  8
0
100
AcDbBlockEnd
  0
BLOCK
  5
9D
330
9C
100
AcDbEntity
  8
0
100
AcDbBlockBegin
  2
_D_3
 70
     0
 10
0.0
 20
0.0
 30
0.0
  3
_D_3
  1

  0
SOLID
  5
9F
330
9C
100
AcDbEntity
  8
DIMEMSIONS
100
AcDbTrace
 10
27.3546016446
 20
18.4028141028
 30
0.0
 11
27.2985995412
 21
18.0388004309
 31
0.0
 12
27.4106037479
 22
18.0388004309
 32
0.0
 13
27.4106037479
 23
18.0388004309
 33
0.0
  0
SOLID
  5
A0
330
9C
100
AcDbEntity
  8
DIMEMSIONS
100
AcDbTrace
 10
27.3546016446
 20
1.9653141028
 30
0.0
 11
27.4106037479
 21
2.3293277747
 31
0.0
 12
27.2985995412
 22
2.3293277747
 32
0.0
 13
27.2985995412
 23
2.3293277747
 33
0.0
  0
LINE
  5
A1
330
9C
100
AcDbEntity
  8
DIMEMSIONS
100
AcDbLine
 10
27.2125877301
 20
9.8242598387
 30
0.0
 11
27.8743932882
 21
9.8242598387
 31
0.0
  0
LINE
  5
A2
330
9C
100
AcDbEntity
  8
DIMEMSIONS
100
AcDbLine
 10
26.8337683175
 20
9.1984265326
 30
0.0
 11
26.7504349852
 21
9.1984265326
 31
0.0
  0
LINE
  5
A3
330
9C
100
AcDbEntity
  8
DIMEMSIONS
100
AcDbLine
 10
26.7504349852
 20
9.1984265326
 30
0.0
 11
26.7504349852
 21
8.6393987639
 31
0.0
  0
LINE
  5
A4
330
9C
100
AcDbEntity
  8
DIMEMSIONS
100
AcDbLine
 10
26.7504349852
 20
8.6393987639
 30
0.0
 11
26.8337683175
 21
8.6393987639
 31
0.0
  0
LINE
  5
A5
330
9C
100
AcDbEntity
  8
DIMEMSIONS
100
AcDbLine
 10
27.8754350083
 20
9.1984265326
 30
0.0
 11
27.9587683406
 21
9.1984265326
 31
0.0
  0
LINE
  5
A6
330
9C
100
AcDbEntity
  8
DIMEMSIONS
100
AcDbLine
 10
27.9587683406
 20
9.1984265326
 30
0.0
 11
27.9587683406
 21
8.6393987639
 31
0.0
  0
LINE
  5
A7
330
9C
100
AcDbEntity
  8
DIMEMSIONS
100
AcDbLine
 10
27.9587683406
 20
8.6393987639
 30
0.0
 11
27.8754350083
 21
8.6393987639
 31
0.0
  0
LINE
  5
A8
330
9C
100
AcDbEntity
  8
DIMEMSIONS
100
AcDbLine
 10
27.3546016446
 20
18.4028141028
 30
0.0
 11
27.3546016446
 21
10.2923848318
 31
0.0
  0
LINE
  5
A9
330
9C
100
AcDbEntity
  8
DIMEMSIONS
100
AcDbLine
 10
27.3546016446
 20
1.9653141028
 30
0.0
 11
27.3546016446
 21
8.5560654499
 31
0.0
  0
MTEXT
  5
AA
330
9C
100
AcDbEntity
  8
DIMEMSIONS
100
AcDbMText
 10
26.6039071767
 20
10.020307774
 30
0.0039370079
 40
0.375
 41
0.0
 71
     1
 72
     1
  1
16
  7
SLDTEXTSTYLE0
 73
     1
 44
1.0
  0
MTEXT
  5
AB
330
9C
100
AcDbEntity
  8
DIMEMSIONS
100
AcDbMText
 10
27.404601622
 20
10.2757852494
 30
0.0039370079
 40
0.375
 41
0.0
 71
     1
 72
     1
  1
7
  7
SLDTEXTSTYLE0
 73
     1
 44
1.0
  0
MTEXT
  5
AC
330
9C
100
AcDbEntity
  8
DIMEMSIONS
100
AcDbMText
 10
27.2657127348
 20
9.7651602547
 30
0.0039370079
 40
0.375
 41
0.0
 71
     1
 72
     1
  1
16
  7
SLDTEXTSTYLE0
 73
     1
 44
1.0
  0
MTEXT
  5
AD
330
9C
100
AcDbEntity
  8
DIMEMSIONS
100
AcDbMText
 10
27.9275183662
 20
10.020307774
 30
0.0039370079
 40
0.375
 41
0.0
 71
     1
 72
     1
  1
"
  7
SLDTEXTSTYLE0
 73
     1
 44
1.0
  0
MTEXT
  5
AE
330
9C
100
AcDbEntity
  8
DIMEMSIONS
100
AcDbMText
 10
26.9379349829
 20
9.1227991754
 30
0.0039370079
 40
0.375
 41
0.0
 71
     1
 72
     1
  1
418
  7
SLDTEXTSTYLE0
 73
     1
 44
1.0
  0
ENDBLK
  5
9E
330
9C
100
AcDbEntity
  8
0
100
AcDbBlockEnd
  0
BLOCK
  5
B1
330
B0
100
AcDbEntity
  8
0
100
AcDbBlockBegin
  2
_D_4
 70
     0
 10
0.0
 20
0.0
 30
0.0
  3
_D_4
  1

  0
SOLID
  5
B3
330
B0
100
AcDbEntity
  8
DIMEMSIONS
100
AcDbTrace
 10
4.7876126449
 20
1.9653141028
 30
0.0
 11
4.8436147483
 21
2.3293277747
 31
0.0
 12
4.7316105416
 22
2.3293277747
 32
0.0
 13
4.7316105416
 23
2.3293277747
 33
0.0
  0
SOLID
  5
B4
330
B0
100
AcDbEntity
  8
DIMEMSIONS
100
AcDbTrace
 10
4.7876126449
 20
20.4028141028
 30
0.0
 11
4.7316105416
 21
20.0388004309
 31
0.0
 12
4.8436147483
 22
20.0388004309
 32
0.0
 13
4.8436147483
 23
20.0388004309
 33
0.0
  0
LINE
  5
B5
330
B0
100
AcDbEntity
  8
DIMEMSIONS
100
AcDbLine
 10
4.6455987305
 20
8.4909265215
 30
0.0
 11
5.3074042886
 21
8.4909265215
 31
0.0
  0
LINE
  5
B6
330
B0
100
AcDbEntity
  8
DIMEMSIONS
100
AcDbLine
 10
4.2667793179
 20
7.8650932154
 30
0.0
 11
4.1834459856
 21
7.8650932154
 31
0.0
  0
LINE
  5
B7
330
B0
100
AcDbEntity
  8
DIMEMSIONS
100
AcDbLine
 10
4.1834459856
 20
7.8650932154
 30
0.0
 11
4.1834459856
 21
7.3060654466
 31
0.0
  0
LINE
  5
B8
330
B0
100
AcDbEntity
  8
DIMEMSIONS
100
AcDbLine
 10
4.1834459856
 20
7.3060654466
 30
0.0
 11
4.2667793179
 21
7.3060654466
 31
0.0
  0
LINE
  5
B9
330
B0
100
AcDbEntity
  8
DIMEMSIONS
100
AcDbLine
 10
5.3084460086
 20
7.8650932154
 30
0.0
 11
5.391779341
 21
7.8650932154
 31
0.0
  0
LINE
  5
BA
330
B0
100
AcDbEntity
  8
DIMEMSIONS
100
AcDbLine
 10
5.391779341
 20
7.8650932154
 30
0.0
 11
5.391779341
 21
7.3060654466
 31
0.0
  0
LINE
  5
BB
330
B0
100
AcDbEntity
  8
DIMEMSIONS
100
AcDbLine
 10
5.391779341
 20
7.3060654466
 30
0.0
 11
5.3084460086
 21
7.3060654466
 31
0.0
  0
LINE
  5
BC
330
B0
100
AcDbEntity
  8
DIMEMSIONS
100
AcDbLine
 10
4.7876126449
 20
1.9653141028
 30
0.0
 11
4.7876126449
 21
7.2227321326
 31
0.0
  0
LINE
  5
BD
330
B0
100
AcDbEntity
  8
DIMEMSIONS
100
AcDbLine
 10
4.7876126449
 20
20.4028141028
 30
0.0
 11
4.7876126449
 21
8.9590515145
 31
0.0
  0
MTEXT
  5
BE
330
B0
100
AcDbEntity
  8
DIMEMSIONS
100
AcDbMText
 10
4.036918177
 20
8.6869744568
 30
0.0039370079
 40
0.375
 41
0.0
 71
     1
 72
     1
  1
18
  7
SLDTEXTSTYLE0
 73
     1
 44
1.0
  0
MTEXT
  5
BF
330
B0
100
AcDbEntity
  8
DIMEMSIONS
100
AcDbMText
 10
4.8376126223
 20
8.9424519322
 30
0.0039370079
 40
0.375
 41
0.0
 71
     1
 72
     1
  1
7
  7
SLDTEXTSTYLE0
 73
     1
 44
1.0
  0
MTEXT
  5
C0
330
B0
100
AcDbEntity
  8
DIMEMSIONS
100
AcDbMText
 10
4.6987237351
 20
8.4318269375
 30
0.0039370079
 40
0.375
 41
0.0
 71
     1
 72
     1
  1
16
  7
SLDTEXTSTYLE0
 73
     1
 44
1.0
  0
MTEXT
  5
C1
330
B0
100
AcDbEntity
  8
DIMEMSIONS
100
AcDbMText
 10
5.3605293665
 20
8.6869744568
 30
0.0039370079
 40
0.375
 41
0.0
 71
     1
 72
     1
  1
"
  7
SLDTEXTSTYLE0
 73
     1
 44
1.0
  0
MTEXT
  5
C2
330
B0
100
AcDbEntity
  8
DIMEMSIONS
100
AcDbMText
 10
4.3709459833
 20
7.7894658582
 30
0.0039370079
 40
0.375
 41
0.0
 71
     1
 72
     1
  1
468
  7
SLDTEXTSTYLE0
 73
     1
 44
1.0
  0
ENDBLK
  5
B2
330
B0
100
AcDbEntity
  8
0
100
AcDbBlockEnd
  0
BLOCK
  5
C5
330
C4
100
AcDbEntity
  8
0
100
AcDbBlockBegin
  2
_D_5
 70
     0
 10
0.0
 20
0.0
 30
0.0
  3
_D_5
  1

  0
SOLID
  5
C7
330
C4
100
AcDbEntity
  8
DIMEMSIONS
100
AcDbTrace
 10
32.3289302652
 20
5.5469060582
 30
0.0
 11
31.9649165933
 21
5.6029081615
 31
0.0
 12
31.9649165933
 22
5.4909039548
 32
0.0
 13
31.9649165933
 23
5.4909039548
 33
0.0
  0
SOLID
  5
C8
330
C4
100
AcDbEntity
  8
DIMEMSIONS
100
AcDbTrace
 10
1.7664302652
 20
5.5469060582
 30
0.0
 11
2.1304439371
 21
5.4909039548
 31
0.0
 12
2.1304439371
 22
5.6029081615
 32
0.0
 13
2.1304439371
 23
5.6029081615
 33
0.0
  0
LINE
  5
C9
330
C4
100
AcDbEntity
  8
DIMEMSIONS
100
AcDbLine
 10
10.4178371128
 20
5.9469407561
 30
0.0
 11
11.0796426709
 21
5.9469407561
 31
0.0
  0
LINE
  5
CA
330
C4
100
AcDbEntity
  8
DIMEMSIONS
100
AcDbLine
 10
10.0390177002
 20
5.3211074499
 30
0.0
 11
9.9556843678
 21
5.3211074499
 31
0.0
  0
LINE
  5
CB
330
C4
100
AcDbEntity
  8
DIMEMSIONS
100
AcDbLine
 10
9.9556843678
 20
5.3211074499
 30
0.0
 11
9.9556843678
 21
4.7620796812
 31
0.0
  0
LINE
  5
CC
330
C4
100
AcDbEntity
  8
DIMEMSIONS
100
AcDbLine
 10
9.9556843678
 20
4.7620796812
 30
0.0
 11
10.0390177002
 21
4.7620796812
 31
0.0
  0
LINE
  5
CD
330
C4
100
AcDbEntity
  8
DIMEMSIONS
100
AcDbLine
 10
11.0806843909
 20
5.3211074499
 30
0.0
 11
11.1640177232
 21
5.3211074499
 31
0.0
  0
LINE
  5
CE
330
C4
100
AcDbEntity
  8
DIMEMSIONS
100
AcDbLine
 10
11.1640177232
 20
5.3211074499
 30
0.0
 11
11.1640177232
 21
4.7620796812
 31
0.0
  0
LINE
  5
CF
330
C4
100
AcDbEntity
  8
DIMEMSIONS
100
AcDbLine
 10
11.1640177232
 20
4.7620796812
 30
0.0
 11
11.0806843909
 21
4.7620796812
 31
0.0
  0
LINE
  5
D0
330
C4
100
AcDbEntity
  8
DIMEMSIONS
100
AcDbLine
 10
32.3289302652
 20
5.5469060582
 30
0.0
 11
11.3939294311
 21
5.5469060582
 31
0.0
  0
LINE
  5
D1
330
C4
100
AcDbEntity
  8
DIMEMSIONS
100
AcDbLine
 10
1.7664302652
 20
5.5469060582
 30
0.0
 11
9.7257726233
 21
5.5469060582
 31
0.0
  0
MTEXT
  5
D2
330
C4
100
AcDbEntity
  8
DIMEMSIONS
100
AcDbMText
 10
9.8091565593
 20
6.1429886914
 30
0.0039370079
 40
0.375
 41
0.0
 71
     1
 72
     1
  1
30
  7
SLDTEXTSTYLE0
 73
     1
 44
1.0
  0
MTEXT
  5
D3
330
C4
100
AcDbEntity
  8
DIMEMSIONS
100
AcDbMText
 10
10.6098510046
 20
6.3984661667
 30
0.0039370079
 40
0.375
 41
0.0
 71
     1
 72
     1
  1
9
  7
SLDTEXTSTYLE0
 73
     1
 44
1.0
  0
MTEXT
  5
D4
330
C4
100
AcDbEntity
  8
DIMEMSIONS
100
AcDbMText
 10
10.4709621174
 20
5.8878411721
 30
0.0039370079
 40
0.375
 41
0.0
 71
     1
 72
     1
  1
16
  7
SLDTEXTSTYLE0
 73
     1
 44
1.0
  0
MTEXT
  5
D5
330
C4
100
AcDbEntity
  8
DIMEMSIONS
100
AcDbMText
 10
11.1327677488
 20
6.1429886914
 30
0.0039370079
 40
0.375
 41
0.0
 71
     1
 72
     1
  1
"
  7
SLDTEXTSTYLE0
 73
     1
 44
1.0
  0
MTEXT
  5
D6
330
C4
100
AcDbEntity
  8
DIMEMSIONS
100
AcDbMText
 10
10.1431843656
 20
5.2454800928
 30
0.0039370079
 40
0.375
 41
0.0
 71
     1
 72
     1
  1
776
  7
SLDTEXTSTYLE0
 73
     1
 44
1.0
  0
ENDBLK
  5
C6
330
C4
100
AcDbEntity
  8
0
100
AcDbBlockEnd
  0
BLOCK
  5
D9
330
D8
100
AcDbEntity
  8
0
100
AcDbBlockBegin
  2
_D_6
 70
     0
 10
0.0
 20
0.0
 30
0.0
  3
_D_6
  1

  0
SOLID
  5
DB
330
D8
100
AcDbEntity
  8
DIMEMSIONS
100
AcDbTrace
 10
1.7664302652
 20
16.2216707317
 30
0.0
 11
2.1304439371
 21
16.1656686284
 31
0.0
 12
2.1304439371
 22
16.2776728351
 32
0.0
 13
2.1304439371
 23
16.2776728351
 33
0.0
  0
SOLID
  5
DC
330
D8
100
AcDbEntity
  8
DIMEMSIONS
100
AcDbTrace
 10
19.2923302401
 20
16.2216707317
 30
0.0
 11
18.9283165682
 21
16.2776728351
 31
0.0
 12
18.9283165682
 22
16.1656686284
 32
0.0
 13
18.9283165682
 23
16.1656686284
 33
0.0
  0
LINE
  5
DD
330
D8
100
AcDbEntity
  8
DIMEMSIONS
100
AcDbLine
 10
9.3880950877
 20
16.6217054297
 30
0.0
 11
9.7721228714
 21
16.6217054297
 31
0.0
  0
LINE
  5
DE
330
D8
100
AcDbEntity
  8
DIMEMSIONS
100
AcDbLine
 10
8.8703867329
 20
15.9958721235
 30
0.0
 11
8.7870534005
 21
15.9958721235
 31
0.0
  0
LINE
  5
DF
330
D8
100
AcDbEntity
  8
DIMEMSIONS
100
AcDbLine
 10
8.7870534005
 20
15.9958721235
 30
0.0
 11
8.7870534005
 21
15.4368443548
 31
0.0
  0
LINE
  5
E0
330
D8
100
AcDbEntity
  8
DIMEMSIONS
100
AcDbLine
 10
8.7870534005
 20
15.4368443548
 30
0.0
 11
8.8703867329
 21
15.4368443548
 31
0.0
  0
LINE
  5
E1
330
D8
100
AcDbEntity
  8
DIMEMSIONS
100
AcDbLine
 10
9.9120534236
 20
15.9958721235
 30
0.0
 11
9.9953867559
 21
15.9958721235
 31
0.0
  0
LINE
  5
E2
330
D8
100
AcDbEntity
  8
DIMEMSIONS
100
AcDbLine
 10
9.9953867559
 20
15.9958721235
 30
0.0
 11
9.9953867559
 21
15.4368443548
 31
0.0
  0
LINE
  5
E3
330
D8
100
AcDbEntity
  8
DIMEMSIONS
100
AcDbLine
 10
9.9953867559
 20
15.4368443548
 30
0.0
 11
9.9120534236
 21
15.4368443548
 31
0.0
  0
LINE
  5
E4
330
D8
100
AcDbEntity
  8
DIMEMSIONS
100
AcDbLine
 10
19.2923302401
 20
19.0403141028
 30
0.0
 11
19.2923302401
 21
16.0966707317
 31
0.0
  0
LINE
  5
E5
330
D8
100
AcDbEntity
  8
DIMEMSIONS
100
AcDbLine
 10
1.7664302652
 20
16.2216707317
 30
0.0
 11
8.6411694653
 21
16.2216707317
 31
0.0
  0
LINE
  5
E6
330
D8
100
AcDbEntity
  8
DIMEMSIONS
100
AcDbLine
 10
19.2923302401
 20
16.2216707317
 30
0.0
 11
10.1412706545
 21
16.2216707317
 31
0.0
  0
MTEXT
  5
E7
330
D8
100
AcDbEntity
  8
DIMEMSIONS
100
AcDbMText
 10
8.7794145342
 20
16.8177533649
 30
0.0039370079
 40
0.375
 41
0.0
 71
     1
 72
     1
  1
17
  7
SLDTEXTSTYLE0
 73
     1
 44
1.0
  0
MTEXT
  5
E8
330
D8
100
AcDbEntity
  8
DIMEMSIONS
100
AcDbMText
 10
9.4412200923
 20
17.0732308403
 30
0.0039370079
 40
0.375
 41
0.0
 71
     1
 72
     1
  1
1
  7
SLDTEXTSTYLE0
 73
     1
 44
1.0
  0
MTEXT
  5
E9
330
D8
100
AcDbEntity
  8
DIMEMSIONS
100
AcDbMText
 10
9.4412200923
 20
16.5626058456
 30
0.0039370079
 40
0.375
 41
0.0
 71
     1
 72
     1
  1
2
  7
SLDTEXTSTYLE0
 73
     1
 44
1.0
  0
MTEXT
  5
EA
330
D8
100
AcDbEntity
  8
DIMEMSIONS
100
AcDbMText
 10
9.8252478393
 20
16.8177533649
 30
0.0039370079
 40
0.375
 41
0.0
 71
     1
 72
     1
  1
"
  7
SLDTEXTSTYLE0
 73
     1
 44
1.0
  0
MTEXT
  5
EB
330
D8
100
AcDbEntity
  8
DIMEMSIONS
100
AcDbMText
 10
8.9745533983
 20
15.9202447663
 30
0.0039370079
 40
0.375
 41
0.0
 71
     1
 72
     1
  1
445
  7
SLDTEXTSTYLE0
 73
     1
 44
1.0
  0
ENDBLK
  5
DA
330
D8
100
AcDbEntity
  8
0
100
AcDbBlockEnd
  0
BLOCK
  5
ED
330
EC
100
AcDbEntity
  8
0
100
AcDbBlockBegin
  2
SW_NOTE_0
 70
     0
 10
0.0
 20
0.0
 30
0.0
  3
SW_NOTE_0
  1

  0
MTEXT
  5
EF
330
EC
100
AcDbEntity
  8
NOTES
 62
     0
100
AcDbMText
 10
0.0
 20
0.2148446233
 30
0.0
 40
0.1666666667
 41
0.0
 71
     1
 72
     1
  1
NOTES:
  7
SLDTEXTSTYLE0
 73
     1
 44
1.0
  0
MTEXT
  5
F0
330
EC
100
AcDbEntity
  8
NOTES
 62
     0
100
AcDbMText
 10
0.3937007786
 20
-0.2295998158
 30
0.0
 40
0.1666666667
 41
0.0
 71
     1
 72
     1
  1
THOROUGHLY READ ALL  INSTALLATION INSTRUCTIONS
  7
SLDTEXTSTYLE0
 73
     1
 44
1.0
  0
MTEXT
  5
F1
330
EC
100
AcDbEntity
  8
NOTES
 62
     0
100
AcDbMText
 10
0.0
 20
-0.2295998158
 30
0.0
 40
0.1666666667
 41
0.0
 71
     1
 72
     1
  1
1.
  7
SLDTEXTSTYLE0
 73
     1
 44
1.0
  0
MTEXT
  5
F2
330
EC
100
AcDbEntity
  8
NOTES
 62
     0
100
AcDbMText
 10
0.0
 20
-0.4518220353
 30
0.0
 40
0.1666666667
 41
0.0
 71
     1
 72
     1
  1
BEFORE CUTTING COUNTERTOP.
  7
SLDTEXTSTYLE0
 73
     1
 44
1.0
  0
MTEXT
  5
F3
330
EC
100
AcDbEntity
  8
NOTES
 62
     0
100
AcDbMText
 10
0.0
 20
-0.8962664744
 30
0.0
 40
0.1666666667
 41
0.0
 71
     1
 72
     1
  1
2.  DIMENSIONS ARE IN INCHES [MM].
  7
SLDTEXTSTYLE0
 73
     1
 44
1.0
  0
MTEXT
  5
F5
330
EC
100
AcDbEntity
  8
NOTES
 62
     0
100
AcDbMText
 10
0.0
 20
-1.562933133
 30
0.0
 40
0.1666666667
 41
0.0
 71
     1
 72
     1
  1
PLEASE CHECK TEMPLATE AGAINST PHYSICAL SINK FOR MOST 
  7
SLDTEXTSTYLE1
 73
     1
 44
1.0
  0
MTEXT
  5
F6
330
EC
100
AcDbEntity
  8
NOTES
 62
     0
100
AcDbMText
 10
0.0
 20
-1.7851553525
 30
0.0
 40
0.1666666667
 41
0.0
 71
     1
 72
     1
  1
ACCURATE CUT.
  7
SLDTEXTSTYLE1
 73
     1
 44
1.0
  0
MTEXT
  5
F7
330
EC
100
AcDbEntity
  8
NOTES
 62
     0
100
AcDbMText
 10
0.0
 20
-2.6740442307
 30
0.0
 40
0.1666666667
 41
0.0
 71
     1
 72
     1
  1
NOTAS:
  7
SLDTEXTSTYLE0
 73
     1
 44
1.0
  0
MTEXT
  5
F8
330
EC
100
AcDbEntity
  8
NOTES
 62
     0
100
AcDbMText
 10
0.0
 20
-3.1184886698
 30
0.0
 40
0.1666666667
 41
0.0
 71
     1
 72
     1
  1
1.  LEA ATENTAMENTE LAS INSTRUCCIONES DE INSTALACIÓN ANTES 
  7
SLDTEXTSTYLE0
 73
     1
 44
1.0
  0
MTEXT
  5
F9
330
EC
100
AcDbEntity
  8
NOTES
 62
     0
100
AcDbMText
 10
0.0
 20
-3.3407108893
 30
0.0
 40
0.1666666667
 41
0.0
 71
     1
 72
     1
  1
DE CORTAR LA ENCIMERA.
  7
SLDTEXTSTYLE0
 73
     1
 44
1.0
  0
MTEXT
  5
FA
330
EC
100
AcDbEntity
  8
NOTES
 62
     0
100
AcDbMText
 10
0.0
 20
-3.7851553284
 30
0.0
 40
0.1666666667
 41
0.0
 71
     1
 72
     1
  1
2.  DIMENSIONES EN PULGADAS [MM].
  7
SLDTEXTSTYLE0
 73
     1
 44
1.0
  0
MTEXT
  5
FB
330
EC
100
AcDbEntity
  8
NOTES
 62
     0
100
AcDbMText
 10
0.0
 20
-4.451821987
 30
0.0
 40
0.1666666667
 41
0.0
 71
     1
 72
     1
  1
POR FAVOR COMPRUEBE PLANTILLA CONTRA FREGADERO FÍSICO 
  7
SLDTEXTSTYLE1
 73
     1
 44
1.0
  0
MTEXT
  5
FC
330
EC
100
AcDbEntity
  8
NOTES
 62
     0
100
AcDbMText
 10
0.0
 20
-4.6740442065
 30
0.0
 40
0.1666666667
 41
0.0
 71
     1
 72
     1
  1
PARA CORTE MÁS EXACTO.
  7
SLDTEXTSTYLE1
 73
     1
 44
1.0
  0
ENDBLK
  5
EE
330
EC
100
AcDbEntity
  8
0
100
AcDbBlockEnd
  0
BLOCK
  5
FF
330
FE
100
AcDbEntity
  8
0
100
AcDbBlockBegin
  2
SW_NOTE_1
 70
     0
 10
0.0
 20
0.0
 30
0.0
  3
SW_NOTE_1
  1

  0
MTEXT
  5
101
330
FE
100
AcDbEntity
  8
NOTES
 62
     0
100
AcDbMText
 10
6.0042317708
 20
0.9399452269
 30
0.0
 40
0.7291666667
 41
0.0
 71
     2
 72
     1
  1
TEMPLATE #: 1000002208
  7
SLDTEXTSTYLE0
 73
     1
 44
1.0
  0
MTEXT
  5
102
330
FE
100
AcDbEntity
  8
NOTES
 62
     0
100
AcDbMText
 10
6.0400868495
 20
-0.0221327521
 30
0.0
 40
0.5
 41
0.0
 71
     2
 72
     1
  1
REVEAL UNDERMOUNT TEMPLATE 33" X 20-1/2" W/1-1/8" RADIUS
  7
SLDTEXTSTYLE0
 73
     1
 44
1.0
  0
ENDBLK
  5
100
330
FE
100
AcDbEntity
  8
0
100
AcDbBlockEnd
  0
BLOCK
  5
105
330
104
100
AcDbEntity
  8
0
100
AcDbBlockBegin
  2
SW_NOTE_2
 70
     0
 10
0.0
 20
0.0
 30
0.0
  3
SW_NOTE_2
  1

  0
MTEXT
  5
107
330
104
100
AcDbEntity
  8
NOTES
 62
     0
100
AcDbMText
 10
0.9060698117
 20
0.6875082166
 30
0.0
 40
0.2083333333
 41
0.0
 71
     2
 72
     1
  1
TEMPLATE
  7
SLDTEXTSTYLE0
 73
     1
 44
1.0
  0
MTEXT
  5
108
330
104
100
AcDbEntity
  8
NOTES
 62
     0
100
AcDbMText
 10
0.909204482
 20
0.4097304422
 30
0.0
 40
0.2083333333
 41
0.0
 71
     2
 72
     1
  1
CENTERLINE
  7
SLDTEXTSTYLE0
 73
     1
 44
1.0
  0
MTEXT
  5
109
330
104
100
AcDbEntity
  8
NOTES
 62
     0
100
AcDbMText
 10
0.9093250201
 20
-0.1458251066
 30
0.0
 40
0.2083333333
 41
0.0
 71
     2
 72
     1
  1
PLANTILLA
  7
SLDTEXTSTYLE0
 73
     1
 44
1.0
  0
MTEXT
  5
10A
330
104
100
AcDbEntity
  8
NOTES
 62
     0
100
AcDbMText
 10
0.9063109546
 20
-0.4236028811
 30
0.0
 40
0.2083333333
 41
0.0
 71
     2
 72
     1
  1
CENTRAL
  7
SLDTEXTSTYLE0
 73
     1
 44
1.0
  0
ENDBLK
  5
106
330
104
100
AcDbEntity
  8
0
100
AcDbBlockEnd
  0
ENDSEC
  0
SECTION
  2
ENTITIES
  0
LINE
  5
4B
330
1F
100
AcDbEntity
  8
0
  6
CENTERX2
 62
     5
420
      255
370
     0
100
AcDbLine
 10
1.7664302652
 20
11.1458312025
 30
0.0
 11
3.8838077146
 21
11.1458312025
 31
0.0
  0
LINE
  5
4C
330
1F
100
AcDbEntity
  8
OBJECTS
  6
CENTERX2
100
AcDbLine
 10
17.0254059218
 20
1.9653141028
 30
0.0
 11
17.0254059218
 21
4.0826915522
 31
0.0
  0
LINE
  5
4D
330
1F
100
AcDbEntity
  8
BLOCKS
  6
CENTERX2
 62
     5
420
      255
370
     0
100
AcDbLine
 10
17.0254924673
 20
20.4028141028
 30
0.0
 11
17.0254924673
 21
18.2854366534
 31
0.0
  0
LINE
  5
4E
330
1F
100
AcDbEntity
  8
BLOCKS
  6
CENTERX2
 62
     5
420
      255
370
     0
100
AcDbLine
 10
32.3289302652
 20
11.1458312025
 30
0.0
 11
30.1670041291
 21
11.1458312025
 31
0.0
  0
LINE
  5
4F
330
1F
100
AcDbEntity
  8
BLOCKS
100
AcDbLine
 10
2.8914302652
 20
20.4028141028
 30
0.0
 11
18.1673302401
 21
20.4028141028
 31
0.0
  0
LINE
  5
50
330
1F
100
AcDbEntity
  8
BLOCKS
100
AcDbLine
 10
19.2923302401
 20
19.2778141028
 30
0.0
 11
19.2923302401
 21
19.0903141028
 31
0.0
  0
LINE
  5
51
330
1F
100
AcDbEntity
  8
BLOCKS
100
AcDbLine
 10
19.9798302401
 20
18.4028141028
 30
0.0
 11
31.2039302652
 21
18.4028141028
 31
0.0
  0
LINE
  5
52
330
1F
100
AcDbEntity
  8
BLOCKS
100
AcDbLine
 10
32.3289302652
 20
17.2778141028
 30
0.0
 11
32.3289302652
 21
3.0903141028
 31
0.0
  0
LINE
  5
53
330
1F
100
AcDbEntity
  8
BLOCKS
100
AcDbLine
 10
31.2039302652
 20
1.9653141028
 30
0.0
 11
2.8914302652
 21
1.9653141028
 31
0.0
  0
LINE
  5
54
330
1F
100
AcDbEntity
  8
BLOCKS
100
AcDbLine
 10
1.7664302652
 20
3.0903141028
 30
0.0
 11
1.7664302652
 21
19.2778141028
 31
0.0
  0
ARC
  5
55
330
1F
100
AcDbEntity
  8
BLOCKS
100
AcDbCircle
 10
31.2039302652
 20
3.0903141028
 30
0.0
 40
1.125
100
AcDbArc
 50
270.0
 51
0.0
  0
ARC
  5
56
330
1F
100
AcDbEntity
  8
BLOCKS
100
AcDbCircle
 10
19.9798302401
 20
19.0903141028
 30
0.0
 40
0.6875
100
AcDbArc
 50
180.0
 51
270.0
  0
ARC
  5
57
330
1F
100
AcDbEntity
  8
BLOCKS
100
AcDbCircle
 10
2.8914302652
 20
3.0903141028
 30
0.0
 40
1.125
100
AcDbArc
 50
180.0
 51
270.0
  0
ARC
  5
58
330
1F
100
AcDbEntity
  8
BLOCKS
100
AcDbCircle
 10
2.8914302652
 20
19.2778141028
 30
0.0
 40
1.125000000000003
100
AcDbArc
 50
90.0
 51
180.0
  0
ARC
  5
59
330
1F
100
AcDbEntity
  8
BLOCKS
100
AcDbCircle
 10
18.1673302401
 20
19.2778141028
 30
0.0
 40
1.125
100
AcDbArc
 50
0.0
 51
90.0
  0
ARC
  5
5A
330
1F
100
AcDbEntity
  8
BLOCKS
100
AcDbCircle
 10
31.2039302652
 20
17.2778141028
 30
0.0
 40
1.125000000000004
100
AcDbArc
 50
0.0
 51
90.0
  0
DIMENSION
  5
5B
330
1F
100
AcDbEntity
  8
DIMEMSIONS
100
AcDbDimension
  2
_D
 10
31.2039302652
 20
3.0903141028
 30
0.0
 11
28.9237382748
 21
4.1917351567
 31
0.0
 70
   164
  1
<>\P5x
 71
     1
 42
-1.0
  3
SLDDIMSTYLE0
100
AcDbRadialDimension
 15
32.1782088444
 25
2.5278141028
 35
0.0
 40
0.0
  0
DIMENSION
  5
71
330
1F
100
AcDbEntity
  8
DIMEMSIONS
100
AcDbDimension
  2
_D_1
 10
19.9798302401
 20
19.0903141028
 30
0.0
 11
17.3633791458
 21
17.2869858649
 31
0.0
 70
   164
  1
<>
 71
     1
 42
-1.0
  3
SLDDIMSTYLE1
100
AcDbRadialDimension
 15
19.493694328
 25
18.6041781907
 35
0.0
 40
0.0
  0
DIMENSION
  5
85
330
1F
100
AcDbEntity
  8
DIMEMSIONS
100
AcDbDimension
  2
_D_2
 10
19.2923302401
 20
16.2216707317
 30
0.0
 11
25.3994115197
 21
16.2216707317
 31
0.0
 70
   160
  1
<>
 71
     2
 42
-1.0
  3
SLDDIMSTYLE2
100
AcDbAlignedDimension
 13
32.3289302652
 23
17.2778141028
 33
0.0
 14
19.2923302401
 24
19.0903141028
 34
0.0
 50
0.0
100
AcDbRotatedDimension
  0
DIMENSION
  5
9B
330
1F
100
AcDbEntity
  8
DIMEMSIONS
100
AcDbDimension
  2
_D_3
 10
27.3546016446
 20
1.9653141028
 30
0.0
 11
27.3546016446
 21
9.4242251408
 31
0.0
 70
   160
  1
<>
 71
     2
 42
-1.0
  3
SLDDIMSTYLE2
100
AcDbAlignedDimension
 13
31.2039302652
 23
18.4028141028
 33
0.0
 14
31.2039302652
 24
1.9653141028
 34
0.0
 50
90.0
100
AcDbRotatedDimension
  0
DIMENSION
  5
AF
330
1F
100
AcDbEntity
  8
DIMEMSIONS
100
AcDbDimension
  2
_D_4
 10
4.7876126449
 20
20.4028141028
 30
0.0
 11
4.7876126449
 21
8.0908918236
 31
0.0
 70
   160
  1
<>
 71
     2
 42
-1.0
  3
SLDDIMSTYLE2
100
AcDbAlignedDimension
 13
2.8914302652
 23
1.9653141028
 33
0.0
 14
2.8914302652
 24
20.4028141028
 34
0.0
 50
90.0
100
AcDbRotatedDimension
  0
DIMENSION
  5
C3
330
1F
100
AcDbEntity
  8
DIMEMSIONS
100
AcDbDimension
  2
_D_5
 10
1.7664302652
 20
5.5469060582
 30
0.0
 11
10.5598510272
 21
5.5469060582
 31
0.0
 70
   160
  1
<>
 71
     2
 42
-1.0
  3
SLDDIMSTYLE2
100
AcDbAlignedDimension
 13
32.3289302652
 23
3.0903141028
 33
0.0
 14
1.7664302652
 24
3.0903141028
 34
0.0
 50
0.0
100
AcDbRotatedDimension
  0
DIMENSION
  5
D7
330
1F
100
AcDbEntity
  8
DIMEMSIONS
100
AcDbDimension
  2
_D_6
 10
19.2923302401
 20
16.2216707317
 30
0.0
 11
9.3912200599
 21
16.2216707317
 31
0.0
 70
   160
  1
<>
 71
     2
 42
-1.0
  3
SLDDIMSTYLE2
100
AcDbAlignedDimension
 13
1.7664302652
 23
19.2778141028
 33
0.0
 14
19.2923302401
 24
19.0903141028
 34
0.0
100
AcDbRotatedDimension
  0
INSERT
  5
FD
330
1F
100
AcDbEntity
  8
NOTES
100
AcDbBlockReference
  2
SW_NOTE_0
 10
13.2715171249
 20
10.9273876977
 30
0.0
  0
INSERT
  5
103
330
1F
100
AcDbEntity
  8
NOTES
100
AcDbBlockReference
  2
SW_NOTE_1
 10
10.6820853009
 20
12.1868689656
 30
0.0
  0
INSERT
  5
10B
102
{ACAD_REACTORS
330
10D
330
10E
102
}
330
1F
100
AcDbEntity
  8
NOTES
100
AcDbBlockReference
  2
SW_NOTE_2
 10
7.6842613516
 20
13.7912564802
 30
0.0
  0
LEADER
  5
10D
330
1F
100
AcDbEntity
  8
NOTES
100
AcDbLeader
  3
SLDDIMSTYLE3
 73
     2
 76
     3
 10
2.7303953196
 20
11.1458312025
 30
0.0
 10
7.4342613516
 20
13.7912564802
 30
0.0
 10
7.6842613516
 20
13.7912564802
 30
0.0
340
10B
  0
LEADER
  5
10E
330
1F
100
AcDbEntity
  8
NOTES
100
AcDbLeader
  3
SLDDIMSTYLE3
 73
     2
 76
     3
 10
17.0254924673
 20
19.3406689185
 30
0.0
 10
9.7329696065
 20
13.7912564802
 30
0.0
 10
9.4829696065
 20
13.7912564802
 30
0.0
340
10B
212
1.798708254814722
222
0.0
232
0.0
  0
ENDSEC
  0
SECTION
  2
OBJECTS
  0
DICTIONARY
  5
C
330
0
100
AcDbDictionary
281
     1
  3
ACAD_GROUP
350
D
  3
ACAD_LAYOUT
350
1A
  3
ACAD_MATERIAL
350
3B
  3
ACAD_MLEADERSTYLE
350
110
  3
ACAD_MLINESTYLE
350
17
  3
ACAD_PLOTSETTINGS
350
19
  3
ACAD_PLOTSTYLENAME
350
E
  3
ACAD_TABLESTYLE
350
10F
  0
DICTIONARY
  5
D
102
{ACAD_REACTORS
330
C
102
}
330
C
100
AcDbDictionary
281
     1
  0
DICTIONARY
  5
1A
102
{ACAD_REACTORS
330
C
102
}
330
C
100
AcDbDictionary
281
     1
  3
Layout1
350
1E
  3
Layout2
350
26
  3
Model
350
22
  0
DICTIONARY
  5
3B
102
{ACAD_REACTORS
330
C
102
}
330
C
100
AcDbDictionary
281
     1
  3
ByBlock
350
3D
  3
ByLayer
350
3C
  3
Global
350
3E
  0
DICTIONARY
  5
110
102
{ACAD_REACTORS
330
C
102
}
330
C
100
AcDbDictionary
281
     1
  0
DICTIONARY
  5
17
102
{ACAD_REACTORS
330
C
102
}
330
C
100
AcDbDictionary
281
     1
  3
Standard
350
18
  0
DICTIONARY
  5
19
102
{ACAD_REACTORS
330
C
102
}
330
C
100
AcDbDictionary
281
     1
  0
ACDBDICTIONARYWDFLT
  5
E
102
{ACAD_REACTORS
330
C
102
}
330
C
100
AcDbDictionary
281
     1
  3
Normal
350
F
100
AcDbDictionaryWithDefault
340
F
  0
DICTIONARY
  5
10F
102
{ACAD_REACTORS
330
C
102
}
330
C
100
AcDbDictionary
281
     1
  0
LAYOUT
  5
1E
102
{ACAD_REACTORS
330
1A
102
}
330
1A
100
AcDbPlotSettings
  1

  2
none_device
  4

  6

 40
0.0
 41
0.0
 42
0.0
 43
0.0
 44
0.0
 45
0.0
 46
0.0
 47
0.0
 48
0.0
 49
0.0
140
0.0
141
0.0
142
1.0
143
1.0
 70
   688
 72
     0
 73
     0
 74
     5
  7

 75
    16
 76
     0
 77
     2
 78
   300
147
1.0
148
0.0
149
0.0
100
AcDbLayout
  1
Layout1
 70
     1
 71
     1
 10
0.0
 20
0.0
 11
12.0
 21
9.0
 12
0.0
 22
0.0
 32
0.0
 14
1.0000000000E+20
 24
1.0000000000E+20
 34
1.0000000000E+20
 15
-1.0000000000E+20
 25
-1.0000000000E+20
 35
-1.0000000000E+20
146
0.0
 13
0.0
 23
0.0
 33
0.0
 16
1.0
 26
0.0
 36
0.0
 17
0.0
 27
1.0
 37
0.0
 76
     0
330
1B
  0
LAYOUT
  5
26
102
{ACAD_REACTORS
330
1A
102
}
330
1A
100
AcDbPlotSettings
  1

  2
none_device
  4

  6

 40
0.0
 41
0.0
 42
0.0
 43
0.0
 44
0.0
 45
0.0
 46
0.0
 47
0.0
 48
0.0
 49
0.0
140
0.0
141
0.0
142
1.0
143
1.0
 70
   688
 72
     0
 73
     0
 74
     5
  7

 75
    16
 76
     0
 77
     2
 78
   300
147
1.0
148
0.0
149
0.0
100
AcDbLayout
  1
Layout2
 70
     1
 71
     2
 10
0.0
 20
0.0
 11
0.0
 21
0.0
 12
0.0
 22
0.0
 32
0.0
 14
0.0
 24
0.0
 34
0.0
 15
0.0
 25
0.0
 35
0.0
146
0.0
 13
0.0
 23
0.0
 33
0.0
 16
1.0
 26
0.0
 36
0.0
 17
0.0
 27
1.0
 37
0.0
 76
     0
330
23
  0
LAYOUT
  5
22
102
{ACAD_REACTORS
330
1A
102
}
330
1A
100
AcDbPlotSettings
  1

  2
none_device
  4

  6

 40
0.0
 41
0.0
 42
0.0
 43
0.0
 44
0.0
 45
0.0
 46
0.0
 47
0.0
 48
0.0
 49
0.0
140
0.0
141
0.0
142
1.0
143
1.0
 70
  1712
 72
     0
 73
     0
 74
     0
  7

 75
     0
 76
     0
 77
     2
 78
   300
147
1.0
148
0.0
149
0.0
100
AcDbLayout
  1
Model
 70
     1
 71
     0
 10
0.0
 20
0.0
 11
34.0
 21
22.0
 12
0.0
 22
0.0
 32
0.0
 14
0.0
 24
0.0
 34
0.0
 15
34.0
 25
22.0
 35
0.0
146
0.0
 13
0.0
 23
0.0
 33
0.0
 16
1.0
 26
0.0
 36
0.0
 17
0.0
 27
1.0
 37
0.0
 76
     0
330
1F
331
29
  0
MATERIAL
  5
3D
102
{ACAD_REACTORS
330
3B
102
}
330
3B
100
AcDbMaterial
  1
ByBlock
  0
MATERIAL
  5
3C
102
{ACAD_REACTORS
330
3B
102
}
330
3B
100
AcDbMaterial
  1
ByLayer
  0
MATERIAL
  5
3E
102
{ACAD_REACTORS
330
3B
102
}
330
3B
100
AcDbMaterial
  1
Global
  0
MLINESTYLE
  5
18
102
{ACAD_REACTORS
330
17
102
}
330
17
100
AcDbMlineStyle
  2
Standard
 70
     0
  3

 62
   256
 51
90.0
 52
90.0
 71
     2
 49
0.5
 62
   256
  6
BYLAYER
 49
-0.5
 62
   256
  6
BYLAYER
  0
ACDBPLACEHOLDER
  5
F
102
{ACAD_REACTORS
330
E
102
}
330
E
  0
ENDSEC
  0
EOF
