  0
SECTION
  2
HEADER
  9
$ACADVER
  1
AC1015
  9
$ACADMAINTVER
 70
     6
  9
$DWGCODEPAGE
  3
ANSI_1252
  9
$INSBASE
 10
0.0
 20
0.0
 30
0.0
  9
$EXTMIN
 10
0.0
 20
0.0
 30
0.0
  9
$EXTMAX
 10
34.0
 20
22.0
 30
0.0
  9
$LIMMIN
 10
0.0
 20
0.0
  9
$LIMMAX
 10
34.0
 20
22.0
  9
$ORTHOMODE
 70
     0
  9
$REGENMODE
 70
     1
  9
$FILLMODE
 70
     1
  9
$QTEXTMODE
 70
     0
  9
$MIRRTEXT
 70
     1
  9
$LTSCALE
 40
1.0
  9
$ATTMODE
 70
     1
  9
$TEXTSIZE
 40
0.2777777778
  9
$TRACEWID
 40
0.05
  9
$TEXTSTYLE
  7
Standard
  9
$CLAYER
  8
0
  9
$CELTYPE
  6
ByLayer
  9
$CECOLOR
 62
   256
  9
$CELTSCALE
 40
1.0
  9
$DISPSILH
 70
     0
  9
$DIMSCALE
 40
1.0
  9
$DIMASZ
 40
0.262898763
  9
$DIMEXO
 40
0.05
  9
$DIMDLI
 40
0.38
  9
$DIMRND
 40
0.0
  9
$DIMDLE
 40
0.0
  9
$DIMEXE
 40
0.125
  9
$DIMTP
 40
0.0
  9
$DIMTM
 40
0.0
  9
$DIMTXT
 40
0.3611111111
  9
$DIMCEN
 40
0.09
  9
$DIMTSZ
 40
0.0
  9
$DIMTOL
 70
     0
  9
$DIMLIM
 70
     0
  9
$DIMTIH
 70
     1
  9
$DIMTOH
 70
     1
  9
$DIMSE1
 70
     0
  9
$DIMSE2
 70
     0
  9
$DIMTAD
 70
     0
  9
$DIMZIN
 70
     0
  9
$DIMBLK
  1

  9
$DIMASO
 70
     1
  9
$DIMSHO
 70
     1
  9
$DIMPOST
  1

  9
$DIMAPOST
  1

  9
$DIMALT
 70
     0
  9
$DIMALTD
 70
     2
  9
$DIMALTF
 40
25.4
  9
$DIMLFAC
 40
1.0
  9
$DIMTOFL
 70
     0
  9
$DIMTVP
 40
0.0
  9
$DIMTIX
 70
     0
  9
$DIMSOXD
 70
     0
  9
$DIMSAH
 70
     0
  9
$DIMBLK1
  1

  9
$DIMBLK2
  1

  9
$DIMSTYLE
  2
Standard
  9
$DIMCLRD
 70
     0
  9
$DIMCLRE
 70
     0
  9
$DIMCLRT
 70
     0
  9
$DIMTFAC
 40
1.0
  9
$DIMGAP
 40
0.06
  9
$DIMJUST
 70
     0
  9
$DIMSD1
 70
     0
  9
$DIMSD2
 70
     0
  9
$DIMTOLJ
 70
     1
  9
$DIMTZIN
 70
     0
  9
$DIMALTZ
 70
     0
  9
$DIMALTTZ
 70
     0
  9
$DIMUPT
 70
     0
  9
$DIMDEC
 70
     3
  9
$DIMTDEC
 70
     3
  9
$DIMALTU
 70
     2
  9
$DIMALTTD
 70
     2
  9
$DIMTXSTY
  7
Standard
  9
$DIMAUNIT
 70
     0
  9
$DIMADEC
 70
     1
  9
$DIMALTRND
 40
0.0
  9
$DIMAZIN
 70
     0
  9
$DIMDSEP
 70
    46
  9
$DIMATFIT
 70
     3
  9
$DIMFRAC
 70
     0
  9
$DIMLDRBLK
  1

  9
$DIMLUNIT
 70
     2
  9
$DIMLWD
 70
    -2
  9
$DIMLWE
 70
    -2
  9
$DIMTMOVE
 70
     0
  9
$LUNITS
 70
     2
  9
$LUPREC
 70
     3
  9
$SKETCHINC
 40
0.1
  9
$FILLETRAD
 40
0.5
  9
$AUNITS
 70
     0
  9
$AUPREC
 70
     1
  9
$MENU
  1
.
  9
$ELEVATION
 40
0.0
  9
$PELEVATION
 40
0.0
  9
$THICKNESS
 40
0.0
  9
$LIMCHECK
 70
     0
  9
$CHAMFERA
 40
0.5
  9
$CHAMFERB
 40
0.5
  9
$CHAMFERC
 40
1.0
  9
$CHAMFERD
 40
0.0
  9
$SKPOLY
 70
     0
  9
$TDCREATE
 40
2457239.585141215
  9
$TDUCREATE
 40
2457239.793474548
  9
$TDUPDATE
 40
2457239.585142037
  9
$TDUUPDATE
 40
2457239.79347537
  9
$TDINDWG
 40
0.0000000116
  9
$TDUSRTIMER
 40
0.0000000116
  9
$USRTIMER
 70
     1
  9
$ANGBASE
 50
0.0
  9
$ANGDIR
 70
     0
  9
$PDMODE
 70
     0
  9
$PDSIZE
 40
-1.0
  9
$PLINEWID
 40
0.0
  9
$SPLFRAME
 70
     0
  9
$SPLINETYPE
 70
     6
  9
$SPLINESEGS
 70
     8
  9
$HANDSEED
  5
174
  9
$SURFTAB1
 70
     6
  9
$SURFTAB2
 70
     6
  9
$SURFTYPE
 70
     6
  9
$SURFU
 70
     6
  9
$SURFV
 70
     6
  9
$UCSBASE
  2

  9
$UCSNAME
  2

  9
$UCSORG
 10
0.0
 20
0.0
 30
0.0
  9
$UCSXDIR
 10
1.0
 20
0.0
 30
0.0
  9
$UCSYDIR
 10
0.0
 20
1.0
 30
0.0
  9
$UCSORTHOREF
  2

  9
$UCSORTHOVIEW
 70
     0
  9
$UCSORGTOP
 10
0.0
 20
0.0
 30
0.0
  9
$UCSORGBOTTOM
 10
0.0
 20
0.0
 30
0.0
  9
$UCSORGLEFT
 10
0.0
 20
0.0
 30
0.0
  9
$UCSORGRIGHT
 10
0.0
 20
0.0
 30
0.0
  9
$UCSORGFRONT
 10
0.0
 20
0.0
 30
0.0
  9
$UCSORGBACK
 10
0.0
 20
0.0
 30
0.0
  9
$PUCSBASE
  2

  9
$PUCSNAME
  2

  9
$PUCSORG
 10
0.0
 20
0.0
 30
0.0
  9
$PUCSXDIR
 10
1.0
 20
0.0
 30
0.0
  9
$PUCSYDIR
 10
0.0
 20
1.0
 30
0.0
  9
$PUCSORTHOREF
  2

  9
$PUCSORTHOVIEW
 70
     0
  9
$PUCSORGTOP
 10
0.0
 20
0.0
 30
0.0
  9
$PUCSORGBOTTOM
 10
0.0
 20
0.0
 30
0.0
  9
$PUCSORGLEFT
 10
0.0
 20
0.0
 30
0.0
  9
$PUCSORGRIGHT
 10
0.0
 20
0.0
 30
0.0
  9
$PUCSORGFRONT
 10
0.0
 20
0.0
 30
0.0
  9
$PUCSORGBACK
 10
0.0
 20
0.0
 30
0.0
  9
$USERI1
 70
     0
  9
$USERI2
 70
     0
  9
$USERI3
 70
     0
  9
$USERI4
 70
     0
  9
$USERI5
 70
     0
  9
$USERR1
 40
0.0
  9
$USERR2
 40
0.0
  9
$USERR3
 40
0.0
  9
$USERR4
 40
0.0
  9
$USERR5
 40
0.0
  9
$WORLDVIEW
 70
     1
  9
$SHADEDGE
 70
     3
  9
$SHADEDIF
 70
    70
  9
$TILEMODE
 70
     1
  9
$MAXACTVP
 70
    64
  9
$PINSBASE
 10
0.0
 20
0.0
 30
0.0
  9
$PLIMCHECK
 70
     0
  9
$PEXTMIN
 10
1.0000000000E+20
 20
1.0000000000E+20
 30
1.0000000000E+20
  9
$PEXTMAX
 10
-1.0000000000E+20
 20
-1.0000000000E+20
 30
-1.0000000000E+20
  9
$PLIMMIN
 10
0.0
 20
0.0
  9
$PLIMMAX
 10
12.0
 20
9.0
  9
$UNITMODE
 70
     0
  9
$VISRETAIN
 70
     1
  9
$PLINEGEN
 70
     0
  9
$PSLTSCALE
 70
     1
  9
$TREEDEPTH
 70
  3020
  9
$CMLSTYLE
  2
Standard
  9
$CMLJUST
 70
     0
  9
$CMLSCALE
 40
1.0
  9
$PROXYGRAPHICS
 70
     1
  9
$MEASUREMENT
 70
     0
  9
$CELWEIGHT
370
    -1
  9
$ENDCAPS
280
     0
  9
$JOINSTYLE
280
     0
  9
$LWDISPLAY
290
     1
  9
$INSUNITS
 70
     1
  9
$HYPERLINKBASE
  1

  9
$STYLESHEET
  1

  9
$XEDIT
290
     1
  9
$CEPSNTYPE
380
     0
  9
$PSTYLEMODE
290
     1
  9
$FINGERPRINTGUID
  2
{81C6CE81-9353-4CB8-A6DC-3AB2B1185114}
  9
$VERSIONGUID
  2
{FAEB1C32-E019-11D5-929B-00C0DF256EC4}
  9
$EXTNAMES
290
     1
  9
$PSVPSCALE
 40
0.0
  9
$OLESTARTUP
290
     0
  0
ENDSEC
  0
SECTION
  2
CLASSES
  0
CLASS
  1
ACDBDICTIONARYWDFLT
  2
AcDbDictionaryWithDefault
  3
ObjectDBX Classes
 90
        0
280
     0
281
     0
  0
CLASS
  1
VISUALSTYLE
  2
AcDbVisualStyle
  3
ObjectDBX Classes
 90
     4095
280
     0
281
     0
  0
CLASS
  1
MATERIAL
  2
AcDbMaterial
  3
ObjectDBX Classes
 90
     1153
280
     0
281
     0
  0
CLASS
  1
ACDBPLACEHOLDER
  2
AcDbPlaceHolder
  3
ObjectDBX Classes
 90
        0
280
     0
281
     0
  0
CLASS
  1
LAYOUT
  2
AcDbLayout
  3
ObjectDBX Classes
 90
        0
280
     0
281
     0
  0
ENDSEC
  0
SECTION
  2
TABLES
  0
TABLE
  2
VPORT
  5
8
330
0
100
AcDbSymbolTable
 70
     1
  0
VPORT
  5
29
330
8
100
AcDbSymbolTableRecord
100
AcDbViewportTableRecord
  2
*Active
 70
     0
 10
0.0
 20
0.0
 11
1.0
 21
1.0
 12
17.0
 22
11.0
 13
0.0
 23
0.0
 14
0.5
 24
0.5
 15
0.5
 25
0.5
 16
0.0
 26
0.0
 36
1.0
 17
0.0
 27
0.0
 37
0.0
 40
22.0
 41
1.5454545455
 42
50.0
 43
0.0
 44
0.0
 50
0.0
 51
0.0
 71
     0
 72
  2000
 73
     1
 74
     3
 75
     0
 76
     0
 77
     0
 78
     0
281
     0
 65
     1
110
0.0
120
0.0
130
0.0
111
1.0
121
0.0
131
0.0
112
0.0
122
1.0
132
0.0
 79
     0
146
0.0
  0
ENDTAB
  0
TABLE
  2
LTYPE
  5
5
330
0
100
AcDbSymbolTable
 70
     6
  0
LTYPE
  5
14
330
5
100
AcDbSymbolTableRecord
100
AcDbLinetypeTableRecord
  2
ByBlock
 70
     0
  3

 72
    65
 73
     0
 40
0.0
  0
LTYPE
  5
15
330
5
100
AcDbSymbolTableRecord
100
AcDbLinetypeTableRecord
  2
ByLayer
 70
     0
  3

 72
    65
 73
     0
 40
0.0
  0
LTYPE
  5
16
330
5
100
AcDbSymbolTableRecord
100
AcDbLinetypeTableRecord
  2
Continuous
 70
     0
  3
Solid line
 72
    65
 73
     0
 40
0.0
  0
LTYPE
  5
3F
330
5
100
AcDbSymbolTableRecord
100
AcDbLinetypeTableRecord
  2
HIDDEN
 70
     0
  3
Hidden __ __ __ __ __ __ __ __ __ __ __ __ __ __
 72
    65
 73
     2
 40
0.075
 49
0.05
 74
     0
 49
-0.025
 74
     0
  0
LTYPE
  5
40
330
5
100
AcDbSymbolTableRecord
100
AcDbLinetypeTableRecord
  2
PHANTOM
 70
     0
  3
Phantom ______  __  __  ______  __  __  ______
 72
    65
 73
     6
 40
0.5
 49
0.25
 74
     0
 49
-0.05
 74
     0
 49
0.05
 74
     0
 49
-0.05
 74
     0
 49
0.05
 74
     0
 49
-0.05
 74
     0
  0
LTYPE
  5
41
330
5
100
AcDbSymbolTableRecord
100
AcDbLinetypeTableRecord
  2
CENTER
 70
     0
  3
Center ____ _ ____ _ ____ _ ____ _ ____ _ ____
 72
    65
 73
     4
 40
0.4
 49
0.25
 74
     0
 49
-0.05
 74
     0
 49
0.05
 74
     0
 49
-0.05
 74
     0
  0
LTYPE
  5
42
330
5
100
AcDbSymbolTableRecord
100
AcDbLinetypeTableRecord
  2
CENTERX2
 70
     0
  3
Center (2x) ________  __  ________  __  _____
 72
    65
 73
     4
 40
0.8
 49
0.5
 74
     0
 49
-0.1
 74
     0
 49
0.1
 74
     0
 49
-0.1
 74
     0
  0
LTYPE
  5
43
330
5
100
AcDbSymbolTableRecord
100
AcDbLinetypeTableRecord
  2
DOT2
 70
     0
  3
Dot (.5x) ........................................
 72
    65
 73
     2
 40
0.025
 49
0.0
 74
     0
 49
-0.025
 74
     0
  0
ENDTAB
  0
TABLE
  2
LAYER
  5
2
330
0
100
AcDbSymbolTable
 70
     8
  0
LAYER
  5
10
330
2
100
AcDbSymbolTableRecord
100
AcDbLayerTableRecord
  2
0
 70
     0
 62
     7
  6
Continuous
370
    -3
390
F
  0
LAYER
  5
44
330
2
100
AcDbSymbolTableRecord
100
AcDbLayerTableRecord
  2
SLD-0
 70
     0
 62
   179
  6
Continuous
370
    -3
390
F
  0
LAYER
  5
45
330
2
100
AcDbSymbolTableRecord
100
AcDbLayerTableRecord
  2
OBJECTS
 70
     0
 62
     5
  6
Continuous
370
    -3
390
F
  0
LAYER
  5
46
330
2
100
AcDbSymbolTableRecord
100
AcDbLayerTableRecord
  2
DIMS
 70
     0
 62
     1
  6
Continuous
370
    -3
390
F
  0
LAYER
  5
47
330
2
100
AcDbSymbolTableRecord
100
AcDbLayerTableRecord
  2
NOTES
 70
     0
 62
     7
  6
Continuous
370
    -3
390
F
  0
LAYER
  5
48
330
2
100
AcDbSymbolTableRecord
100
AcDbLayerTableRecord
  2
IMAGES
 70
     0
 62
     7
  6
Continuous
370
    -3
390
F
  0
LAYER
  5
49
330
2
100
AcDbSymbolTableRecord
100
AcDbLayerTableRecord
  2
CENTERLINES
 70
     0
 62
     7
  6
HIDDEN
370
    -3
390
F
  0
LAYER
  5
4A
330
2
100
AcDbSymbolTableRecord
100
AcDbLayerTableRecord
  2
BLOCKS
 70
     0
 62
    16
  6
Continuous
370
    -3
390
F
  0
ENDTAB
  0
TABLE
  2
STYLE
  5
3
330
0
100
AcDbSymbolTable
 70
     2
  0
STYLE
  5
11
330
3
100
AcDbSymbolTableRecord
100
AcDbTextStyleTableRecord
  2
Standard
 70
     0
 40
0.0
 41
1.0
 50
0.0
 71
     0
 42
0.2777777778
  3
txt
  4

  0
STYLE
  5
8C
330
3
100
AcDbSymbolTableRecord
100
AcDbTextStyleTableRecord
  2
SLDTEXTSTYLE0
 70
     0
 40
0.0
 41
0.605
 50
0.0
 71
     0
 42
0.2
  3
TXT
  4

  0
ENDTAB
  0
TABLE
  2
VIEW
  5
6
330
0
100
AcDbSymbolTable
 70
     0
  0
ENDTAB
  0
TABLE
  2
UCS
  5
7
330
0
100
AcDbSymbolTable
 70
     0
  0
ENDTAB
  0
TABLE
  2
APPID
  5
9
330
0
100
AcDbSymbolTable
 70
     1
  0
APPID
  5
12
330
9
100
AcDbSymbolTableRecord
100
AcDbRegAppTableRecord
  2
ACAD
 70
     0
  0
ENDTAB
  0
TABLE
  2
DIMSTYLE
  5
A
330
0
100
AcDbSymbolTable
 70
     3
100
AcDbDimStyleTable
  0
DIMSTYLE
105
27
330
A
100
AcDbSymbolTableRecord
100
AcDbDimStyleTableRecord
  2
Standard
 70
     0
178
     0
340
11
  0
DIMSTYLE
105
E9
330
A
100
AcDbSymbolTableRecord
100
AcDbDimStyleTableRecord
  2
SLDDIMSTYLE0
 70
     0
 41
0.262898763
 44
0.0
 45
0.000000001
140
0.0
146
0.262898763
147
0.0
173
     1
178
     0
271
     0
272
     0
276
     2
277
     5
340
11
  0
DIMSTYLE
105
F8
102
{ACAD_REACTORS
330
F7
330
10E
330
124
330
13A
102
}
330
A
100
AcDbSymbolTableRecord
100
AcDbDimStyleTableRecord
  2
SLDDIMSTYLE1
 70
     0
 41
0.262898763
 44
0.0
 45
0.000000001
 78
    12
 79
     3
140
0.262898763
147
0.0657246908
148
0.000000001
170
     1
171
     0
173
     1
178
     0
271
     3
272
     3
274
     0
276
     2
277
     5
284
    12
340
8C
  0
ENDTAB
  0
TABLE
  2
BLOCK_RECORD
  5
1
330
0
100
AcDbSymbolTable
 70
    14
  0
BLOCK_RECORD
  5
1F
330
1
100
AcDbSymbolTableRecord
100
AcDbBlockTableRecord
  2
*Model_Space
340
22
  0
BLOCK_RECORD
  5
1B
330
1
100
AcDbSymbolTableRecord
100
AcDbBlockTableRecord
  2
*Paper_Space
340
1E
  0
BLOCK_RECORD
  5
23
330
1
100
AcDbSymbolTableRecord
100
AcDbBlockTableRecord
  2
*Paper_Space0
340
26
  0
BLOCK_RECORD
  5
4B
330
1
100
AcDbSymbolTableRecord
100
AcDbBlockTableRecord
  2
OVERHANG - .125
340
0
102
{BLKREFS
331
F5
102
}
  0
BLOCK_RECORD
  5
7D
330
1
100
AcDbSymbolTableRecord
100
AcDbBlockTableRecord
  2
SW_BLOCK_DIMENSION_0
340
0
102
{BLKREFS
331
93
102
}
  0
BLOCK_RECORD
  5
94
330
1
100
AcDbSymbolTableRecord
100
AcDbBlockTableRecord
  2
REVEAL- .500
340
0
102
{BLKREFS
331
F6
102
}
  0
BLOCK_RECORD
  5
C6
330
1
100
AcDbSymbolTableRecord
100
AcDbBlockTableRecord
  2
SW_BLOCK_DIMENSION_1
340
0
102
{BLKREFS
331
DC
102
}
  0
BLOCK_RECORD
  5
E1
330
1
100
AcDbSymbolTableRecord
100
AcDbBlockTableRecord
  2
SW_NOTE_0
340
0
102
{BLKREFS
331
E8
102
}
  0
BLOCK_RECORD
  5
F9
330
1
100
AcDbSymbolTableRecord
100
AcDbBlockTableRecord
  2
_D
340
0
  0
BLOCK_RECORD
  5
10F
330
1
100
AcDbSymbolTableRecord
100
AcDbBlockTableRecord
  2
_D_1
340
0
  0
BLOCK_RECORD
  5
125
330
1
100
AcDbSymbolTableRecord
100
AcDbBlockTableRecord
  2
_D_2
340
0
  0
BLOCK_RECORD
  5
13B
330
1
100
AcDbSymbolTableRecord
100
AcDbBlockTableRecord
  2
_D_3
340
0
  0
BLOCK_RECORD
  5
150
330
1
100
AcDbSymbolTableRecord
100
AcDbBlockTableRecord
  2
SW_NOTE_1
340
0
102
{BLKREFS
331
155
102
}
  0
BLOCK_RECORD
  5
156
330
1
100
AcDbSymbolTableRecord
100
AcDbBlockTableRecord
  2
SW_NOTE_2
340
0
102
{BLKREFS
331
165
102
}
  0
BLOCK_RECORD
  5
166
330
1
100
AcDbSymbolTableRecord
100
AcDbBlockTableRecord
  2
SW_NOTE_3
340
0
102
{BLKREFS
331
16B
102
}
  0
BLOCK_RECORD
  5
16D
330
1
100
AcDbSymbolTableRecord
100
AcDbBlockTableRecord
  2
SW_NOTE_4
340
0
102
{BLKREFS
331
172
102
}
  0
ENDTAB
  0
ENDSEC
  0
SECTION
  2
BLOCKS
  0
BLOCK
  5
20
330
1F
100
AcDbEntity
  8
0
100
AcDbBlockBegin
  2
*Model_Space
 70
     0
 10
0.0
 20
0.0
 30
0.0
  3
*Model_Space
  1

  0
ENDBLK
  5
21
330
1F
100
AcDbEntity
  8
0
100
AcDbBlockEnd
  0
BLOCK
  5
1C
330
1B
100
AcDbEntity
 67
     1
  8
0
100
AcDbBlockBegin
  2
*Paper_Space
 70
     0
 10
0.0
 20
0.0
 30
0.0
  3
*Paper_Space
  1

  0
ENDBLK
  5
1D
330
1B
100
AcDbEntity
 67
     1
  8
0
100
AcDbBlockEnd
  0
BLOCK
  5
24
330
23
100
AcDbEntity
  8
0
100
AcDbBlockBegin
  2
*Paper_Space0
 70
     0
 10
0.0
 20
0.0
 30
0.0
  3
*Paper_Space0
  1

  0
ENDBLK
  5
25
330
23
100
AcDbEntity
  8
0
100
AcDbBlockEnd
  0
BLOCK
  5
4C
330
4B
100
AcDbEntity
  8
0
100
AcDbBlockBegin
  2
OVERHANG - .125
 70
     0
 10
0.0
 20
0.0
 30
0.0
  3
OVERHANG - .125
  1

  0
ARC
  5
4E
330
4B
100
AcDbEntity
  8
0
  6
Continuous
 62
    16
370
     0
100
AcDbCircle
 10
21.0247390722
 20
26.9140495115
 30
0.0
 40
0.0659795528056719
100
AcDbArc
 50
0.0
 51
90.0
  0
ARC
  5
4F
330
4B
100
AcDbEntity
  8
0
  6
Continuous
 62
    16
370
     0
100
AcDbCircle
 10
20.0403577083
 20
26.4212514943
 30
0.0
 40
0.0881257319589152
100
AcDbArc
 50
200.9822712638
 51
339.0177287362
  0
ARC
  5
50
330
4B
100
AcDbEntity
  8
0
  6
Continuous
 62
    16
370
     0
100
AcDbCircle
 10
20.731618625
 20
26.3139893982
 30
0.0
 40
0.1880000000000024
100
AcDbArc
 50
0.0
 51
90.0
  0
ARC
  5
51
330
4B
100
AcDbEntity
  8
0
  6
Continuous
 62
    16
370
     0
100
AcDbCircle
 10
20.731618625
 20
26.3139893982
 30
0.0
 40
0.2341000000000015
100
AcDbArc
 50
0.0
 51
90.0
  0
ARC
  5
52
330
4B
100
AcDbEntity
  8
BLOCKS
100
AcDbCircle
 10
21.3249668066
 20
26.3001927866
 30
0.0
 40
0.3686452378780193
100
AcDbArc
 50
129.4518716023
 51
170.6861521435
  0
LINE
  5
53
330
4B
100
AcDbEntity
  8
0
  6
Continuous
 62
    16
370
     0
100
AcDbLine
 10
19.4314231162
 20
26.5192257655
 30
0.0
 11
19.3788703567
 21
26.5738454846
 31
0.0
  0
LINE
  5
54
330
4B
100
AcDbEntity
  8
0
  6
Continuous
 62
    16
370
     0
100
AcDbLine
 10
20.0408120814
 20
26.8351846327
 30
0.0
 11
20.0797389734
 21
26.7799952517
 31
0.0
  0
LINE
  5
55
330
4B
100
AcDbEntity
  8
0
  6
Continuous
 62
    16
370
     0
100
AcDbLine
 10
19.3788703567
 20
26.5738454846
 30
0.0
 11
19.3364639969
 21
26.5330438976
 31
0.0
  0
LINE
  5
56
330
4B
100
AcDbEntity
  8
0
  6
Continuous
 62
    16
370
     0
100
AcDbLine
 10
20.6725806187
 20
26.4527516548
 30
0.0
 11
20.7252404088
 21
26.5034186543
 31
0.0
  0
LINE
  5
57
330
4B
100
AcDbEntity
  8
0
  6
Continuous
 62
    16
370
     0
100
AcDbLine
 10
20.0797389734
 20
26.7799952517
 30
0.0
 11
20.0797389734
 21
26.3896955151
 31
0.0
  0
LINE
  5
58
330
4B
100
AcDbEntity
  8
0
  6
Continuous
 62
    16
370
     0
100
AcDbLine
 10
19.9814774532
 20
26.8652076206
 30
0.0
 11
19.9814774532
 21
26.5848453834
 31
0.0
  0
LINE
  5
59
330
4B
100
AcDbEntity
  8
0
  6
Continuous
 62
    16
370
     0
100
AcDbLine
 10
20.7678769055
 20
26.4591052159
 30
0.0
 11
20.6989695496
 21
26.392805503
 31
0.0
  0
LINE
  5
5A
330
4B
100
AcDbEntity
  8
0
  6
Continuous
 62
    16
370
     0
100
AcDbLine
 10
21.0247390722
 20
26.9800290643
 30
0.0
 11
19.2446660374
 21
26.9800290643
 31
0.0
  0
LINE
  5
5B
330
4B
100
AcDbEntity
  8
0
  6
Continuous
 62
    16
370
     0
100
AcDbLine
 10
19.9670675999
 20
26.4905376331
 30
0.0
 11
19.9670675999
 21
26.4354028898
 31
0.0
  0
LINE
  5
5C
330
4B
100
AcDbEntity
  8
0
  6
Continuous
 62
    16
370
     0
100
AcDbLine
 10
20.1524880148
 20
26.4213577706
 30
0.0
 11
20.1506182011
 21
26.3892309097
 31
0.0
  0
LINE
  5
5D
330
4B
100
AcDbEntity
  8
0
  6
Continuous
 62
    16
370
     0
100
AcDbLine
 10
19.3364639969
 20
26.5330438976
 30
0.0
 11
19.3985753063
 21
26.4684896798
 31
0.0
  0
LINE
  5
5E
330
4B
100
AcDbEntity
  8
0
  6
Continuous
 62
    16
370
     0
100
AcDbLine
 10
20.2906117643
 20
26.5019893982
 30
0.0
 11
20.2906117643
 21
26.5480893982
 31
0.0
  0
LINE
  5
5F
330
4B
100
AcDbEntity
  8
0
  6
Continuous
 62
    16
370
     0
100
AcDbLine
 10
19.4314231162
 20
26.5192257655
 30
0.0
 11
20.6725806187
 21
26.4527516548
 31
0.0
  0
LINE
  5
60
330
4B
100
AcDbEntity
  8
0
  6
Continuous
 62
    16
370
     0
100
AcDbLine
 10
19.9400720233
 20
26.4337205825
 30
0.0
 11
20.1524880148
 21
26.4213577706
 31
0.0
  0
LINE
  5
61
330
4B
100
AcDbEntity
  8
0
  6
Continuous
 62
    16
370
     0
100
AcDbLine
 10
21.090718625
 20
26.5848453834
 30
0.0
 11
21.090718625
 21
26.9140495115
 31
0.0
  0
LINE
  5
62
330
4B
100
AcDbEntity
  8
0
  6
Continuous
 62
    16
370
     0
100
AcDbLine
 10
20.731618625
 20
26.5019893982
 30
0.0
 11
20.2906117643
 21
26.5019893982
 31
0.0
  0
LINE
  5
63
330
4B
100
AcDbEntity
  8
0
  6
Continuous
 62
    16
370
     0
100
AcDbLine
 10
20.919618625
 20
25.9230893982
 30
0.0
 11
20.919618625
 21
26.3139893982
 31
0.0
  0
LINE
  5
64
330
4B
100
AcDbEntity
  8
0
  6
Continuous
 62
    16
370
     0
100
AcDbLine
 10
19.9580754817
 20
26.3896955151
 30
0.0
 11
20.1226399348
 21
26.3896955151
 31
0.0
  0
LINE
  5
65
330
4B
100
AcDbEntity
  8
0
  6
Continuous
 62
    16
370
     0
100
AcDbLine
 10
20.1506182011
 20
26.3892309097
 30
0.0
 11
19.9382022095
 21
26.4015937216
 31
0.0
  0
LINE
  5
66
330
4B
100
AcDbEntity
  8
0
  6
Continuous
 62
    16
370
     0
100
AcDbLine
 10
20.965718625
 20
25.9230893982
 30
0.0
 11
20.919618625
 21
25.9230893982
 31
0.0
  0
LINE
  5
67
330
4B
100
AcDbEntity
  8
0
  6
Continuous
 62
    16
370
     0
100
AcDbLine
 10
20.965718625
 20
26.3139893982
 30
0.0
 11
20.965718625
 21
25.9230893982
 31
0.0
  0
LINE
  5
68
330
4B
100
AcDbEntity
  8
0
  6
Continuous
 62
    16
370
     0
100
AcDbLine
 10
20.6989695496
 20
26.392805503
 30
0.0
 11
19.3985753063
 21
26.4684896798
 31
0.0
  0
LINE
  5
69
330
4B
100
AcDbEntity
  8
0
  6
Continuous
 62
    16
370
     0
100
AcDbLine
 10
19.2743496911
 20
26.5848453834
 30
0.0
 11
21.090718625
 21
26.5848453834
 31
0.0
  0
LINE
  5
6A
330
4B
100
AcDbEntity
  8
0
  6
Continuous
 62
    16
370
     0
100
AcDbLine
 10
20.0028471016
 20
26.7799952517
 30
0.0
 11
20.0408120814
 21
26.8351846327
 31
0.0
  0
LINE
  5
6B
330
4B
100
AcDbEntity
  8
0
  6
Continuous
 62
    16
370
     0
100
AcDbLine
 10
20.2906117643
 20
26.5480893982
 30
0.0
 11
20.731618625
 21
26.5480893982
 31
0.0
  0
LINE
  5
6C
330
4B
100
AcDbEntity
  8
0
  6
Continuous
 62
    16
370
     0
100
AcDbLine
 10
20.0028471016
 20
26.7799952517
 30
0.0
 11
20.0028471016
 21
26.3896955151
 31
0.0
  0
LINE
  5
6D
330
4B
100
AcDbEntity
  8
0
  6
Continuous
 62
    16
370
     0
100
AcDbLine
 10
20.1080144451
 20
26.8652076206
 30
0.0
 11
19.9814774532
 21
26.8652076206
 31
0.0
  0
LINE
  5
6E
330
4B
100
AcDbEntity
  8
0
  6
Continuous
 62
    16
370
     0
100
AcDbLine
 10
20.7252404088
 20
26.5034186543
 30
0.0
 11
20.7678769055
 21
26.4591052159
 31
0.0
  0
LINE
  5
6F
330
4B
100
AcDbEntity
  8
0
  6
Continuous
 62
    16
370
     0
100
AcDbLine
 10
19.9400720233
 20
26.4337205825
 30
0.0
 11
19.9382022095
 21
26.4015937216
 31
0.0
  0
LINE
  5
70
330
4B
100
AcDbEntity
  8
0
  6
Continuous
 62
    16
370
     0
100
AcDbLine
 10
20.1080144451
 20
26.5848453834
 30
0.0
 11
20.1080144451
 21
26.8652076206
 31
0.0
  0
LINE
  5
71
330
4B
100
AcDbEntity
  8
0
  6
Continuous
 62
    16
370
     0
100
AcDbLine
 10
20.1216872784
 20
26.4822564878
 30
0.0
 11
20.1216872784
 21
26.426403878
 31
0.0
  0
LINE
  5
72
330
4B
100
AcDbEntity
  8
BLOCKS
100
AcDbLine
 10
20.2906117643
 20
26.5480893982
 30
0.0
 11
20.2368944426
 21
26.5848453834
 31
0.0
  0
SPLINE
  5
73
330
4B
100
AcDbEntity
  8
0
  6
Continuous
 62
    16
370
     0
100
AcDbSpline
210
0.0
220
0.0
230
1.0
 70
     8
 71
     3
 72
     9
 73
     5
 74
     0
 42
0.00000001
 43
0.00000001
 12
1.0
 22
0.0
 32
0.0
 13
1.0
 23
0.0
 33
0.0
 40
0.0
 40
0.0
 40
0.0
 40
0.0
 40
0.5928291688347104
 40
1.0
 40
1.0
 40
1.0
 40
1.0
 10
19.27434969107827
 20
26.58484538338648
 30
0.0
 10
19.22977403886498
 20
26.67067982455945
 30
0.0
 10
19.3092570011885
 20
26.78990333849607
 30
0.0
 10
19.29114417973896
 20
26.9441515837284
 30
0.0
 10
19.24466603742839
 20
26.98002906431008
 30
0.0
  0
HATCH
  5
74
330
4B
100
AcDbEntity
  8
BLOCKS
 62
    16
100
AcDbHatch
 10
0.0
 20
0.0
 30
0.0
210
0.0
220
0.0
230
1.0
  2
ANSI36
 70
     0
 71
     0
 91
        1
 92
        0
 93
       10
 72
     4
 94
        3
 73
     1
 74
     0
 95
        9
 96
        5
 40
0.0
 40
0.0
 40
0.0
 40
0.0
 40
0.4071708311652896
 40
1.0
 40
1.0
 40
1.0
 40
1.0
 10
19.24466603742839
 20
26.98002906431008
 42
1.0
 10
19.29114417973896
 20
26.9441515837284
 42
1.0
 10
19.3092570011885
 20
26.78990333849607
 42
1.0
 10
19.22977403886498
 20
26.67067982455945
 42
1.0
 10
19.27434969107827
 20
26.58484538338648
 42
1.0
 72
     1
 10
19.27434969107827
 20
26.58484538338648
 11
19.98147745321076
 21
26.58484538338648
 72
     1
 10
19.98147745321076
 20
26.58484538338648
 11
19.98147745321076
 21
26.86520762058046
 72
     1
 10
19.98147745321076
 20
26.86520762058046
 11
20.10801444514525
 21
26.86520762058046
 72
     1
 10
20.10801444514525
 20
26.86520762058046
 11
20.10801444514525
 21
26.58484538338648
 72
     1
 10
20.10801444514525
 20
26.58484538338648
 11
20.23689444261453
 21
26.58484538338649
 72
     1
 10
20.23689444261453
 20
26.58484538338649
 11
21.0907186249667
 21
26.58484538338648
 72
     1
 10
21.0907186249667
 20
26.58484538338648
 11
21.0907186249667
 21
26.9140495115044
 72
     2
 10
21.02473907216103
 20
26.9140495115044
 40
0.0659795528056717
 50
0.0
 51
90.0
 73
     1
 72
     1
 10
21.02473907216103
 20
26.98002906431007
 11
19.24466603742839
 21
26.98002906431008
 97
        0
 75
     0
 76
     1
 52
0.0
 41
0.5
 77
     0
 78
     1
 53
45.0
 43
0.0
 44
0.0
 45
0.0331456303681194
 46
0.1215339780164378
 79
     4
 49
0.15625
 49
-0.03125
 49
0.0
 49
-0.03125
 98
        1
 10
0.0
 20
0.0
  0
HATCH
  5
75
330
4B
100
AcDbEntity
  8
BLOCKS
 62
    16
100
AcDbHatch
 10
0.0
 20
0.0
 30
0.0
210
0.0
220
0.0
230
1.0
  2
ANSI32
 70
     0
 71
     0
 91
        1
 92
        0
 93
        4
 72
     1
 10
20.07973897339712
 20
26.58484538338648
 11
20.00284710159458
 21
26.58484538338648
 72
     1
 10
20.00284710159458
 20
26.58484538338648
 11
20.00284710159458
 21
26.48862134888004
 72
     1
 10
20.00284710159458
 20
26.48862134888004
 11
20.07973897339712
 21
26.4845031617958
 72
     1
 10
20.07973897339712
 20
26.4845031617958
 11
20.07973897339712
 21
26.58484538338648
 97
        0
 75
     0
 76
     1
 52
0.0
 41
0.2
 77
     0
 78
     2
 53
45.0
 43
0.0
 44
0.0
 45
-0.0530330085889911
 46
0.0530330085889911
 79
     0
 53
45.0
 43
0.035355339
 44
0.0
 45
-0.0530330085889911
 46
0.0530330085889911
 79
     0
 98
        1
 10
0.0
 20
0.0
  0
HATCH
  5
76
330
4B
100
AcDbEntity
  8
BLOCKS
 62
    16
100
AcDbHatch
 10
0.0
 20
0.0
 30
0.0
210
0.0
220
0.0
230
1.0
  2
ANSI32
 70
     0
 71
     0
 91
        1
 92
        0
 93
        5
 72
     1
 10
20.04081208140756
 20
26.8351846326727
 11
20.00284710159458
 21
26.77999525166031
 72
     1
 10
20.00284710159458
 20
26.77999525166031
 11
20.00284710159458
 21
26.58484538338648
 72
     1
 10
20.00284710159458
 20
26.58484538338648
 11
20.07973897339712
 21
26.58484538338648
 72
     1
 10
20.07973897339712
 20
26.58484538338648
 11
20.07973897339712
 21
26.77999525166031
 72
     1
 10
20.07973897339712
 20
26.77999525166031
 11
20.04081208140756
 21
26.8351846326727
 97
        0
 75
     0
 76
     1
 52
0.0
 41
0.2
 77
     0
 78
     2
 53
45.0
 43
0.0
 44
0.0
 45
-0.0530330085889911
 46
0.0530330085889911
 79
     0
 53
45.0
 43
0.035355339
 44
0.0
 45
-0.0530330085889911
 46
0.0530330085889911
 79
     0
 98
        1
 10
0.0
 20
0.0
  0
HATCH
  5
77
330
4B
100
AcDbEntity
  8
BLOCKS
 62
    16
100
AcDbHatch
 10
0.0
 20
0.0
 30
0.0
210
0.0
220
0.0
230
1.0
  2
ANSI32
 70
     0
 71
     0
 91
        1
 92
        0
 93
        4
 72
     1
 10
20.07973897339712
 20
26.4845031617958
 11
20.00284710159458
 21
26.48862134888004
 72
     1
 10
20.00284710159458
 20
26.48862134888004
 11
20.00284710159458
 21
26.43332048887584
 72
     1
 10
20.00284710159458
 20
26.43332048887584
 11
20.07973897339712
 21
26.42884530909641
 72
     1
 10
20.07973897339712
 20
26.42884530909641
 11
20.07973897339712
 21
26.4845031617958
 97
        0
 75
     0
 76
     1
 52
0.0
 41
0.2
 77
     0
 78
     2
 53
45.0
 43
0.0
 44
0.0
 45
-0.0530330085889911
 46
0.0530330085889911
 79
     0
 53
45.0
 43
0.035355339
 44
0.0
 45
-0.0530330085889911
 46
0.0530330085889911
 79
     0
 98
        1
 10
0.0
 20
0.0
  0
HATCH
  5
78
330
4B
100
AcDbEntity
  8
BLOCKS
 62
    16
100
AcDbHatch
 10
0.0
 20
0.0
 30
0.0
210
0.0
220
0.0
230
1.0
  2
ANSI32
 70
     0
 71
     0
 91
        1
 92
        0
 93
        4
 72
     1
 10
20.00284710159458
 20
26.43006701346352
 11
19.94007202325873
 21
26.43372058249019
 72
     1
 10
19.94007202325873
 20
26.43372058249019
 11
19.93820220952023
 21
26.40159372159039
 72
     1
 10
19.93820220952023
 20
26.40159372159039
 11
20.00284710159458
 21
26.39783132763285
 72
     1
 10
20.00284710159458
 20
26.39783132763285
 11
20.00284710159458
 21
26.43006701346352
 97
        0
 75
     0
 76
     1
 52
0.0
 41
0.2
 77
     0
 78
     2
 53
45.0
 43
0.0
 44
0.0
 45
-0.0530330085889911
 46
0.0530330085889911
 79
     0
 53
45.0
 43
0.035355339
 44
0.0
 45
-0.0530330085889911
 46
0.0530330085889911
 79
     0
 98
        1
 10
0.0
 20
0.0
  0
HATCH
  5
79
330
4B
100
AcDbEntity
  8
BLOCKS
 62
    16
100
AcDbHatch
 10
0.0
 20
0.0
 30
0.0
210
0.0
220
0.0
230
1.0
  2
ANSI32
 70
     0
 71
     0
 91
        1
 92
        0
 93
        4
 72
     1
 10
20.07973897339712
 20
26.42559183368408
 11
20.00284710159458
 21
26.43006701346352
 72
     1
 10
20.00284710159458
 20
26.43006701346352
 11
20.00284710159458
 21
26.39783132763285
 72
     1
 10
20.00284710159458
 20
26.39783132763285
 11
20.07973897339712
 21
26.39335614785342
 72
     1
 10
20.07973897339712
 20
26.39335614785342
 11
20.07973897339712
 21
26.42559183368408
 97
        0
 75
     0
 76
     1
 52
0.0
 41
0.2
 77
     0
 78
     2
 53
45.0
 43
0.0
 44
0.0
 45
-0.0530330085889911
 46
0.0530330085889911
 79
     0
 53
45.0
 43
0.035355339
 44
0.0
 45
-0.0530330085889911
 46
0.0530330085889911
 79
     0
 98
        1
 10
0.0
 20
0.0
  0
HATCH
  5
7A
330
4B
100
AcDbEntity
  8
BLOCKS
 62
    16
100
AcDbHatch
 10
0.0
 20
0.0
 30
0.0
210
0.0
220
0.0
230
1.0
  2
ANSI32
 70
     0
 71
     0
 91
        1
 92
        0
 93
        4
 72
     1
 10
20.07973897339712
 20
26.39335614785342
 11
20.15061820105523
 21
26.38923090965904
 72
     1
 10
20.15061820105523
 20
26.38923090965904
 11
20.15248801479373
 21
26.42135777055884
 72
     1
 10
20.15248801479373
 20
26.42135777055884
 11
20.07973897339712
 21
26.42559183368408
 72
     1
 10
20.07973897339712
 20
26.42559183368408
 11
20.07973897339712
 21
26.39335614785342
 97
        0
 75
     0
 76
     1
 52
0.0
 41
0.2
 77
     0
 78
     2
 53
45.0
 43
0.0
 44
0.0
 45
-0.0530330085889911
 46
0.0530330085889911
 79
     0
 53
45.0
 43
0.035355339
 44
0.0
 45
-0.0530330085889911
 46
0.0530330085889911
 79
     0
 98
        1
 10
0.0
 20
0.0
  0
HATCH
  5
7B
330
4B
100
AcDbEntity
  8
BLOCKS
 62
    16
100
AcDbHatch
 10
0.0
 20
0.0
 30
0.0
210
0.0
220
0.0
230
1.0
  2
ANSI32
 70
     0
 71
     0
 91
        1
 92
        0
 93
        4
 72
     1
 10
20.00284710159458
 20
26.38969551511265
 11
19.95807548170848
 21
26.38969551511265
 72
     2
 10
20.04035770827806
 20
26.42125149432493
 40
0.0881257319589163
 50
200.9822712637957
 51
339.0177287362059
 73
     1
 72
     1
 10
20.12263993484765
 20
26.38969551511265
 11
20.07973897339712
 21
26.38969551511265
 72
     1
 10
20.07973897339712
 20
26.38969551511265
 11
20.00284710159458
 21
26.38969551511265
 97
        0
 75
     0
 76
     1
 52
0.0
 41
0.2
 77
     0
 78
     2
 53
45.0
 43
0.0
 44
0.0
 45
-0.0530330085889911
 46
0.0530330085889911
 79
     0
 53
45.0
 43
0.035355339
 44
0.0
 45
-0.0530330085889911
 46
0.0530330085889911
 79
     0
 98
        1
 10
0.0
 20
0.0
  0
HATCH
  5
7C
330
4B
100
AcDbEntity
  8
BLOCKS
100
AcDbHatch
 10
0.0
 20
0.0
 30
0.0
210
0.0
220
0.0
230
1.0
  2
SOLID
 70
     1
 71
     0
 91
        1
 92
        0
 93
        5
 72
     2
 10
21.32496680656287
 20
26.30019278664964
 40
0.3686452378780171
 50
189.3138478564999
 51
230.5481283977412
 73
     0
 72
     1
 10
21.0907186249667
 20
26.58484538338648
 11
20.23689444261453
 21
26.58484538338649
 72
     1
 10
20.23689444261453
 20
26.58484538338649
 11
20.29061176430621
 21
26.54808939823214
 72
     1
 10
20.29061176430621
 20
26.54808939823214
 11
20.7316186249667
 21
26.54808939823214
 72
     2
 10
20.7316186249667
 20
26.31398939823214
 40
0.2341000000000018
 50
270.0000000000008
 51
348.7012977589557
 73
     0
 97
        0
 75
     0
 76
     1
 98
        1
 10
0.0
 20
0.0
  0
INSERT
  5
93
330
4B
100
AcDbEntity
  8
BLOCKS
100
AcDbBlockReference
  2
SW_BLOCK_DIMENSION_0
 10
20.4702191535
 20
26.145611376
 30
0.0
  0
ENDBLK
  5
4D
330
4B
100
AcDbEntity
  8
0
100
AcDbBlockEnd
  0
BLOCK
  5
7E
330
7D
100
AcDbEntity
  8
0
100
AcDbBlockBegin
  2
SW_BLOCK_DIMENSION_0
 70
     0
 10
0.0
 20
0.0
 30
0.0
  3
SW_BLOCK_DIMENSION_0
  1

  0
SOLID
  5
80
330
7D
100
AcDbEntity
  8
BLOCKS
 62
     0
100
AcDbTrace
 10
0.4954994714
 20
-0.0313006311
 30
0.0
 11
0.3943845626
 21
-0.0157444913
 31
0.0
 12
0.3943845626
 22
-0.0468567709
 32
0.0
 13
0.3943845626
 23
-0.0468567709
 33
0.0
  0
SOLID
  5
81
330
7D
100
AcDbEntity
  8
BLOCKS
 62
     0
100
AcDbTrace
 10
0.6204994714
 20
-0.0313006311
 30
0.0
 11
0.7216143803
 21
-0.0468567709
 31
0.0
 12
0.7216143803
 22
-0.0157444913
 32
0.0
 13
0.7216143803
 23
-0.0157444913
 33
0.0
  0
LINE
  5
82
330
7D
100
AcDbEntity
  8
BLOCKS
 62
     0
100
AcDbLine
 10
0.1187307217
 20
0.0798201425
 30
0.0
 11
0.2254051061
 21
0.0798201425
 31
0.0
  0
LINE
  5
83
330
7D
100
AcDbEntity
  8
BLOCKS
 62
     0
100
AcDbLine
 10
0.079089508
 20
-0.0940224566
 30
0.0
 11
0.0559413594
 21
-0.0940224566
 31
0.0
  0
LINE
  5
84
330
7D
100
AcDbEntity
  8
BLOCKS
 62
     0
100
AcDbLine
 10
0.0559413594
 20
-0.0940224566
 30
0.0
 11
0.0559413594
 21
-0.249307956
 31
0.0
  0
LINE
  5
85
330
7D
100
AcDbEntity
  8
BLOCKS
 62
     0
100
AcDbLine
 10
0.0559413594
 20
-0.249307956
 30
0.0
 11
0.079089508
 21
-0.249307956
 31
0.0
  0
LINE
  5
86
330
7D
100
AcDbEntity
  8
BLOCKS
 62
     0
100
AcDbLine
 10
0.4070216247
 20
-0.0940224566
 30
0.0
 11
0.4301697734
 21
-0.0940224566
 31
0.0
  0
LINE
  5
87
330
7D
100
AcDbEntity
  8
BLOCKS
 62
     0
100
AcDbLine
 10
0.4301697734
 20
-0.0940224566
 30
0.0
 11
0.4301697734
 21
-0.249307956
 31
0.0
  0
LINE
  5
88
330
7D
100
AcDbEntity
  8
BLOCKS
 62
     0
100
AcDbLine
 10
0.4301697734
 20
-0.249307956
 30
0.0
 11
0.4070216247
 21
-0.249307956
 31
0.0
  0
LINE
  5
89
330
7D
100
AcDbEntity
  8
BLOCKS
 62
     0
100
AcDbLine
 10
0.6204994714
 20
0.3892340074
 30
0.0
 11
0.6204994714
 21
-0.1563006311
 31
0.0
  0
LINE
  5
8A
330
7D
100
AcDbEntity
  8
BLOCKS
 62
     0
100
AcDbLine
 10
0.4954994714
 20
-0.0313006311
 30
0.0
 11
0.4865609792
 21
-0.0313006311
 31
0.0
  0
LINE
  5
8B
330
7D
100
AcDbEntity
  8
BLOCKS
 62
     0
100
AcDbLine
 10
0.6204994714
 20
-0.0313006311
 30
0.0
 11
0.8149512192
 21
-0.0313006311
 31
0.0
  0
MTEXT
  5
8D
330
7D
100
AcDbEntity
  8
BLOCKS
 62
     0
100
AcDbMText
 10
0.0390625
 20
0.1342778896
 30
0.0039370079
 40
0.1041666667
 41
0.0
 71
     1
 72
     1
  1

  7
SLDTEXTSTYLE0
 73
     1
 44
1.0
  0
MTEXT
  5
8E
330
7D
100
AcDbEntity
  8
BLOCKS
 62
     0
100
AcDbMText
 10
0.1334876654
 20
0.2052438631
 30
0.0039370079
 40
0.1041666667
 41
0.0
 71
     1
 72
     1
  1
1
  7
SLDTEXTSTYLE0
 73
     1
 44
1.0
  0
MTEXT
  5
8F
330
7D
100
AcDbEntity
  8
BLOCKS
 62
     0
100
AcDbMText
 10
0.1334876654
 20
0.0634035871
 30
0.0039370079
 40
0.1041666667
 41
0.0
 71
     1
 72
     1
  1
8
  7
SLDTEXTSTYLE0
 73
     1
 44
1.0
  0
MTEXT
  5
90
330
7D
100
AcDbEntity
  8
BLOCKS
 62
     0
100
AcDbMText
 10
0.2401620498
 20
0.1342778896
 30
0.0039370079
 40
0.1041666667
 41
0.0
 71
     1
 72
     1
  1
"
  7
SLDTEXTSTYLE0
 73
     1
 44
1.0
  0
MTEXT
  5
91
330
7D
100
AcDbEntity
  8
BLOCKS
 62
     0
100
AcDbMText
 10
0.1080246921
 20
-0.1150300596
 30
0.0039370079
 40
0.1041666667
 41
0.0
 71
     1
 72
     1
  1
3.18
  7
SLDTEXTSTYLE0
 73
     1
 44
1.0
  0
MTEXT
  5
92
330
7D
100
AcDbEntity
  8
BLOCKS
 62
     0
100
AcDbMText
 10
0.4865933934
 20
0.1342778896
 30
0.0039370079
 40
0.1041666667
 41
0.0
 71
     1
 72
     1
  1

  7
SLDTEXTSTYLE0
 73
     1
 44
1.0
  0
ENDBLK
  5
7F
330
7D
100
AcDbEntity
  8
0
100
AcDbBlockEnd
  0
BLOCK
  5
95
330
94
100
AcDbEntity
  8
0
100
AcDbBlockBegin
  2
REVEAL- .500
 70
     0
 10
0.0
 20
0.0
 30
0.0
  3
REVEAL- .500
  1

  0
ARC
  5
97
330
94
100
AcDbEntity
  8
BLOCKS
100
AcDbCircle
 10
20.1601934329
 20
28.8878838846
 30
0.0
 40
0.2338576391325233
100
AcDbArc
 50
0.0
 51
90.0
  0
ARC
  5
98
330
94
100
AcDbEntity
  8
BLOCKS
100
AcDbCircle
 10
19.8280715192
 20
29.4726468145
 30
0.0
 40
0.0659795528056719
100
AcDbArc
 50
0.0
 51
90.0
  0
ARC
  5
99
330
94
100
AcDbEntity
  8
BLOCKS
100
AcDbCircle
 10
19.0470381676
 20
28.990848696
 30
0.0
 40
0.0881257319589152
100
AcDbArc
 50
200.9822712638
 51
339.0177287362
  0
ARC
  5
9A
330
94
100
AcDbEntity
  8
BLOCKS
100
AcDbCircle
 10
20.1601934329
 20
28.8878838846
 30
0.0
 40
0.1878262552218324
100
AcDbArc
 50
0.0
 51
90.0
  0
LINE
  5
9B
330
94
100
AcDbEntity
  8
BLOCKS
100
AcDbLine
 10
19.8280715192
 20
29.5386263673
 30
0.0
 11
18.2509355515
 21
29.5386263673
 31
0.0
  0
LINE
  5
9C
330
94
100
AcDbEntity
  8
BLOCKS
100
AcDbLine
 10
18.2806192052
 20
29.1434426864
 30
0.0
 11
19.894051072
 21
29.1434426864
 31
0.0
  0
LINE
  5
9D
330
94
100
AcDbEntity
  8
BLOCKS
100
AcDbLine
 10
19.3470309437
 20
29.1217415238
 30
0.0
 11
20.1601934329
 21
29.1217415238
 31
0.0
  0
LINE
  5
9E
330
94
100
AcDbEntity
  8
BLOCKS
100
AcDbLine
 10
20.394051072
 20
28.8878838846
 30
0.0
 11
20.394051072
 21
28.4971795949
 31
0.0
  0
LINE
  5
9F
330
94
100
AcDbEntity
  8
BLOCKS
100
AcDbLine
 10
20.394051072
 20
28.4971795949
 30
0.0
 11
20.3480196881
 21
28.4971795949
 31
0.0
  0
LINE
  5
A0
330
94
100
AcDbEntity
  8
BLOCKS
100
AcDbLine
 10
20.3480196881
 20
28.4971795949
 30
0.0
 11
20.3480196881
 21
28.8878838846
 31
0.0
  0
LINE
  5
A1
330
94
100
AcDbEntity
  8
BLOCKS
100
AcDbLine
 10
20.1601934329
 20
29.0757101398
 30
0.0
 11
19.3470309437
 21
29.0757101398
 31
0.0
  0
LINE
  5
A2
330
94
100
AcDbEntity
  8
BLOCKS
100
AcDbLine
 10
19.3470309437
 20
29.0757101398
 30
0.0
 11
19.3470309437
 21
29.1217415238
 31
0.0
  0
LINE
  5
A3
330
94
100
AcDbEntity
  8
BLOCKS
100
AcDbLine
 10
19.679261078
 20
29.0223488565
 30
0.0
 11
19.7319208682
 21
29.073015856
 31
0.0
  0
LINE
  5
A4
330
94
100
AcDbEntity
  8
BLOCKS
100
AcDbLine
 10
19.7319208682
 20
29.073015856
 30
0.0
 11
19.7745573648
 21
29.0287024176
 31
0.0
  0
LINE
  5
A5
330
94
100
AcDbEntity
  8
BLOCKS
100
AcDbLine
 10
19.7745573648
 20
29.0287024176
 30
0.0
 11
19.705650009
 21
28.9624027047
 31
0.0
  0
LINE
  5
A6
330
94
100
AcDbEntity
  8
BLOCKS
100
AcDbLine
 10
18.4381035755
 20
29.0888229672
 30
0.0
 11
18.385550816
 21
29.1434426864
 31
0.0
  0
LINE
  5
A7
330
94
100
AcDbEntity
  8
BLOCKS
100
AcDbLine
 10
18.385550816
 20
29.1434426864
 30
0.0
 11
18.3431444562
 21
29.1026410993
 31
0.0
  0
LINE
  5
A8
330
94
100
AcDbEntity
  8
BLOCKS
100
AcDbLine
 10
18.3431444562
 20
29.1026410993
 30
0.0
 11
18.4052557657
 21
29.0380868815
 31
0.0
  0
LINE
  5
A9
330
94
100
AcDbEntity
  8
BLOCKS
100
AcDbLine
 10
18.4381035755
 20
29.0888229672
 30
0.0
 11
19.679261078
 21
29.0223488565
 31
0.0
  0
LINE
  5
AA
330
94
100
AcDbEntity
  8
BLOCKS
100
AcDbLine
 10
19.705650009
 20
28.9624027047
 30
0.0
 11
18.4052557657
 21
29.0380868815
 31
0.0
  0
LINE
  5
AB
330
94
100
AcDbEntity
  8
BLOCKS
100
AcDbLine
 10
19.1283677378
 20
29.0518536895
 30
0.0
 11
19.1283677378
 21
28.9960010797
 31
0.0
  0
LINE
  5
AC
330
94
100
AcDbEntity
  8
BLOCKS
100
AcDbLine
 10
18.9737480593
 20
29.0601348348
 30
0.0
 11
18.9737480593
 21
29.0050000915
 31
0.0
  0
LINE
  5
AD
330
94
100
AcDbEntity
  8
BLOCKS
100
AcDbLine
 10
18.964755941
 20
28.9592927168
 30
0.0
 11
19.1293203942
 21
28.9592927168
 31
0.0
  0
LINE
  5
AE
330
94
100
AcDbEntity
  8
BLOCKS
100
AcDbLine
 10
19.0095275609
 20
29.3495924534
 30
0.0
 11
19.0095275609
 21
28.9592927168
 31
0.0
  0
LINE
  5
AF
330
94
100
AcDbEntity
  8
BLOCKS
100
AcDbLine
 10
19.0864194327
 20
29.3495924534
 30
0.0
 11
19.0864194327
 21
28.9592927168
 31
0.0
  0
LINE
  5
B0
330
94
100
AcDbEntity
  8
BLOCKS
100
AcDbLine
 10
18.9467524826
 20
29.0033177842
 30
0.0
 11
19.1591684741
 21
28.9909549723
 31
0.0
  0
LINE
  5
B1
330
94
100
AcDbEntity
  8
BLOCKS
100
AcDbLine
 10
19.0095275609
 20
29.3495924534
 30
0.0
 11
19.0474925407
 21
29.4047818344
 31
0.0
  0
LINE
  5
B2
330
94
100
AcDbEntity
  8
BLOCKS
100
AcDbLine
 10
19.0474925407
 20
29.4047818344
 30
0.0
 11
19.0864194327
 21
29.3495924534
 31
0.0
  0
LINE
  5
B3
330
94
100
AcDbEntity
  8
BLOCKS
100
AcDbLine
 10
19.1572986604
 20
28.9588281114
 30
0.0
 11
18.9448826689
 21
28.9711909233
 31
0.0
  0
LINE
  5
B4
330
94
100
AcDbEntity
  8
BLOCKS
100
AcDbLine
 10
19.1591684741
 20
28.9909549723
 30
0.0
 11
19.1572986604
 21
28.9588281114
 31
0.0
  0
LINE
  5
B5
330
94
100
AcDbEntity
  8
BLOCKS
100
AcDbLine
 10
18.9467524826
 20
29.0033177842
 30
0.0
 11
18.9448826689
 21
28.9711909233
 31
0.0
  0
LINE
  5
B6
330
94
100
AcDbEntity
  8
BLOCKS
100
AcDbLine
 10
19.1142839592
 20
29.1434426864
 30
0.0
 11
19.1142839592
 21
29.4238049236
 31
0.0
  0
LINE
  5
B7
330
94
100
AcDbEntity
  8
BLOCKS
100
AcDbLine
 10
19.1142839592
 20
29.4238049236
 30
0.0
 11
18.9877469673
 21
29.4238049236
 31
0.0
  0
LINE
  5
B8
330
94
100
AcDbEntity
  8
BLOCKS
100
AcDbLine
 10
18.9877469673
 20
29.4238049236
 30
0.0
 11
18.9877469673
 21
29.1434426864
 31
0.0
  0
LINE
  5
B9
330
94
100
AcDbEntity
  8
BLOCKS
  6
Continuous
100
AcDbLine
 10
19.894051072
 20
29.1434426864
 30
0.0
 11
19.894051072
 21
29.4726468145
 31
0.0
  0
LINE
  5
BA
330
94
100
AcDbEntity
  8
BLOCKS
100
AcDbLine
 10
19.3020232313
 20
29.1434426864
 30
0.0
 11
19.3470309437
 21
29.0987258318
 31
0.0
  0
LINE
  5
BB
330
94
100
AcDbEntity
  8
BLOCKS
100
AcDbLine
 10
19.894051072
 20
29.1434426864
 30
0.0
 11
19.9068063572
 21
29.1217415238
 31
0.0
  0
SPLINE
  5
BC
330
94
100
AcDbEntity
  8
BLOCKS
100
AcDbSpline
210
0.0
220
0.0
230
1.0
 70
     8
 71
     3
 72
     9
 73
     5
 74
     0
 42
0.00000001
 43
0.00000001
 12
1.0
 22
0.0
 32
0.0
 13
1.0
 23
0.0
 33
0.0
 40
0.0
 40
0.0
 40
0.0
 40
0.0
 40
0.5928291688347104
 40
1.0
 40
1.0
 40
1.0
 40
1.0
 10
18.28061920517429
 20
29.14344268635683
 30
0.0
 10
18.23604355296101
 20
29.22927712752978
 30
0.0
 10
18.31552651528452
 20
29.34850064146643
 30
0.0
 10
18.29741369383499
 20
29.50274888669875
 30
0.0
 10
18.25093555152442
 20
29.53862636728042
 30
0.0
  0
HATCH
  5
BD
330
94
100
AcDbEntity
  8
BLOCKS
 62
    16
100
AcDbHatch
 10
0.0
 20
0.0
 30
0.0
210
0.0
220
0.0
230
1.0
  2
ANSI36
 70
     0
 71
     0
 91
        1
 92
        0
 93
       10
 72
     4
 94
        3
 73
     1
 74
     0
 95
        9
 96
        5
 40
0.0
 40
0.0
 40
0.0
 40
0.0
 40
0.4071708311652896
 40
1.0
 40
1.0
 40
1.0
 40
1.0
 10
18.25093555152442
 20
29.53862636728042
 42
1.0
 10
18.29741369383499
 20
29.50274888669875
 42
1.0
 10
18.31552651528452
 20
29.34850064146643
 42
1.0
 10
18.23604355296101
 20
29.22927712752978
 42
1.0
 10
18.28061920517429
 20
29.14344268635683
 42
1.0
 72
     1
 10
18.28061920517429
 20
29.14344268635683
 11
18.98774696730679
 21
29.14344268635683
 72
     1
 10
18.98774696730679
 20
29.14344268635683
 11
18.98774696730679
 21
29.42380492355081
 72
     1
 10
18.98774696730679
 20
29.42380492355081
 11
19.11428395924128
 21
29.42380492355081
 72
     1
 10
19.11428395924128
 20
29.42380492355081
 11
19.11428395924128
 21
29.14344268635683
 72
     1
 10
19.11428395924128
 20
29.14344268635683
 11
19.30202323130653
 21
29.14344268635683
 72
     1
 10
19.30202323130653
 20
29.14344268635683
 11
19.89405107202551
 21
29.14344268635683
 72
     1
 10
19.89405107202551
 20
29.14344268635683
 11
19.89405107202551
 21
29.47264681447475
 72
     2
 10
19.82807151921984
 20
29.47264681447475
 40
0.0659795528056717
 50
0.0
 51
90.0
 73
     1
 72
     1
 10
19.82807151921984
 20
29.53862636728042
 11
18.25093555152442
 21
29.53862636728042
 97
        0
 75
     0
 76
     1
 52
0.0
 41
0.5
 77
     0
 78
     1
 53
45.0
 43
0.0
 44
0.0
 45
0.0331456303681194
 46
0.1215339780164378
 79
     4
 49
0.15625
 49
-0.03125
 49
0.0
 49
-0.03125
 98
        1
 10
0.0
 20
0.0
  0
HATCH
  5
BE
330
94
100
AcDbEntity
  8
BLOCKS
 62
    16
100
AcDbHatch
 10
0.0
 20
0.0
 30
0.0
210
0.0
220
0.0
230
1.0
  2
ANSI32
 70
     0
 71
     0
 91
        1
 92
        0
 93
        5
 72
     1
 10
19.08641943273533
 20
29.34959245337754
 11
19.04749254074577
 21
29.40478183438993
 72
     1
 10
19.04749254074577
 20
29.40478183438993
 11
19.00952756093279
 21
29.34959245337754
 72
     1
 10
19.00952756093279
 20
29.34959245337754
 11
19.00952756093279
 21
29.14344268635683
 72
     1
 10
19.00952756093279
 20
29.14344268635683
 11
19.08641943273533
 21
29.14344268635683
 72
     1
 10
19.08641943273533
 20
29.14344268635683
 11
19.08641943273533
 21
29.34959245337754
 97
        0
 75
     0
 76
     1
 52
0.0
 41
0.1666666667
 77
     0
 78
     2
 53
45.0
 43
0.0
 44
0.0
 45
-0.0441941738241592
 46
0.0441941738241592
 79
     0
 53
45.0
 43
0.0294627825
 44
0.0
 45
-0.0441941738241592
 46
0.0441941738241592
 79
     0
 98
        1
 10
0.0
 20
0.0
  0
HATCH
  5
BF
330
94
100
AcDbEntity
  8
BLOCKS
 62
    16
100
AcDbHatch
 10
0.0
 20
0.0
 30
0.0
210
0.0
220
0.0
230
1.0
  2
ANSI32
 70
     0
 71
     0
 91
        1
 92
        0
 93
        4
 72
     1
 10
19.08641943273533
 20
29.05410036351303
 11
19.08641943273533
 21
29.14344268635683
 72
     1
 10
19.08641943273533
 20
29.14344268635683
 11
19.00952756093279
 21
29.14344268635683
 72
     1
 10
19.00952756093279
 20
29.14344268635683
 11
19.00952756093279
 21
29.05821855059726
 72
     1
 10
19.00952756093279
 20
29.05821855059726
 11
19.08641943273533
 21
29.05410036351303
 97
        0
 75
     0
 76
     1
 52
0.0
 41
0.1666666667
 77
     0
 78
     2
 53
45.0
 43
0.0
 44
0.0
 45
-0.0441941738241592
 46
0.0441941738241592
 79
     0
 53
45.0
 43
0.0294627825
 44
0.0
 45
-0.0441941738241592
 46
0.0441941738241592
 79
     0
 98
        1
 10
0.0
 20
0.0
  0
HATCH
  5
C0
330
94
100
AcDbEntity
  8
BLOCKS
 62
    16
100
AcDbHatch
 10
0.0
 20
0.0
 30
0.0
210
0.0
220
0.0
230
1.0
  2
ANSI32
 70
     0
 71
     0
 91
        1
 92
        0
 93
        4
 72
     1
 10
19.08641943273533
 20
28.99844251081363
 11
19.08641943273533
 21
29.05410036351303
 72
     1
 10
19.08641943273533
 20
29.05410036351303
 11
19.00952756093279
 21
29.05821855059726
 72
     1
 10
19.00952756093279
 20
29.05821855059726
 11
19.00952756093279
 21
29.00291769059305
 72
     1
 10
19.00952756093279
 20
29.00291769059305
 11
19.08641943273533
 21
28.99844251081363
 97
        0
 75
     0
 76
     1
 52
0.0
 41
0.1666666667
 77
     0
 78
     2
 53
45.0
 43
0.0
 44
0.0
 45
-0.0441941738241592
 46
0.0441941738241592
 79
     0
 53
45.0
 43
0.0294627825
 44
0.0
 45
-0.0441941738241592
 46
0.0441941738241592
 79
     0
 98
        1
 10
0.0
 20
0.0
  0
HATCH
  5
C1
330
94
100
AcDbEntity
  8
BLOCKS
 62
    16
100
AcDbHatch
 10
0.0
 20
0.0
 30
0.0
210
0.0
220
0.0
230
1.0
  2
ANSI32
 70
     0
 71
     0
 91
        1
 92
        0
 93
        4
 72
     1
 10
19.00952756093279
 20
28.96742852935006
 11
19.08641943273534
 21
28.96295334957064
 72
     1
 10
19.08641943273534
 20
28.96295334957064
 11
19.08641943273534
 21
28.99518903540131
 72
     1
 10
19.08641943273534
 20
28.99518903540131
 11
19.0095275609328
 21
28.99966421518074
 72
     1
 10
19.0095275609328
 20
28.99966421518074
 11
19.00952756093279
 21
28.96742852935006
 97
        0
 75
     0
 76
     1
 52
0.0
 41
0.1666666667
 77
     0
 78
     2
 53
45.0
 43
0.0
 44
0.0
 45
-0.0441941738241592
 46
0.0441941738241592
 79
     0
 53
45.0
 43
0.0294627825
 44
0.0
 45
-0.0441941738241592
 46
0.0441941738241592
 79
     0
 98
        1
 10
0.0
 20
0.0
  0
HATCH
  5
C2
330
94
100
AcDbEntity
  8
BLOCKS
 62
    16
100
AcDbHatch
 10
0.0
 20
0.0
 30
0.0
210
0.0
220
0.0
230
1.0
  2
ANSI32
 70
     0
 71
     0
 91
        1
 92
        0
 93
        4
 72
     1
 10
19.0095275609328
 20
28.99966421518074
 11
18.94675248259694
 21
29.00331778420741
 72
     1
 10
18.94675248259694
 20
29.00331778420741
 11
18.94488266885844
 21
28.97119092330762
 72
     1
 10
18.94488266885844
 20
28.97119092330762
 11
19.00952756093279
 21
28.96742852935006
 72
     1
 10
19.00952756093279
 20
28.96742852935006
 11
19.0095275609328
 21
28.99966421518074
 97
        0
 75
     0
 76
     1
 52
0.0
 41
0.1666666667
 77
     0
 78
     2
 53
45.0
 43
0.0
 44
0.0
 45
-0.0441941738241592
 46
0.0441941738241592
 79
     0
 53
45.0
 43
0.0294627825
 44
0.0
 45
-0.0441941738241592
 46
0.0441941738241592
 79
     0
 98
        1
 10
0.0
 20
0.0
  0
HATCH
  5
C3
330
94
100
AcDbEntity
  8
BLOCKS
 62
    16
100
AcDbHatch
 10
0.0
 20
0.0
 30
0.0
210
0.0
220
0.0
230
1.0
  2
ANSI32
 70
     0
 71
     0
 91
        1
 92
        0
 93
        4
 72
     1
 10
19.15729866039344
 20
28.95882811137627
 11
19.15916847413194
 21
28.99095497227606
 72
     1
 10
19.15916847413194
 20
28.99095497227606
 11
19.08641943273534
 21
28.99518903540131
 72
     1
 10
19.08641943273534
 20
28.99518903540131
 11
19.08641943273534
 21
28.96295334957064
 72
     1
 10
19.08641943273534
 20
28.96295334957064
 11
19.15729866039344
 21
28.95882811137627
 97
        0
 75
     0
 76
     1
 52
0.0
 41
0.1666666667
 77
     0
 78
     2
 53
45.0
 43
0.0
 44
0.0
 45
-0.0441941738241592
 46
0.0441941738241592
 79
     0
 53
45.0
 43
0.0294627825
 44
0.0
 45
-0.0441941738241592
 46
0.0441941738241592
 79
     0
 98
        1
 10
0.0
 20
0.0
  0
HATCH
  5
C4
330
94
100
AcDbEntity
  8
BLOCKS
 62
    16
100
AcDbHatch
 10
0.0
 20
0.0
 30
0.0
210
0.0
220
0.0
230
1.0
  2
ANSI32
 70
     0
 71
     0
 91
        1
 92
        0
 93
        4
 72
     1
 10
19.00952756093279
 20
28.95929271682988
 11
18.96475594104669
 21
28.95929271682988
 72
     2
 10
19.04703816761627
 20
28.99084869604216
 40
0.0881257319589163
 50
200.9822712637957
 51
339.0177287362059
 73
     1
 72
     1
 10
19.12932039418586
 20
28.95929271682988
 11
19.08641943273533
 21
28.95929271682988
 72
     1
 10
19.08641943273533
 20
28.95929271682988
 11
19.00952756093279
 21
28.95929271682988
 97
        0
 75
     0
 76
     1
 52
0.0
 41
0.1666666667
 77
     0
 78
     2
 53
45.0
 43
0.0
 44
0.0
 45
-0.0441941738241592
 46
0.0441941738241592
 79
     0
 53
45.0
 43
0.0294627825
 44
0.0
 45
-0.0441941738241592
 46
0.0441941738241592
 79
     0
 98
        1
 10
0.0
 20
0.0
  0
HATCH
  5
C5
330
94
100
AcDbEntity
  8
BLOCKS
 62
    16
100
AcDbHatch
 10
0.0
 20
0.0
 30
0.0
210
0.0
220
0.0
230
1.0
  2
SOLID
 70
     1
 71
     0
 91
        1
 92
        0
 93
        5
 72
     1
 10
19.90680635715495
 20
29.12174152375217
 11
19.89405107202551
 21
29.14344268635683
 72
     1
 10
19.89405107202551
 20
29.14344268635683
 11
19.30202323130653
 21
29.14344268635683
 72
     1
 10
19.30202323130653
 20
29.14344268635683
 11
19.34703094371573
 21
29.09872583179682
 72
     1
 10
19.34703094371573
 20
29.09872583179682
 11
19.34703094371572
 21
29.12174152375217
 72
     1
 10
19.34703094371572
 20
29.12174152375217
 11
19.90680635715495
 21
29.12174152375217
 97
        0
 75
     0
 76
     1
 98
        1
 10
0.0
 20
0.0
  0
INSERT
  5
DC
330
94
100
AcDbEntity
  8
BLOCKS
100
AcDbBlockReference
  2
SW_BLOCK_DIMENSION_1
 10
19.9222044055
 20
29.6493704876
 30
0.0
  0
ENDBLK
  5
96
330
94
100
AcDbEntity
  8
0
100
AcDbBlockEnd
  0
BLOCK
  5
C7
330
C6
100
AcDbEntity
  8
0
100
AcDbBlockBegin
  2
SW_BLOCK_DIMENSION_1
 70
     0
 10
0.0
 20
0.0
 30
0.0
  3
SW_BLOCK_DIMENSION_1
  1

  0
SOLID
  5
C9
330
C6
100
AcDbEntity
  8
BLOCKS
 62
     0
100
AcDbTrace
 10
0.4718466665
 20
-0.0313006311
 30
0.0
 11
0.5729615754
 21
-0.0468567709
 31
0.0
 12
0.5729615754
 22
-0.0157444913
 32
0.0
 13
0.5729615754
 23
-0.0157444913
 33
0.0
  0
SOLID
  5
CA
330
C6
100
AcDbEntity
  8
BLOCKS
 62
     0
100
AcDbTrace
 10
-0.0281533335
 20
-0.0313006311
 30
0.0
 11
-0.1292682423
 21
-0.0157444913
 31
0.0
 12
-0.1292682423
 22
-0.0468567709
 32
0.0
 13
-0.1292682423
 23
-0.0468567709
 33
0.0
  0
LINE
  5
CB
330
C6
100
AcDbEntity
  8
BLOCKS
 62
     0
100
AcDbLine
 10
0.1573109794
 20
0.0798201425
 30
0.0
 11
0.2639853638
 21
0.0798201425
 31
0.0
  0
LINE
  5
CC
330
C6
100
AcDbEntity
  8
BLOCKS
 62
     0
100
AcDbLine
 10
0.079089508
 20
-0.0940224566
 30
0.0
 11
0.0559413594
 21
-0.0940224566
 31
0.0
  0
LINE
  5
CD
330
C6
100
AcDbEntity
  8
BLOCKS
 62
     0
100
AcDbLine
 10
0.0559413594
 20
-0.0940224566
 30
0.0
 11
0.0559413594
 21
-0.249307956
 31
0.0
  0
LINE
  5
CE
330
C6
100
AcDbEntity
  8
BLOCKS
 62
     0
100
AcDbLine
 10
0.0559413594
 20
-0.249307956
 30
0.0
 11
0.079089508
 21
-0.249307956
 31
0.0
  0
LINE
  5
CF
330
C6
100
AcDbEntity
  8
BLOCKS
 62
     0
100
AcDbLine
 10
0.4841821217
 20
-0.0940224566
 30
0.0
 11
0.5073302703
 21
-0.0940224566
 31
0.0
  0
LINE
  5
D0
330
C6
100
AcDbEntity
  8
BLOCKS
 62
     0
100
AcDbLine
 10
0.5073302703
 20
-0.0940224566
 30
0.0
 11
0.5073302703
 21
-0.249307956
 31
0.0
  0
LINE
  5
D1
330
C6
100
AcDbEntity
  8
BLOCKS
 62
     0
100
AcDbLine
 10
0.5073302703
 20
-0.249307956
 30
0.0
 11
0.4841821217
 21
-0.249307956
 31
0.0
  0
LINE
  5
D2
330
C6
100
AcDbEntity
  8
BLOCKS
 62
     0
100
AcDbLine
 10
0.4718466665
 20
-0.711486603
 30
0.0
 11
0.4718466665
 21
0.0936993689
 31
0.0
  0
LINE
  5
D3
330
C6
100
AcDbEntity
  8
BLOCKS
 62
     0
100
AcDbLine
 10
-0.0281533335
 20
-0.1267236731
 30
0.0
 11
-0.0281533335
 21
0.0936993689
 31
0.0
  0
LINE
  5
D4
330
C6
100
AcDbEntity
  8
BLOCKS
 62
     0
100
AcDbLine
 10
0.4718466665
 20
-0.0313006311
 30
0.0
 11
0.6662984143
 21
-0.0313006311
 31
0.0
  0
LINE
  5
D5
330
C6
100
AcDbEntity
  8
BLOCKS
 62
     0
100
AcDbLine
 10
-0.0281533335
 20
-0.0313006311
 30
0.0
 11
-0.2226050812
 21
-0.0313006311
 31
0.0
  0
MTEXT
  5
D6
330
C6
100
AcDbEntity
  8
BLOCKS
 62
     0
100
AcDbMText
 10
0.0390625
 20
0.1342778896
 30
0.0039370079
 40
0.1041666667
 41
0.0
 71
     1
 72
     1
  1

  7
SLDTEXTSTYLE0
 73
     1
 44
1.0
  0
MTEXT
  5
D7
330
C6
100
AcDbEntity
  8
BLOCKS
 62
     0
100
AcDbMText
 10
0.1720679231
 20
0.2052438631
 30
0.0039370079
 40
0.1041666667
 41
0.0
 71
     1
 72
     1
  1
1
  7
SLDTEXTSTYLE0
 73
     1
 44
1.0
  0
MTEXT
  5
D8
330
C6
100
AcDbEntity
  8
BLOCKS
 62
     0
100
AcDbMText
 10
0.1720679231
 20
0.0634035871
 30
0.0039370079
 40
0.1041666667
 41
0.0
 71
     1
 72
     1
  1
2
  7
SLDTEXTSTYLE0
 73
     1
 44
1.0
  0
MTEXT
  5
D9
330
C6
100
AcDbEntity
  8
BLOCKS
 62
     0
100
AcDbMText
 10
0.2787423074
 20
0.1342778896
 30
0.0039370079
 40
0.1041666667
 41
0.0
 71
     1
 72
     1
  1
"
  7
SLDTEXTSTYLE0
 73
     1
 44
1.0
  0
MTEXT
  5
DA
330
C6
100
AcDbEntity
  8
BLOCKS
 62
     0
100
AcDbMText
 10
0.1080246921
 20
-0.1150300596
 30
0.0039370079
 40
0.1041666667
 41
0.0
 71
     1
 72
     1
  1
12.70
  7
SLDTEXTSTYLE0
 73
     1
 44
1.0
  0
MTEXT
  5
DB
330
C6
100
AcDbEntity
  8
BLOCKS
 62
     0
100
AcDbMText
 10
0.5637539087
 20
0.1342778896
 30
0.0039370079
 40
0.1041666667
 41
0.0
 71
     1
 72
     1
  1

  7
SLDTEXTSTYLE0
 73
     1
 44
1.0
  0
ENDBLK
  5
C8
330
C6
100
AcDbEntity
  8
0
100
AcDbBlockEnd
  0
BLOCK
  5
E2
330
E1
100
AcDbEntity
  8
0
100
AcDbBlockBegin
  2
SW_NOTE_0
 70
     0
 10
0.0
 20
0.0
 30
0.0
  3
SW_NOTE_0
  1

  0
MTEXT
  5
E4
330
E1
100
AcDbEntity
  8
NOTES
 62
     0
100
AcDbMText
 10
-0.892644233
 20
0.6871623145
 30
0.0
 40
0.2083333333
 41
0.0
 71
     2
 72
     1
  1
TEMPLATE
  7
SLDTEXTSTYLE0
 73
     1
 44
1.0
  0
MTEXT
  5
E5
330
E1
100
AcDbEntity
  8
NOTES
 62
     0
100
AcDbMText
 10
-0.8895095628
 20
0.4093845401
 30
0.0
 40
0.2083333333
 41
0.0
 71
     2
 72
     1
  1
CENTERLINE
  7
SLDTEXTSTYLE0
 73
     1
 44
1.0
  0
MTEXT
  5
E6
330
E1
100
AcDbEntity
  8
NOTES
 62
     0
100
AcDbMText
 10
-0.8893890247
 20
-0.1461710087
 30
0.0
 40
0.2083333333
 41
0.0
 71
     2
 72
     1
  1
PLANTILLA
  7
SLDTEXTSTYLE0
 73
     1
 44
1.0
  0
MTEXT
  5
E7
330
E1
100
AcDbEntity
  8
NOTES
 62
     0
100
AcDbMText
 10
-0.8924030902
 20
-0.4239487831
 30
0.0
 40
0.2083333333
 41
0.0
 71
     2
 72
     1
  1
CENTRAL
  7
SLDTEXTSTYLE0
 73
     1
 44
1.0
  0
ENDBLK
  5
E3
330
E1
100
AcDbEntity
  8
0
100
AcDbBlockEnd
  0
BLOCK
  5
FA
330
F9
100
AcDbEntity
  8
0
100
AcDbBlockBegin
  2
_D
 70
     0
 10
0.0
 20
0.0
 30
0.0
  3
_D
  1

  0
SOLID
  5
FC
330
F9
100
AcDbEntity
  8
DIMS
100
AcDbTrace
 10
6.0717788488
 20
6.0209614668
 30
0.0
 11
6.1122248123
 21
6.2838602298
 31
0.0
 12
6.0313328853
 22
6.2838602298
 32
0.0
 13
6.0313328853
 23
6.2838602298
 33
0.0
  0
SOLID
  5
FD
330
F9
100
AcDbEntity
  8
DIMS
100
AcDbTrace
 10
6.0717788488
 20
18.3669129782
 30
0.0
 11
6.0313328853
 21
18.1040142152
 31
0.0
 12
6.1122248123
 22
18.1040142152
 32
0.0
 13
6.1122248123
 23
18.1040142152
 33
0.0
  0
LINE
  5
FE
330
F9
100
AcDbEntity
  8
DIMS
100
AcDbLine
 10
5.9491515596
 20
11.6463517332
 30
0.0
 11
6.2265049406
 21
11.6463517332
 31
0.0
  0
LINE
  5
FF
330
F9
100
AcDbEntity
  8
DIMS
100
AcDbLine
 10
5.4448498178
 20
11.1943610055
 30
0.0
 11
5.3846646318
 21
11.1943610055
 31
0.0
  0
LINE
  5
100
330
F9
100
AcDbEntity
  8
DIMS
100
AcDbLine
 10
5.3846646318
 20
11.1943610055
 30
0.0
 11
5.3846646318
 21
10.7906187362
 31
0.0
  0
LINE
  5
101
330
F9
100
AcDbEntity
  8
DIMS
100
AcDbLine
 10
5.3846646318
 20
10.7906187362
 30
0.0
 11
5.4448498178
 21
10.7906187362
 31
0.0
  0
LINE
  5
102
330
F9
100
AcDbEntity
  8
DIMS
100
AcDbLine
 10
6.6987078431
 20
11.1943610055
 30
0.0
 11
6.7588930291
 21
11.1943610055
 31
0.0
  0
LINE
  5
103
330
F9
100
AcDbEntity
  8
DIMS
100
AcDbLine
 10
6.7588930291
 20
11.1943610055
 30
0.0
 11
6.7588930291
 21
10.7906187362
 31
0.0
  0
LINE
  5
104
330
F9
100
AcDbEntity
  8
DIMS
100
AcDbLine
 10
6.7588930291
 20
10.7906187362
 30
0.0
 11
6.6987078431
 21
10.7906187362
 31
0.0
  0
LINE
  5
105
330
F9
100
AcDbEntity
  8
DIMS
100
AcDbLine
 10
17.0762370267
 20
6.0209614668
 30
0.0
 11
5.9467788488
 21
6.0209614668
 31
0.0
  0
LINE
  5
106
330
F9
100
AcDbEntity
  8
DIMS
100
AcDbLine
 10
17.0762370267
 20
18.3669129782
 30
0.0
 11
5.9467788488
 21
18.3669129782
 31
0.0
  0
LINE
  5
107
330
F9
100
AcDbEntity
  8
DIMS
100
AcDbLine
 10
6.0717788488
 20
6.0209614668
 30
0.0
 11
6.0717788488
 21
10.7304336282
 31
0.0
  0
LINE
  5
108
330
F9
100
AcDbEntity
  8
DIMS
100
AcDbLine
 10
6.0717788488
 20
18.3669129782
 30
0.0
 11
6.0717788488
 21
11.9844420217
 31
0.0
  0
MTEXT
  5
109
330
F9
100
AcDbEntity
  8
DIMS
100
AcDbMText
 10
5.5095489437
 20
11.7879418985
 30
3.9637962653
 40
0.2708333333
 41
0.0
 71
     1
 72
     1
  1
12
  7
SLDTEXTSTYLE0
 73
     1
 44
1.0
  0
MTEXT
  5
10A
330
F9
100
AcDbEntity
  8
DIMS
100
AcDbMText
 10
5.9875196113
 20
11.9724534187
 30
3.9637962653
 40
0.2708333333
 41
0.0
 71
     1
 72
     1
  1
3
  7
SLDTEXTSTYLE0
 73
     1
 44
1.0
  0
MTEXT
  5
10B
330
F9
100
AcDbEntity
  8
DIMS
100
AcDbMText
 10
5.9875196113
 20
11.6036686814
 30
3.9637962653
 40
0.2708333333
 41
0.0
 71
     1
 72
     1
  1
8
  7
SLDTEXTSTYLE0
 73
     1
 44
1.0
  0
MTEXT
  5
10C
330
F9
100
AcDbEntity
  8
DIMS
100
AcDbMText
 10
6.2648729648
 20
11.7879418985
 30
3.9637962653
 40
0.2708333333
 41
0.0
 71
     1
 72
     1
  1
"
  7
SLDTEXTSTYLE0
 73
     1
 44
1.0
  0
MTEXT
  5
10D
330
F9
100
AcDbEntity
  8
DIMS
100
AcDbMText
 10
5.5200813037
 20
11.1397412399
 30
3.9637962653
 40
0.2708333333
 41
0.0
 71
     1
 72
     1
  1
313.59
  7
SLDTEXTSTYLE0
 73
     1
 44
1.0
  0
ENDBLK
  5
FB
330
F9
100
AcDbEntity
  8
0
100
AcDbBlockEnd
  0
BLOCK
  5
110
330
10F
100
AcDbEntity
  8
0
100
AcDbBlockBegin
  2
_D_1
 70
     0
 10
0.0
 20
0.0
 30
0.0
  3
_D_1
  1

  0
SOLID
  5
112
330
10F
100
AcDbEntity
  8
DIMS
100
AcDbTrace
 10
7.6950535259
 20
17.7416369156
 30
0.0
 11
7.6546152604
 21
17.4787369683
 31
0.0
 12
7.7355071874
 22
17.478739337
 32
0.0
 13
7.7355071874
 23
17.478739337
 33
0.0
  0
SOLID
  5
113
330
10F
100
AcDbEntity
  8
DIMS
100
AcDbTrace
 10
7.695378429
 20
6.645685496
 30
0.0
 11
7.7358166945
 21
6.9085854432
 31
0.0
 12
7.6549247674
 22
6.9085830746
 32
0.0
 13
7.6549247674
 23
6.9085830746
 33
0.0
  0
LINE
  5
114
330
10F
100
AcDbEntity
  8
DIMS
100
AcDbLine
 10
7.5725161215
 20
14.9608409838
 30
0.0
 11
7.8498695025
 21
14.9608409838
 31
0.0
  0
LINE
  5
115
330
10F
100
AcDbEntity
  8
DIMS
100
AcDbLine
 10
7.0682143798
 20
14.5088502561
 30
0.0
 11
7.0080291938
 21
14.5088502561
 31
0.0
  0
LINE
  5
116
330
10F
100
AcDbEntity
  8
DIMS
100
AcDbLine
 10
7.0080291938
 20
14.5088502561
 30
0.0
 11
7.0080291938
 21
14.1051079868
 31
0.0
  0
LINE
  5
117
330
10F
100
AcDbEntity
  8
DIMS
100
AcDbLine
 10
7.0080291938
 20
14.1051079868
 30
0.0
 11
7.0682143798
 21
14.1051079868
 31
0.0
  0
LINE
  5
118
330
10F
100
AcDbEntity
  8
DIMS
100
AcDbLine
 10
8.3220724051
 20
14.5088502561
 30
0.0
 11
8.3822575911
 21
14.5088502561
 31
0.0
  0
LINE
  5
119
330
10F
100
AcDbEntity
  8
DIMS
100
AcDbLine
 10
8.3822575911
 20
14.5088502561
 30
0.0
 11
8.3822575911
 21
14.1051079868
 31
0.0
  0
LINE
  5
11A
330
10F
100
AcDbEntity
  8
DIMS
100
AcDbLine
 10
8.3822575911
 20
14.1051079868
 30
0.0
 11
8.3220724051
 21
14.1051079868
 31
0.0
  0
LINE
  5
11B
330
10F
100
AcDbEntity
  8
DIMS
100
AcDbLine
 10
17.0759121236
 20
17.7419115986
 30
0.0
 11
7.570053526
 21
17.7416332554
 31
0.0
  0
LINE
  5
11C
330
10F
100
AcDbEntity
  8
DIMS
100
AcDbLine
 10
17.0762370267
 20
6.645960179
 30
0.0
 11
7.570378429
 21
6.6456818358
 31
0.0
  0
LINE
  5
11D
330
10F
100
AcDbEntity
  8
DIMS
100
AcDbLine
 10
7.6950535259
 20
17.7416369156
 30
0.0
 11
7.6951250513
 21
15.2989312723
 31
0.0
  0
LINE
  5
11E
330
10F
100
AcDbEntity
  8
DIMS
100
AcDbLine
 10
7.695378429
 20
6.645685496
 30
0.0
 11
7.6951617702
 21
14.0449228787
 31
0.0
  0
MTEXT
  5
11F
330
10F
100
AcDbEntity
  8
DIMS
100
AcDbMText
 10
7.1329135057
 20
15.1024311491
 30
3.9637962653
 40
0.2708333333
 41
0.0
 71
     1
 72
     1
  1
11
  7
SLDTEXTSTYLE0
 73
     1
 44
1.0
  0
MTEXT
  5
120
330
10F
100
AcDbEntity
  8
DIMS
100
AcDbMText
 10
7.6108841733
 20
15.2869426693
 30
3.9637962653
 40
0.2708333333
 41
0.0
 71
     1
 72
     1
  1
1
  7
SLDTEXTSTYLE0
 73
     1
 44
1.0
  0
MTEXT
  5
121
330
10F
100
AcDbEntity
  8
DIMS
100
AcDbMText
 10
7.6108841733
 20
14.918157932
 30
3.9637962653
 40
0.2708333333
 41
0.0
 71
     1
 72
     1
  1
8
  7
SLDTEXTSTYLE0
 73
     1
 44
1.0
  0
MTEXT
  5
122
330
10F
100
AcDbEntity
  8
DIMS
100
AcDbMText
 10
7.8882375268
 20
15.1024311491
 30
3.9637962653
 40
0.2708333333
 41
0.0
 71
     1
 72
     1
  1
"
  7
SLDTEXTSTYLE0
 73
     1
 44
1.0
  0
MTEXT
  5
123
330
10F
100
AcDbEntity
  8
DIMS
100
AcDbMText
 10
7.1434458657
 20
14.4542304905
 30
3.9637962653
 40
0.2708333333
 41
0.0
 71
     1
 72
     1
  1
281.84
  7
SLDTEXTSTYLE0
 73
     1
 44
1.0
  0
ENDBLK
  5
111
330
10F
100
AcDbEntity
  8
0
100
AcDbBlockEnd
  0
BLOCK
  5
126
330
125
100
AcDbEntity
  8
0
100
AcDbBlockBegin
  2
_D_2
 70
     0
 10
0.0
 20
0.0
 30
0.0
  3
_D_2
  1

  0
SOLID
  5
128
330
125
100
AcDbEntity
  8
DIMS
100
AcDbTrace
 10
9.5595553379
 20
5.0049174793
 30
0.0
 11
9.8224541009
 21
4.9644715157
 31
0.0
 12
9.8224541009
 22
5.0453634428
 32
0.0
 13
9.8224541009
 23
5.0453634428
 33
0.0
  0
SOLID
  5
129
330
125
100
AcDbEntity
  8
DIMS
100
AcDbTrace
 10
24.6781857714
 20
5.0049174793
 30
0.0
 11
24.4152870083
 21
5.0453634428
 31
0.0
 12
24.4152870083
 22
4.9644715157
 32
0.0
 13
24.4152870083
 23
4.9644715157
 33
0.0
  0
LINE
  5
12A
330
125
100
AcDbEntity
  8
DIMS
100
AcDbLine
 10
17.1996586401
 20
5.2938313875
 30
0.0
 11
17.4770120211
 21
5.2938313875
 31
0.0
  0
LINE
  5
12B
330
125
100
AcDbEntity
  8
DIMS
100
AcDbLine
 10
16.6953568983
 20
4.8418406598
 30
0.0
 11
16.6351717123
 21
4.8418406598
 31
0.0
  0
LINE
  5
12C
330
125
100
AcDbEntity
  8
DIMS
100
AcDbLine
 10
16.6351717123
 20
4.8418406598
 30
0.0
 11
16.6351717123
 21
4.4380983905
 31
0.0
  0
LINE
  5
12D
330
125
100
AcDbEntity
  8
DIMS
100
AcDbLine
 10
16.6351717123
 20
4.4380983905
 30
0.0
 11
16.6953568983
 21
4.4380983905
 31
0.0
  0
LINE
  5
12E
330
125
100
AcDbEntity
  8
DIMS
100
AcDbLine
 10
17.9492149236
 20
4.8418406598
 30
0.0
 11
18.0094001096
 21
4.8418406598
 31
0.0
  0
LINE
  5
12F
330
125
100
AcDbEntity
  8
DIMS
100
AcDbLine
 10
18.0094001096
 20
4.8418406598
 30
0.0
 11
18.0094001096
 21
4.4380983905
 31
0.0
  0
LINE
  5
130
330
125
100
AcDbEntity
  8
DIMS
100
AcDbLine
 10
18.0094001096
 20
4.4380983905
 30
0.0
 11
17.9492149236
 21
4.4380983905
 31
0.0
  0
LINE
  5
131
330
125
100
AcDbEntity
  8
DIMS
100
AcDbLine
 10
9.5595553379
 20
12.1193705469
 30
0.0
 11
9.5595553379
 21
4.8799174793
 31
0.0
  0
LINE
  5
132
330
125
100
AcDbEntity
  8
DIMS
100
AcDbLine
 10
24.6781857714
 20
12.1193705469
 30
0.0
 11
24.6781857714
 21
4.8799174793
 31
0.0
  0
LINE
  5
133
330
125
100
AcDbEntity
  8
DIMS
100
AcDbLine
 10
9.5595553379
 20
5.0049174793
 30
0.0
 11
16.5298843681
 21
5.0049174793
 31
0.0
  0
LINE
  5
134
330
125
100
AcDbEntity
  8
DIMS
100
AcDbLine
 10
24.6781857714
 20
5.0049174793
 30
0.0
 11
18.1146874905
 21
5.0049174793
 31
0.0
  0
MTEXT
  5
135
330
125
100
AcDbEntity
  8
DIMS
100
AcDbMText
 10
16.7600560242
 20
5.4354215528
 30
3.9637962653
 40
0.2708333333
 41
0.0
 71
     1
 72
     1
  1
15
  7
SLDTEXTSTYLE0
 73
     1
 44
1.0
  0
MTEXT
  5
136
330
125
100
AcDbEntity
  8
DIMS
100
AcDbMText
 10
17.2380266919
 20
5.619933073
 30
3.9637962653
 40
0.2708333333
 41
0.0
 71
     1
 72
     1
  1
1
  7
SLDTEXTSTYLE0
 73
     1
 44
1.0
  0
MTEXT
  5
137
330
125
100
AcDbEntity
  8
DIMS
100
AcDbMText
 10
17.2380266919
 20
5.2511483357
 30
3.9637962653
 40
0.2708333333
 41
0.0
 71
     1
 72
     1
  1
8
  7
SLDTEXTSTYLE0
 73
     1
 44
1.0
  0
MTEXT
  5
138
330
125
100
AcDbEntity
  8
DIMS
100
AcDbMText
 10
17.5153800453
 20
5.4354215528
 30
3.9637962653
 40
0.2708333333
 41
0.0
 71
     1
 72
     1
  1
"
  7
SLDTEXTSTYLE0
 73
     1
 44
1.0
  0
MTEXT
  5
139
330
125
100
AcDbEntity
  8
DIMS
100
AcDbMText
 10
16.7705883842
 20
4.7872208942
 30
3.9637962653
 40
0.2708333333
 41
0.0
 71
     1
 72
     1
  1
384.01
  7
SLDTEXTSTYLE0
 73
     1
 44
1.0
  0
ENDBLK
  5
127
330
125
100
AcDbEntity
  8
0
100
AcDbBlockEnd
  0
BLOCK
  5
13C
330
13B
100
AcDbEntity
  8
0
100
AcDbBlockBegin
  2
_D_3
 70
     0
 10
0.0
 20
0.0
 30
0.0
  3
_D_3
  1

  0
SOLID
  5
13E
330
13B
100
AcDbEntity
  8
DIMS
100
AcDbTrace
 10
25.3031880402
 20
3.694341486
 30
0.0
 11
25.0402892772
 21
3.7347874495
 31
0.0
 12
25.0402892772
 22
3.6538955224
 32
0.0
 13
25.0402892772
 23
3.6538955224
 33
0.0
  0
SOLID
  5
13F
330
13B
100
AcDbEntity
  8
DIMS
100
AcDbTrace
 10
8.934553333
 20
3.694341486
 30
0.0
 11
9.197452096
 21
3.6538955224
 31
0.0
 12
9.197452096
 22
3.7347874495
 32
0.0
 13
9.197452096
 23
3.7347874495
 33
0.0
  0
LINE
  5
140
330
13B
100
AcDbEntity
  8
DIMS
100
AcDbLine
 10
13.6378474921
 20
3.9832553942
 30
0.0
 11
13.9152008731
 21
3.9832553942
 31
0.0
  0
LINE
  5
141
330
13B
100
AcDbEntity
  8
DIMS
100
AcDbLine
 10
13.1335457504
 20
3.5312646665
 30
0.0
 11
13.0733605644
 21
3.5312646665
 31
0.0
  0
LINE
  5
142
330
13B
100
AcDbEntity
  8
DIMS
100
AcDbLine
 10
13.0733605644
 20
3.5312646665
 30
0.0
 11
13.0733605644
 21
3.1275223972
 31
0.0
  0
LINE
  5
143
330
13B
100
AcDbEntity
  8
DIMS
100
AcDbLine
 10
13.0733605644
 20
3.1275223972
 30
0.0
 11
13.1335457504
 21
3.1275223972
 31
0.0
  0
LINE
  5
144
330
13B
100
AcDbEntity
  8
DIMS
100
AcDbLine
 10
14.3874037757
 20
3.5312646665
 30
0.0
 11
14.4475889617
 21
3.5312646665
 31
0.0
  0
LINE
  5
145
330
13B
100
AcDbEntity
  8
DIMS
100
AcDbLine
 10
14.4475889617
 20
3.5312646665
 30
0.0
 11
14.4475889617
 21
3.1275223972
 31
0.0
  0
LINE
  5
146
330
13B
100
AcDbEntity
  8
DIMS
100
AcDbLine
 10
14.4475889617
 20
3.1275223972
 30
0.0
 11
14.3874037757
 21
3.1275223972
 31
0.0
  0
LINE
  5
147
330
13B
100
AcDbEntity
  8
DIMS
100
AcDbLine
 10
25.3031880402
 20
12.1193705469
 30
0.0
 11
25.3031880402
 21
3.569341486
 31
0.0
  0
LINE
  5
148
330
13B
100
AcDbEntity
  8
DIMS
100
AcDbLine
 10
8.934553333
 20
12.1193705469
 30
0.0
 11
8.934553333
 21
3.569341486
 31
0.0
  0
LINE
  5
149
330
13B
100
AcDbEntity
  8
DIMS
100
AcDbLine
 10
25.3031880402
 20
3.694341486
 30
0.0
 11
14.5528763426
 21
3.694341486
 31
0.0
  0
LINE
  5
14A
330
13B
100
AcDbEntity
  8
DIMS
100
AcDbLine
 10
8.934553333
 20
3.694341486
 30
0.0
 11
12.9680732201
 21
3.694341486
 31
0.0
  0
MTEXT
  5
14B
330
13B
100
AcDbEntity
  8
DIMS
100
AcDbMText
 10
13.1982448763
 20
4.1248455595
 30
3.9637962653
 40
0.2708333333
 41
0.0
 71
     1
 72
     1
  1
16
  7
SLDTEXTSTYLE0
 73
     1
 44
1.0
  0
MTEXT
  5
14C
330
13B
100
AcDbEntity
  8
DIMS
100
AcDbMText
 10
13.6762155439
 20
4.3093570797
 30
3.9637962653
 40
0.2708333333
 41
0.0
 71
     1
 72
     1
  1
3
  7
SLDTEXTSTYLE0
 73
     1
 44
1.0
  0
MTEXT
  5
14D
330
13B
100
AcDbEntity
  8
DIMS
100
AcDbMText
 10
13.6762155439
 20
3.9405723424
 30
3.9637962653
 40
0.2708333333
 41
0.0
 71
     1
 72
     1
  1
8
  7
SLDTEXTSTYLE0
 73
     1
 44
1.0
  0
MTEXT
  5
14E
330
13B
100
AcDbEntity
  8
DIMS
100
AcDbMText
 10
13.9535688974
 20
4.1248455595
 30
3.9637962653
 40
0.2708333333
 41
0.0
 71
     1
 72
     1
  1
"
  7
SLDTEXTSTYLE0
 73
     1
 44
1.0
  0
MTEXT
  5
14F
330
13B
100
AcDbEntity
  8
DIMS
100
AcDbMText
 10
13.2087772363
 20
3.4766449009
 30
3.9637962653
 40
0.2708333333
 41
0.0
 71
     1
 72
     1
  1
415.76
  7
SLDTEXTSTYLE0
 73
     1
 44
1.0
  0
ENDBLK
  5
13D
330
13B
100
AcDbEntity
  8
0
100
AcDbBlockEnd
  0
BLOCK
  5
151
330
150
100
AcDbEntity
  8
0
100
AcDbBlockBegin
  2
SW_NOTE_1
 70
     0
 10
0.0
 20
0.0
 30
0.0
  3
SW_NOTE_1
  1

  0
MTEXT
  5
153
330
150
100
AcDbEntity
  8
NOTES
 62
     0
100
AcDbMText
 10
3.8598632813
 20
0.604250503
 30
0.0
 40
0.46875
 41
0.0
 71
     2
 72
     1
  1
TEMPLATE #: 1000001501
  7
SLDTEXTSTYLE0
 73
     1
 44
1.0
  0
MTEXT
  5
154
330
150
100
AcDbEntity
  8
NOTES
 62
     0
100
AcDbMText
 10
3.8495554699
 20
-0.011527485
 30
0.0
 40
0.2604166667
 41
0.0
 71
     2
 72
     1
  1
DUAL UNDERMOUNT TEMPLATE 15" X 11" OVAL
  7
SLDTEXTSTYLE0
 73
     1
 44
1.0
  0
ENDBLK
  5
152
330
150
100
AcDbEntity
  8
0
100
AcDbBlockEnd
  0
BLOCK
  5
157
330
156
100
AcDbEntity
  8
0
100
AcDbBlockBegin
  2
SW_NOTE_2
 70
     0
 10
0.0
 20
0.0
 30
0.0
  3
SW_NOTE_2
  1

  0
MTEXT
  5
159
330
156
100
AcDbEntity
  8
NOTES
 62
     0
100
AcDbMText
 10
0.0
 20
0.1208501006
 30
0.0
 40
0.09375
 41
0.0
 71
     1
 72
     1
  1
NOTES:
  7
SLDTEXTSTYLE0
 73
     1
 44
1.0
  0
MTEXT
  5
15A
330
156
100
AcDbEntity
  8
NOTES
 62
     0
100
AcDbMText
 10
0.3937007786
 20
-0.1291498964
 30
0.0
 40
0.09375
 41
0.0
 71
     1
 72
     1
  1
THOROUGHLY READ ALL  INSTALLATION INSTRUCTIONS
  7
SLDTEXTSTYLE0
 73
     1
 44
1.0
  0
MTEXT
  5
15B
330
156
100
AcDbEntity
  8
NOTES
 62
     0
100
AcDbMText
 10
0.0
 20
-0.1291498964
 30
0.0
 40
0.09375
 41
0.0
 71
     1
 72
     1
  1
1.
  7
SLDTEXTSTYLE0
 73
     1
 44
1.0
  0
MTEXT
  5
15C
330
156
100
AcDbEntity
  8
NOTES
 62
     0
100
AcDbMText
 10
0.0
 20
-0.2541498949
 30
0.0
 40
0.09375
 41
0.0
 71
     1
 72
     1
  1
BEFORE CUTTING COUNTERTOP.
  7
SLDTEXTSTYLE0
 73
     1
 44
1.0
  0
MTEXT
  5
15D
330
156
100
AcDbEntity
  8
NOTES
 62
     0
100
AcDbMText
 10
0.0
 20
-0.5041498918
 30
0.0
 40
0.09375
 41
0.0
 71
     1
 72
     1
  1
2.  DIMENSIONS ARE IN INCHES [MM].
  7
SLDTEXTSTYLE0
 73
     1
 44
1.0
  0
MTEXT
  5
15E
330
156
100
AcDbEntity
  8
NOTES
 62
     0
100
AcDbMText
 10
0.0
 20
-0.8791498873
 30
0.0
 40
0.09375
 41
0.0
 71
     1
 72
     1
  1
PLEASE CHECK TEMPLATE AGAINST PHYSICAL SINK FOR MOST ACCURATE CUT.
  7
SLDTEXTSTYLE0
 73
     1
 44
1.0
  0
MTEXT
  5
15F
330
156
100
AcDbEntity
  8
NOTES
 62
     0
100
AcDbMText
 10
0.0
 20
-1.3791498813
 30
0.0
 40
0.09375
 41
0.0
 71
     1
 72
     1
  1
NOTAS:
  7
SLDTEXTSTYLE0
 73
     1
 44
1.0
  0
MTEXT
  5
160
330
156
100
AcDbEntity
  8
NOTES
 62
     0
100
AcDbMText
 10
0.0
 20
-1.6291498782
 30
0.0
 40
0.09375
 41
0.0
 71
     1
 72
     1
  1
1.  LEA ATENTAMENTE LAS INSTRUCCIONES DE INSTALACIÓN ANTES DE CORTAR
  7
SLDTEXTSTYLE0
 73
     1
 44
1.0
  0
MTEXT
  5
161
330
156
100
AcDbEntity
  8
NOTES
 62
     0
100
AcDbMText
 10
0.0
 20
-1.7541498767
 30
0.0
 40
0.09375
 41
0.0
 71
     1
 72
     1
  1
LA ENCIMERA.
  7
SLDTEXTSTYLE0
 73
     1
 44
1.0
  0
MTEXT
  5
162
330
156
100
AcDbEntity
  8
NOTES
 62
     0
100
AcDbMText
 10
0.0
 20
-2.0041498737
 30
0.0
 40
0.09375
 41
0.0
 71
     1
 72
     1
  1
2.  DIMENSIONES EN PULGADAS [MM].
  7
SLDTEXTSTYLE0
 73
     1
 44
1.0
  0
MTEXT
  5
163
330
156
100
AcDbEntity
  8
NOTES
 62
     0
100
AcDbMText
 10
0.0
 20
-2.3791498692
 30
0.0
 40
0.09375
 41
0.0
 71
     1
 72
     1
  1
POR FAVOR COMPRUEBE PLANTILLA CONTRA FREGADERO FÍSICO PARA CORTE
  7
SLDTEXTSTYLE0
 73
     1
 44
1.0
  0
MTEXT
  5
164
330
156
100
AcDbEntity
  8
NOTES
 62
     0
100
AcDbMText
 10
0.0
 20
-2.5041498677
 30
0.0
 40
0.09375
 41
0.0
 71
     1
 72
     1
  1
MÁS EXACTO.
  7
SLDTEXTSTYLE0
 73
     1
 44
1.0
  0
ENDBLK
  5
158
330
156
100
AcDbEntity
  8
0
100
AcDbBlockEnd
  0
BLOCK
  5
167
330
166
100
AcDbEntity
  8
0
100
AcDbBlockBegin
  2
SW_NOTE_3
 70
     0
 10
0.0
 20
0.0
 30
0.0
  3
SW_NOTE_3
  1

  0
MTEXT
  5
169
330
166
100
AcDbEntity
  8
NOTES
 62
     0
100
AcDbMText
 10
0.0225313548
 20
0.269258577
 30
0.0
 40
0.2083333333
 41
0.0
 71
     1
 72
     1
  1
1/2" REVEAL
  7
SLDTEXTSTYLE0
 73
     1
 44
1.0
  0
MTEXT
  5
16A
330
166
100
AcDbEntity
  8
NOTES
 62
     0
100
AcDbMText
 10
0.0225313548
 20
-0.0085191974
 30
0.0
 40
0.2083333333
 41
0.0
 71
     1
 72
     1
  1
[12.7 REVELADO]
  7
SLDTEXTSTYLE0
 73
     1
 44
1.0
  0
ENDBLK
  5
168
330
166
100
AcDbEntity
  8
0
100
AcDbBlockEnd
  0
BLOCK
  5
16E
330
16D
100
AcDbEntity
  8
0
100
AcDbBlockBegin
  2
SW_NOTE_4
 70
     0
 10
0.0
 20
0.0
 30
0.0
  3
SW_NOTE_4
  1

  0
MTEXT
  5
170
330
16D
100
AcDbEntity
  8
NOTES
 62
     0
100
AcDbMText
 10
-0.0027696997
 20
0.2690582921
 30
0.0
 40
0.2083333333
 41
0.0
 71
     3
 72
     1
  1
1/8" OVERHANG
  7
SLDTEXTSTYLE0
 73
     1
 44
1.0
  0
MTEXT
  5
171
330
16D
100
AcDbEntity
  8
NOTES
 62
     0
100
AcDbMText
 10
0.0171477309
 20
-0.0087194824
 30
0.0
 40
0.2083333333
 41
0.0
 71
     3
 72
     1
  1
[3.2 SOBRESALIENTE]
  7
SLDTEXTSTYLE0
 73
     1
 44
1.0
  0
ENDBLK
  5
16F
330
16D
100
AcDbEntity
  8
0
100
AcDbBlockEnd
  0
ENDSEC
  0
SECTION
  2
ENTITIES
  0
LINE
  5
DD
330
1F
100
AcDbEntity
  8
OBJECTS
  6
CENTERX2
100
AcDbLine
 10
17.1262370267
 20
18.3669129782
 30
0.0
 11
17.1262370267
 21
16.8669129782
 31
0.0
  0
LINE
  5
DE
330
1F
100
AcDbEntity
  8
OBJECTS
  6
CENTERX2
100
AcDbLine
 10
8.934553333
 20
12.1693705469
 30
0.0
 11
10.434553333
 21
12.1693705469
 31
0.0
  0
LINE
  5
DF
330
1F
100
AcDbEntity
  8
OBJECTS
  6
CENTERX2
100
AcDbLine
 10
17.1262370267
 20
6.0209614668
 30
0.0
 11
17.1262370267
 21
7.5209614668
 31
0.0
  0
LINE
  5
E0
330
1F
100
AcDbEntity
  8
OBJECTS
  6
CENTERX2
100
AcDbLine
 10
25.3031880402
 20
12.1693705469
 30
0.0
 11
23.8031880402
 21
12.1693705469
 31
0.0
  0
INSERT
  5
E8
102
{ACAD_REACTORS
330
EA
330
EB
102
}
330
1F
100
AcDbEntity
  8
NOTES
100
AcDbBlockReference
  2
SW_NOTE_0
 10
21.1906855715
 20
15.3421543956
 30
0.0
  0
LEADER
  5
EA
330
1F
100
AcDbEntity
  8
NOTES
100
AcDbLeader
  3
SLDDIMSTYLE0
 73
     2
 76
     3
 10
24.2452171237
 20
12.1693705469
 30
0.0
 10
21.4406855715
 20
15.3421543956
 30
0.0
 10
21.1906855715
 20
15.3421543956
 30
0.0
340
E8
  0
LEADER
  5
EB
330
1F
100
AcDbEntity
  8
NOTES
100
AcDbLeader
  3
SLDDIMSTYLE0
 73
     2
 76
     3
 10
17.1262370267
 20
17.2940896975
 30
0.0
 10
19.1425147243
 20
15.3421543956
 30
0.0
 10
19.3925147243
 20
15.3421543956
 30
0.0
340
E8
212
-1.798170847200801
222
0.0
232
0.0
  0
MTEXT
  5
EC
330
1F
100
AcDbEntity
  8
NOTES
100
AcDbMText
 10
20.341580756
 20
8.4845924331
 30
0.0
 40
0.2083333333
 41
0.0
 71
     1
 72
     1
  1
REV_D  7/15
  7
SLDTEXTSTYLE0
 73
     1
 44
1.0
  0
LWPOLYLINE
  5
ED
330
1F
100
AcDbEntity
  8
0
  6
Continuous
 62
     7
100
AcDbPolyline
 90
      295
 70
   128
 43
0.0
 10
17.1262370266
 20
18.3669129782
 10
16.9265211693
 20
18.3651822234
 10
16.7274339224
 20
18.3597867348
 10
16.5289740649
 20
18.3507336307
 10
16.3311403757
 20
18.3380300295
 10
16.133931634
 20
18.3216830496
 10
15.9408516028
 20
18.3020884985
 10
15.7483720643
 20
18.2789931377
 10
15.5564921795
 20
18.2524018568
 10
15.3652149789
 20
18.2222969899
 10
15.1706608408
 20
18.1879242652
 10
14.9767452389
 20
18.1498289402
 10
14.7834737376
 20
18.1079785751
 10
14.5908519012
 20
18.0623407302
 10
14.3988852943
 20
18.0128829656
 10
14.2075809255
 20
17.9595644212
 10
14.016952061
 20
17.9023077565
 10
13.8507162365
 20
17.8489175946
 10
13.6850163101
 20
17.7924032028
 10
13.5199825537
 20
17.7327533515
 10
13.3563755394
 20
17.6702000519
 10
13.1943419611
 20
17.6047819968
 10
13.0338894012
 20
17.5364808838
 10
12.8750286002
 20
17.4652771272
 10
12.717776156
 20
17.3911404598
 10
12.5779556935
 20
17.3220416647
 10
12.4394604693
 20
17.2505262382
 10
12.3023046237
 20
17.1765683947
 10
12.1665094829
 20
17.1001292452
 10
12.032098865
 20
17.021165356
 10
11.8990963655
 20
16.9396336998
 10
11.76752558
 20
16.8554912492
 10
11.6298733677
 20
16.7635415099
 10
11.4938990664
 20
16.6685270022
 10
11.3596529739
 20
16.5703679317
 10
11.2271853879
 20
16.4689845039
 10
11.0967983536
 20
16.3644975076
 10
10.9691959735
 20
16.2573756052
 10
10.8515013089
 20
16.1539551998
 10
10.7363779524
 20
16.0481565162
 10
10.6238577316
 20
15.939950116
 10
10.5139834779
 20
15.8292963833
 10
10.406807437
 20
15.7161469944
 10
10.3195927364
 20
15.6199147186
 10
10.2343180276
 20
15.5218880875
 10
10.15101399
 20
15.4220387249
 10
10.0697235643
 20
15.3203269136
 10
9.9904956774
 20
15.2167073997
 10
9.9133782286
 20
15.1111358797
 10
9.8426411745
 20
15.0097656704
 10
9.7738633924
 20
14.9065820346
 10
9.7073547474
 20
14.801962134
 10
9.6433507386
 20
14.6962229298
 10
9.5818721215
 20
14.5893661585
 10
9.5194442595
 20
14.474804426
 10
9.4598927712
 20
14.3589698056
 10
9.4032360258
 20
14.2418541682
 10
9.3495017114
 20
14.1234452611
 10
9.298737684
 20
14.0037219063
 10
9.2509944021
 20
13.8826617745
 10
9.2087913994
 20
13.7672749234
 10
9.1693609276
 20
13.6506611381
 10
9.1327467495
 20
13.5328010522
 10
9.0990026839
 20
13.4136667861
 10
9.0681991896
 20
13.2933051706
 10
9.0405628768
 20
13.1724792778
 10
9.0161474618
 20
13.0514555899
 10
8.9949349691
 20
12.9302330738
 10
8.97690933
 20
12.8088127269
 10
8.9620661397
 20
12.6871948227
 10
8.950588566
 20
12.5675561929
 10
8.9421864839
 20
12.4477266453
 10
8.9368627406
 20
12.3277060032
 10
8.9346201836
 20
12.2074940898
 10
8.9355440274
 20
12.0833783305
 10
8.9397781084
 20
11.9590570811
 10
8.9473484462
 20
11.8345287263
 10
8.9582847618
 20
11.7097914213
 10
8.972621265
 20
11.5848775769
 10
8.9902856442
 20
11.4604542982
 10
9.0111742375
 20
11.3370129622
 10
9.0352491806
 20
11.2145191593
 10
9.0638484182
 20
11.0871968037
 10
9.0958628317
 20
10.9608900279
 10
9.1312505387
 20
10.8355863771
 10
9.1699712459
 20
10.7112738693
 10
9.2119980664
 20
10.587944509
 10
9.2573108388
 20
10.4655923007
 10
9.3058894524
 20
10.3442112642
 10
9.3577137964
 20
10.2237954189
 10
9.4127624204
 20
10.1043429038
 10
9.4708538835
 20
9.9861632287
 10
9.5316494606
 20
9.8698022149
 10
9.5950873543
 20
9.75522675
 10
9.6572694298
 20
9.6487993024
 10
9.7217027267
 20
9.543892983
 10
9.788337928
 20
9.4404744685
 10
9.8571360478
 20
9.3385174168
 10
9.9280741604
 20
9.238006337
 10
10.0056249151
 20
9.1329667929
 10
10.0855307175
 20
9.0295185313
 10
10.1677646716
 20
8.9276433788
 10
10.2523026191
 20
8.8273250119
 10
10.3391376875
 20
8.7285498952
 10
10.4279497259
 20
8.6316445532
 10
10.5347798638
 20
8.5201626692
 10
10.6438840695
 20
8.4115696499
 10
10.7551934457
 20
8.3057779718
 10
10.8686440295
 20
8.2027063795
 10
10.9865600995
 20
8.1002627541
 10
11.1065900587
 20
8.0005045105
 10
11.2286754228
 20
7.9033573532
 10
11.3527685236
 20
7.8087607265
 10
11.4788390162
 20
7.7166760821
 10
11.6068577639
 20
7.627066406
 10
11.7367956301
 20
7.5398946844
 10
11.8763669749
 20
7.4502573778
 10
12.0180355943
 20
7.3632843466
 10
12.1617860989
 20
7.2789560407
 10
12.307466822
 20
7.1973342529
 10
12.4543726942
 20
7.1187646613
 10
12.6023514553
 20
7.0432536223
 10
12.742844308
 20
6.9747995794
 10
12.8842601143
 20
6.9089545649
 10
13.0265806757
 20
6.8456671348
 10
13.1697892062
 20
6.7848898379
 10
13.3138732778
 20
6.7265875427
 10
13.475700841
 20
6.6643998165
 10
13.6385879825
 20
6.605207333
 10
13.8025183212
 20
6.5489637858
 10
13.9674798007
 20
6.4956350931
 10
14.1334625104
 20
6.4451932393
 10
14.3004565395
 20
6.3976102087
 10
14.4684519611
 20
6.3528579397
 10
14.6374430825
 20
6.3109203399
 10
14.8317908954
 20
6.2664265371
 10
15.0274334107
 20
6.2255832177
 10
15.2243198163
 20
6.1883932614
 10
15.4217096719
 20
6.1549765336
 10
15.6192119473
 20
6.1253611258
 10
15.8168356788
 20
6.0994952434
 10
16.0145794211
 20
6.0773342606
 10
16.1959494694
 20
6.0602600223
 10
16.3774195219
 20
6.0462730555
 10
16.5589892059
 20
6.0353618539
 10
16.7406581486
 20
6.0275149109
 10
16.9224259774
 20
6.0227207204
 10
17.1042923194
 20
6.020967776
 10
17.3023711458
 20
6.0225188643
 10
17.5005674335
 20
6.0276961513
 10
17.6988816633
 20
6.0365144795
 10
17.8973143399
 20
6.0489894275
 10
18.0958663438
 20
6.065148181
 10
18.2910230708
 20
6.0846430657
 10
18.4860054414
 20
6.1077248002
 10
18.6800514501
 20
6.1343137524
 10
18.8730401068
 20
6.1643821495
 10
19.0688811361
 20
6.198644327
 10
19.2636269803
 20
6.2365163539
 10
19.457276393
 20
6.2780023393
 10
19.6498231508
 20
6.3231227957
 10
19.8412606316
 20
6.37189955
 10
20.0315811832
 20
6.4243578255
 10
20.2207708304
 20
6.4805436852
 10
20.3853716669
 20
6.5328050005
 10
20.5490840291
 20
6.5879948244
 10
20.7118962211
 20
6.6461517076
 10
20.8737925436
 20
6.7073273971
 10
21.0347567141
 20
6.7715755611
 10
21.1947724566
 20
6.8389498477
 10
21.353822025
 20
6.9095087497
 10
21.5118829414
 20
6.9833263566
 10
21.6529536798
 20
7.0524511956
 10
21.7932074327
 20
7.1243364056
 10
21.932337326
 20
7.1988887757
 10
22.0697607042
 20
7.2758352597
 10
22.2054157691
 20
7.3551635113
 10
22.3392914542
 20
7.4368884358
 10
22.4713766935
 20
7.5210249383
 10
22.6091910633
 20
7.6127198657
 10
22.7449433814
 20
7.7071922011
 10
22.8785977879
 20
7.8044902449
 10
23.0101184226
 20
7.9046622973
 10
23.1394654879
 20
8.0077619626
 10
23.2665759346
 20
8.1138741625
 10
23.3843116324
 20
8.2167665425
 10
23.4999385373
 20
8.3224992868
 10
23.6133971735
 20
8.4311525044
 10
23.7246077392
 20
8.542832624
 10
23.8332420695
 20
8.6573593756
 10
23.9213359816
 20
8.7545252227
 10
24.0071910036
 20
8.8532499419
 10
24.0907978858
 20
8.9535399737
 10
24.1721376689
 20
9.0554085186
 10
24.2511830271
 20
9.158874603
 10
24.327906708
 20
9.2639572018
 10
24.3980952261
 20
9.3645327245
 10
24.466172751
 20
9.4665780686
 10
24.5321122402
 20
9.5701120629
 10
24.5958669018
 20
9.6751672873
 10
24.6573863516
 20
9.7817788228
 10
24.7201357208
 20
9.8965913167
 10
24.7802542683
 20
10.0132355729
 10
24.8376771138
 20
10.1317438487
 10
24.8920875442
 20
10.2516229833
 10
24.9431948125
 20
10.3723189576
 10
24.9909936902
 20
10.4938329705
 10
25.0330253298
 20
10.6091573159
 10
25.072102315
 20
10.72521548
 10
25.1082163661
 20
10.8420095192
 10
25.1413515894
 20
10.9595433808
 10
25.1714857701
 20
11.0778225821
 10
25.1985965043
 20
11.1968526873
 10
25.2226613884
 20
11.3166392607
 10
25.2436580183
 20
11.4371878664
 10
25.2615596405
 20
11.5585051491
 10
25.2763265223
 20
11.6806009767
 10
25.287740475
 20
11.8012837648
 10
25.2960543305
 20
11.9227364938
 10
25.30121627
 20
12.0448463245
 10
25.3031806822
 20
12.1667331101
 10
25.3018923353
 20
12.2919225871
 10
25.2972726193
 20
12.4166652718
 10
25.289344962
 20
12.5409643062
 10
25.2781327909
 20
12.6648228324
 10
25.2636595339
 20
12.7882439923
 10
25.2459486038
 20
12.9112309262
 10
25.2250162634
 20
13.033785815
 10
25.2008634023
 20
13.1559087781
 10
25.1721051097
 20
13.2833837075
 10
25.1398100378
 20
13.4103842957
 10
25.1039770406
 20
13.5369103888
 10
25.0646464375
 20
13.6628217941
 10
25.0220744831
 20
13.7873947185
 10
24.9764015117
 20
13.9104066689
 10
24.9276804327
 20
14.0319166631
 10
24.8759710374
 20
14.1519541631
 10
24.8213324993
 20
14.2705483267
 10
24.7638145938
 20
14.3877236807
 10
24.7034477022
 20
14.5034951956
 10
24.6402599649
 20
14.6178767376
 10
24.5781245745
 20
14.7244615481
 10
24.5135301128
 20
14.8298346502
 10
24.4464974789
 20
14.9340063419
 10
24.3770541835
 20
15.0369705596
 10
24.3054523162
 20
15.1384079359
 10
24.2274668221
 20
15.2439681379
 10
24.1474185029
 20
15.347504072
 10
24.0653562653
 20
15.4490656696
 10
23.9813318043
 20
15.5487036098
 10
23.8953838977
 20
15.6464559081
 10
23.8075465227
 20
15.742355874
 10
23.701644417
 20
15.8530481155
 10
23.5932206157
 20
15.9612682233
 10
23.4823291231
 20
16.0670691403
 10
23.3690084058
 20
16.1704885769
 10
23.2509055109
 20
16.2735976408
 10
23.1303433321
 20
16.3742957559
 10
23.0073560948
 20
16.4726164751
 10
22.8819644015
 20
16.5685928041
 10
22.7544811597
 20
16.6620401469
 10
22.6255011609
 20
16.7525977768
 10
22.49509156
 20
16.8403203455
 10
22.3555663995
 20
16.930154559
 10
22.2145200198
 20
17.0169720243
 10
22.0719826372
 20
17.1008326634
 10
21.9279844675
 20
17.1817963981
 10
21.7825556712
 20
17.2599230395
 10
21.6357203415
 20
17.3352603677
 10
21.4960038351
 20
17.4037706489
 10
21.3550685518
 20
17.4698639589
 10
21.212929794
 20
17.5335706438
 10
21.0696009882
 20
17.5949173303
 10
20.9250902723
 20
17.6539201562
 10
20.762419375
 20
17.7170217093
 10
20.5982956883
 20
17.7772422179
 10
20.4327290633
 20
17.834601218
 10
20.2657385359
 20
17.889102524
 10
20.0979413028
 20
17.9405622356
 10
19.9296676107
 20
17.9889234107
 10
19.7609255387
 20
18.0342380331
 10
19.5917215693
 20
18.076548267
 10
19.3977869718
 20
18.1212692236
 10
19.2032642533
 20
18.1621647767
 10
19.0081604354
 20
18.1992805986
 10
18.8124796632
 20
18.2326436502
 10
18.6162256041
 20
18.2622777862
 10
18.4194019385
 20
18.2882069459
 10
18.2220111446
 20
18.3104472481
 10
18.0405721015
 20
18.3275983455
 10
17.8586578123
 20
18.3416582281
 10
17.6762682364
 20
18.3526266327
 10
17.4934021579
 20
18.3604956506
 10
17.3100587341
 20
18.3652598001
 10
17.1262370267
 20
18.3669129782
  0
LWPOLYLINE
  5
EE
330
1F
100
AcDbEntity
  8
0
  6
Continuous
 62
     7
100
AcDbPolyline
 90
      277
 70
   128
 43
0.0
 10
17.1259121224
 20
17.7419130627
 10
16.9435361436
 20
17.7403846553
 10
16.7617138564
 20
17.7356129255
 10
16.5804443925
 20
17.727602966
 10
16.3997268826
 20
17.7163598694
 10
16.2195604573
 20
17.7018887281
 10
16.0431468596
 20
17.6845388338
 10
15.8672631784
 20
17.6640848898
 10
15.6919084803
 20
17.6405323635
 10
15.5170848302
 20
17.6138691591
 10
15.3392455328
 20
17.5834273333
 10
15.1619688702
 20
17.5496898058
 10
14.9852597501
 20
17.5126278295
 10
14.8091230803
 20
17.4722126569
 10
14.6335637682
 20
17.428415541
 10
14.4585875863
 20
17.3812026702
 10
14.2842050277
 20
17.330512579
 10
14.110427499
 20
17.2762784517
 10
13.9372641391
 20
17.2184327464
 10
13.7648257309
 20
17.1569346088
 10
13.5938880571
 20
17.0920035662
 10
13.4247967674
 20
17.0237351276
 10
13.2575410037
 20
16.9520954592
 10
13.0921384798
 20
16.877052027
 10
12.9421690904
 20
16.8052324831
 10
12.7937980326
 20
16.730477354
 10
12.6470457468
 20
16.6527490976
 10
12.5019418721
 20
16.5719932771
 10
12.3585213645
 20
16.4881456903
 10
12.216819208
 20
16.4011420838
 10
12.0897961804
 20
16.3194359982
 10
11.964253253
 20
16.2350114778
 10
11.8402322459
 20
16.1477917132
 10
11.7177749794
 20
16.0576998953
 10
11.5969219143
 20
15.964653586
 10
11.4782086011
 20
15.868955123
 10
11.3686155999
 20
15.7765291762
 10
11.2613271371
 20
15.6819444698
 10
11.1563792615
 20
15.5851672354
 10
11.0538060886
 20
15.4861655154
 10
10.9536569718
 20
15.3848930783
 10
10.8559850306
 20
15.281300165
 10
10.7608433845
 20
15.175337016
 10
10.6682844496
 20
15.066954531
 10
10.5783769333
 20
14.9560883489
 10
10.4912063083
 20
14.8426584037
 10
10.4083393455
 20
14.7286807197
 10
10.3282799895
 20
14.6120811096
 10
10.2513849733
 20
14.4932079008
 10
10.1781356159
 20
14.372681654
 10
10.1188752898
 20
14.2691069893
 10
10.0622960098
 20
14.164317339
 10
10.0084216956
 20
14.0583018631
 10
9.9572703708
 20
13.9510523939
 10
9.9088873479
 20
13.8425483966
 10
9.8633287473
 20
13.732764439
 10
9.8230108583
 20
13.6280586609
 10
9.785300752
 20
13.5221710983
 10
9.7502463228
 20
13.4150800465
 10
9.717902342
 20
13.3067563528
 10
9.6883351245
 20
13.197196038
 10
9.6617633374
 20
13.0870715154
 10
9.6382742007
 20
12.9767302154
 10
9.6178554952
 20
12.8661780386
 10
9.6004931917
 20
12.7554159485
 10
9.5861832449
 20
12.644444223
 10
9.5751054073
 20
12.5352497048
 10
9.5669828489
 20
12.4258522184
 10
9.5618210572
 20
12.316251387
 10
9.5596255196
 20
12.2064468337
 10
9.5605299839
 20
12.0907292085
 10
9.5647583908
 20
11.9747832953
 10
9.5723410846
 20
11.8586070102
 10
9.5833134606
 20
11.7421979222
 10
9.5976856072
 20
11.6257888638
 10
9.6153440133
 20
11.5101830796
 10
9.6362124612
 20
11.395546548
 10
9.6628282547
 20
11.2705199769
 10
9.6932268142
 20
11.1466028793
 10
9.7273544693
 20
11.023779514
 10
9.7651578411
 20
10.9020342251
 10
9.8065967494
 20
10.7813552277
 10
9.851640303
 20
10.6617334618
 10
9.9002568389
 20
10.5431596405
 10
9.9524266459
 20
10.4256103711
 10
10.0080115465
 20
10.3092886242
 10
10.0666139381
 20
10.1948415521
 10
10.1269833579
 20
10.0843108583
 10
10.1900718532
 20
9.9755899959
 10
10.255810763
 20
9.8686332636
 10
10.324131426
 20
9.7633949603
 10
10.4007439584
 20
9.6516353451
 10
10.4802592391
 20
9.5418078149
 10
10.5626380241
 20
9.4338862487
 10
10.6478410694
 20
9.3278445254
 10
10.7358313248
 20
9.2236549308
 10
10.8264264087
 20
9.1214757897
 10
10.9137597767
 20
9.0274332546
 10
11.0028769253
 20
8.9356102787
 10
11.0937348789
 20
8.8459533876
 10
11.1862822333
 20
8.7583986189
 10
11.2804662073
 20
8.672880297
 10
11.3874647826
 20
8.5797781782
 10
11.4963990957
 20
8.4890846992
 10
11.6072172928
 20
8.4007353381
 10
11.7198693059
 20
8.3146677954
 10
11.834322355
 20
8.2308412828
 10
11.9505503133
 20
8.1492232909
 10
12.0685266871
 20
8.0697808535
 10
12.1882249829
 20
7.9924810047
 10
12.317506575
 20
7.912524858
 10
12.4486797861
 20
7.8349627237
 10
12.5813847678
 20
7.7599693969
 10
12.7151227933
 20
7.6877681184
 10
12.8498648303
 20
7.6183024262
 10
12.9855891626
 20
7.5515131517
 10
13.1467846724
 20
7.4761613262
 10
13.3092860633
 20
7.4043675782
 10
13.4730637027
 20
7.3360511691
 10
13.6380955503
 20
7.2711520467
 10
13.8077665797
 20
7.2083919951
 10
13.9786996103
 20
7.1490704632
 10
14.1508757872
 20
7.0931360782
 10
14.3242814927
 20
7.0405517364
 10
14.4989035469
 20
6.9912815272
 10
14.6747372134
 20
6.945289379
 10
14.8517814368
 20
6.9025545685
 10
15.0300001694
 20
6.8630729989
 10
15.2093444569
 20
6.8268431878
 10
15.3891922455
 20
6.7939664678
 10
15.5692004048
 20
6.7644705776
 10
15.7493669806
 20
6.7383143235
 10
15.9296899616
 20
6.715455302
 10
16.1101677909
 20
6.6958606937
 10
16.3088716079
 20
6.6780634213
 10
16.5077614977
 20
6.6641888163
 10
16.7068368232
 20
6.6542234472
 10
16.9060969473
 20
6.6481538825
 10
17.1055412329
 20
6.6459666907
 10
17.2866180212
 20
6.6473429026
 10
17.4678474171
 20
6.6519362879
 10
17.6492301548
 20
6.6597623279
 10
17.8307669908
 20
6.6708369689
 10
18.0124591139
 20
6.6851852717
 10
18.1909627615
 20
6.7024863264
 10
18.3687785237
 20
6.722904151
 10
18.5457145502
 20
6.7464072549
 10
18.7217798397
 20
6.7729886224
 10
18.9005413802
 20
6.8032832868
 10
19.0783975928
 20
6.8367785013
 10
19.2553475166
 20
6.8734776638
 10
19.4313852971
 20
6.9134014704
 10
19.6065042798
 20
6.9565734467
 10
19.7806975806
 20
7.0030179299
 10
19.9539540836
 20
7.052774217
 10
20.1262593487
 20
7.1058933576
 10
20.2975988704
 20
7.1624266318
 10
20.4679570029
 20
7.2224293512
 10
20.637313146
 20
7.2859743429
 10
20.8056455711
 20
7.3531384219
 10
20.9729322581
 20
7.4239994352
 10
21.1391467351
 20
7.498650967
 10
21.2905423736
 20
7.5705023483
 10
21.4409341673
 20
7.6456922093
 10
21.5895364846
 20
7.723903878
 10
21.7360711535
 20
7.8050340576
 10
21.8805206082
 20
7.8891095691
 10
22.0228661891
 20
7.9761567688
 10
22.1501523277
 20
8.0577120948
 10
22.2756611785
 20
8.1417778112
 10
22.399357015
 20
8.2284043817
 10
22.5212041102
 20
8.3176422696
 10
22.6411675666
 20
8.4095407674
 10
22.7591987601
 20
8.5041685559
 10
22.8686566931
 20
8.5959719399
 10
22.9762833801
 20
8.6903619299
 10
23.0820233599
 20
8.7874168636
 10
23.1858060363
 20
8.8872290159
 10
23.2872387724
 20
8.9895980074
 10
23.3858031507
 20
9.0940822292
 10
23.4814791398
 20
9.2006941988
 10
23.5742472724
 20
9.309448257
 10
23.6640725371
 20
9.420370195
 10
23.7509012599
 20
9.5334995522
 10
23.8332103896
 20
9.6467959316
 10
23.9125258774
 20
9.7622975938
 10
23.9887907952
 20
9.8800464752
 10
24.0619113605
 20
10.0001116613
 10
24.1214100967
 20
10.1038584347
 10
24.178512379
 20
10.2093907699
 10
24.2331054925
 20
10.3166603864
 10
24.2848216929
 20
10.4250823829
 10
24.3335185851
 20
10.5344504502
 10
24.3791678247
 20
10.6447734698
 10
24.4193916689
 20
10.7496749549
 10
24.4568572569
 20
10.8554407126
 10
24.4915413578
 20
10.9620780224
 10
24.5234156425
 20
11.0695957607
 10
24.5524412554
 20
11.1780061025
 10
24.5785786915
 20
11.2873214265
 10
24.6017884456
 20
11.3975541112
 10
24.6220310126
 20
11.508716535
 10
24.6392668643
 20
11.6208580927
 10
24.6533893738
 20
11.7335420452
 10
24.6641523349
 20
11.8441340636
 10
24.6718600231
 20
11.9545897609
 10
24.6765354817
 20
12.0649101652
 10
24.6781982929
 20
12.1750961504
 10
24.6767797974
 20
12.2885365263
 10
24.67218901
 20
12.40183536
 10
24.6644270844
 20
12.5149927028
 10
24.6534951744
 20
12.6280086064
 10
24.6393944337
 20
12.7408831221
 10
24.6221255171
 20
12.8536162793
 10
24.6016767184
 20
12.9662075554
 10
24.5780264824
 20
13.0786657274
 10
24.5499572404
 20
13.1957150714
 10
24.5186815263
 20
13.3115054815
 10
24.4842647171
 20
13.4260516904
 10
24.4467672904
 20
13.5393776536
 10
24.4062409706
 20
13.6515038594
 10
24.3627327807
 20
13.7624489337
 10
24.3162896999
 20
13.8722314852
 10
24.2669587076
 20
13.9808701226
 10
24.2147852142
 20
14.0883828332
 10
24.1597875896
 20
14.1947768934
 10
24.1019817286
 20
14.3000585992
 10
24.0414732943
 20
14.4040944943
 10
23.9671905411
 20
14.5244017577
 10
23.8898627511
 20
14.6421605918
 10
23.8095919898
 20
14.7574381406
 10
23.7264475287
 20
14.8703067237
 10
23.6389111505
 20
14.9828130486
 10
23.5485420654
 20
15.0929447712
 10
23.455412571
 20
15.2007624975
 10
23.3595785694
 20
15.3063130889
 10
23.2610864765
 20
15.409635455
 10
23.1618106699
 20
15.5089814505
 10
23.0600593914
 20
15.6062523069
 10
22.9558700003
 20
15.7014793418
 10
22.8493397448
 20
15.7946273595
 10
22.7388389169
 20
15.8870797375
 10
22.6267214362
 20
15.9768573702
 10
22.5130321299
 20
16.0640438487
 10
22.3978134731
 20
16.1487091931
 10
22.2810996199
 20
16.2309097063
 10
22.1629242094
 20
16.3107008426
 10
22.043320881
 20
16.3881380563
 10
21.9152241145
 20
16.4675810162
 10
21.7855879529
 20
16.5444862832
 10
21.6544367308
 20
16.6188939734
 10
21.5217947831
 20
16.6908442026
 10
21.3876854593
 20
16.7603754622
 10
21.252124833
 20
16.8275142501
 10
21.0905113813
 20
16.9035996841
 10
20.9269212047
 20
16.9764264871
 10
20.7613811443
 20
17.0460237709
 10
20.5945889004
 20
17.112142021
 10
20.4235682932
 20
17.1759172702
 10
20.2517352357
 20
17.2360502153
 10
20.0791061897
 20
17.292614656
 10
19.9056930772
 20
17.3456640399
 10
19.7315075094
 20
17.3952504216
 10
19.5565609271
 20
17.4414250909
 10
19.3808622829
 20
17.4842281838
 10
19.2044187385
 20
17.5236918065
 10
19.027237405
 20
17.5598478394
 10
18.8493234766
 20
17.5927195685
 10
18.6706791448
 20
17.622316818
 10
18.4913064513
 20
17.6486487419
 10
18.3112074181
 20
17.6717244047
 10
18.1303823759
 20
17.6915452889
 10
17.9306342859
 20
17.7095800117
 10
17.7300086753
 20
17.7236560766
 10
17.5287731886
 20
17.7337427076
 10
17.3273934982
 20
17.7398219712
 10
17.1259121236
 20
17.7419130627
  0
POINT
  5
EF
330
1F
100
AcDbEntity
  8
0
  6
Continuous
 62
     7
100
AcDbPoint
 10
17.1262370267
 20
6.6459616431
 30
0.0
  0
POINT
  5
F0
330
1F
100
AcDbEntity
  8
0
  6
Continuous
 62
     7
100
AcDbPoint
 10
8.934553333
 20
12.1693705469
 30
0.0
  0
POINT
  5
F1
330
1F
100
AcDbEntity
  8
0
  6
Continuous
 62
     7
100
AcDbPoint
 10
17.1262370267
 20
6.0209614668
 30
0.0
  0
POINT
  5
F2
330
1F
100
AcDbEntity
  8
0
  6
Continuous
 62
     7
100
AcDbPoint
 10
9.5595553379
 20
12.1693705469
 30
0.0
  0
POINT
  5
F3
330
1F
100
AcDbEntity
  8
0
  6
Continuous
 62
     7
100
AcDbPoint
 10
24.6781857714
 20
12.1693705469
 30
0.0
  0
POINT
  5
F4
330
1F
100
AcDbEntity
  8
0
  6
Continuous
 62
     7
100
AcDbPoint
 10
25.3031880402
 20
12.1693705469
 30
0.0
  0
INSERT
  5
F5
330
1F
100
AcDbEntity
  8
BLOCKS
100
AcDbBlockReference
  2
OVERHANG - .125
 10
-1.702612419
 20
-18.9202115295
 30
0.0
  0
INSERT
  5
F6
330
1F
100
AcDbEntity
  8
BLOCKS
100
AcDbBlockReference
  2
REVEAL- .500
 10
-3.6205314524
 20
-12.3476105867
 30
0.0
  0
DIMENSION
  5
F7
330
1F
100
AcDbEntity
  8
DIMS
100
AcDbDimension
  2
_D
 10
6.0717788488
 20
18.3669129782
 30
0.0
 11
6.0717788488
 21
11.357437825
 31
0.0
 70
   160
  1
<>
 71
     2
 42
-1.0
  3
SLDDIMSTYLE1
100
AcDbAlignedDimension
 13
17.1262370267
 23
6.0209614668
 33
0.0
 14
17.1262370267
 24
18.3669129782
 34
0.0
 50
90.0
100
AcDbRotatedDimension
  0
DIMENSION
  5
10E
330
1F
100
AcDbEntity
  8
DIMS
100
AcDbDimension
  2
_D_1
 10
7.695378429
 20
6.645685496
 30
0.0
 11
7.6951434108
 21
14.6719270755
 31
0.0
 70
   160
  1
<>
 71
     2
 42
-1.0
  3
SLDDIMSTYLE1
100
AcDbAlignedDimension
 13
17.1259121236
 23
17.7419130627
 33
0.0
 14
17.1262370267
 24
6.6459616431
 34
0.0
 50
-89.9983223093
100
AcDbRotatedDimension
  0
DIMENSION
  5
124
330
1F
100
AcDbEntity
  8
DIMS
100
AcDbDimension
  2
_D_2
 10
24.6781857714
 20
5.0049174793
 30
0.0
 11
17.3222859293
 21
5.0049174793
 31
0.0
 70
   160
  1
<>
 71
     2
 42
-1.0
  3
SLDDIMSTYLE1
100
AcDbAlignedDimension
 13
9.5595553379
 23
12.1693705469
 33
0.0
 14
24.6781857714
 24
12.1693705469
 34
0.0
 50
0.0
100
AcDbRotatedDimension
  0
DIMENSION
  5
13A
330
1F
100
AcDbEntity
  8
DIMS
100
AcDbDimension
  2
_D_3
 10
8.934553333
 20
3.694341486
 30
0.0
 11
13.7604747814
 21
3.694341486
 31
0.0
 70
   160
  1
<>
 71
     2
 42
-1.0
  3
SLDDIMSTYLE1
100
AcDbAlignedDimension
 13
25.3031880402
 23
12.1693705469
 33
0.0
 14
8.934553333
 24
12.1693705469
 34
0.0
 50
0.0
100
AcDbRotatedDimension
  0
INSERT
  5
155
330
1F
100
AcDbEntity
  8
NOTES
100
AcDbBlockReference
  2
SW_NOTE_1
 10
13.1713174278
 20
11.4895375766
 30
0.0
  0
INSERT
  5
165
330
1F
100
AcDbEntity
  8
NOTES
100
AcDbBlockReference
  2
SW_NOTE_2
 10
14.4699283995
 20
14.9679951046
 30
0.0
  0
INSERT
  5
16B
102
{ACAD_REACTORS
330
16C
102
}
330
1F
100
AcDbEntity
  8
NOTES
100
AcDbBlockReference
  2
SW_NOTE_3
 10
14.5851259572
 20
16.0524393214
 30
0.0
  0
LEADER
  5
16C
330
1F
100
AcDbEntity
  8
NOTES
100
AcDbLeader
  3
SLDDIMSTYLE0
 73
     2
 76
     3
 10
13.6919132627
 20
17.7948222666
 30
0.0
 10
14.3351259572
 20
16.0524393214
 30
0.0
 10
14.5851259572
 20
16.0524393214
 30
0.0
340
16B
  0
INSERT
  5
172
102
{ACAD_REACTORS
330
173
102
}
330
1F
100
AcDbEntity
  8
NOTES
100
AcDbBlockReference
  2
SW_NOTE_4
 10
19.5310992054
 20
8.530183727
 30
0.0
  0
LEADER
  5
173
330
1F
100
AcDbEntity
  8
NOTES
100
AcDbLeader
  3
SLDDIMSTYLE0
 73
     2
 76
     3
 10
20.4320629756
 20
7.2094653309
 30
0.0
 10
19.7810992054
 20
8.530183727
 30
0.0
 10
19.5310992054
 20
8.530183727
 30
0.0
340
172
  0
ENDSEC
  0
SECTION
  2
OBJECTS
  0
DICTIONARY
  5
C
330
0
100
AcDbDictionary
281
     1
  3
ACAD_GROUP
350
D
  3
ACAD_LAYOUT
350
1A
  3
ACAD_MLINESTYLE
350
17
  3
ACAD_PLOTSETTINGS
350
19
  3
ACAD_PLOTSTYLENAME
350
E
  0
DICTIONARY
  5
D
102
{ACAD_REACTORS
330
C
102
}
330
C
100
AcDbDictionary
281
     1
  0
DICTIONARY
  5
1A
102
{ACAD_REACTORS
330
C
102
}
330
C
100
AcDbDictionary
281
     1
  3
Layout1
350
1E
  3
Layout2
350
26
  3
Model
350
22
  0
DICTIONARY
  5
17
102
{ACAD_REACTORS
330
C
102
}
330
C
100
AcDbDictionary
281
     1
  3
Standard
350
18
  0
DICTIONARY
  5
19
102
{ACAD_REACTORS
330
C
102
}
330
C
100
AcDbDictionary
281
     1
  0
ACDBDICTIONARYWDFLT
  5
E
102
{ACAD_REACTORS
330
C
102
}
330
C
100
AcDbDictionary
281
     1
  3
Normal
350
F
100
AcDbDictionaryWithDefault
340
F
  0
LAYOUT
  5
1E
102
{ACAD_REACTORS
330
1A
102
}
330
1A
100
AcDbPlotSettings
  1

  2
none_device
  4

  6

 40
0.0
 41
0.0
 42
0.0
 43
0.0
 44
0.0
 45
0.0
 46
0.0
 47
0.0
 48
0.0
 49
0.0
140
0.0
141
0.0
142
1.0
143
1.0
 70
   688
 72
     0
 73
     0
 74
     5
  7

 75
    16
147
1.0
148
0.0
149
0.0
100
AcDbLayout
  1
Layout1
 70
     1
 71
     1
 10
0.0
 20
0.0
 11
12.0
 21
9.0
 12
0.0
 22
0.0
 32
0.0
 14
1.0000000000E+20
 24
1.0000000000E+20
 34
1.0000000000E+20
 15
-1.0000000000E+20
 25
-1.0000000000E+20
 35
-1.0000000000E+20
146
0.0
 13
0.0
 23
0.0
 33
0.0
 16
1.0
 26
0.0
 36
0.0
 17
0.0
 27
1.0
 37
0.0
 76
     0
330
1B
  0
LAYOUT
  5
26
102
{ACAD_REACTORS
330
1A
102
}
330
1A
100
AcDbPlotSettings
  1

  2
none_device
  4

  6

 40
0.0
 41
0.0
 42
0.0
 43
0.0
 44
0.0
 45
0.0
 46
0.0
 47
0.0
 48
0.0
 49
0.0
140
0.0
141
0.0
142
1.0
143
1.0
 70
   688
 72
     0
 73
     0
 74
     5
  7

 75
    16
147
1.0
148
0.0
149
0.0
100
AcDbLayout
  1
Layout2
 70
     1
 71
     2
 10
0.0
 20
0.0
 11
0.0
 21
0.0
 12
0.0
 22
0.0
 32
0.0
 14
0.0
 24
0.0
 34
0.0
 15
0.0
 25
0.0
 35
0.0
146
0.0
 13
0.0
 23
0.0
 33
0.0
 16
1.0
 26
0.0
 36
0.0
 17
0.0
 27
1.0
 37
0.0
 76
     0
330
23
  0
LAYOUT
  5
22
102
{ACAD_REACTORS
330
1A
102
}
330
1A
100
AcDbPlotSettings
  1

  2
none_device
  4

  6

 40
0.0
 41
0.0
 42
0.0
 43
0.0
 44
0.0
 45
0.0
 46
0.0
 47
0.0
 48
0.0
 49
0.0
140
0.0
141
0.0
142
1.0
143
1.0
 70
  1712
 72
     0
 73
     0
 74
     0
  7

 75
     0
147
1.0
148
0.0
149
0.0
100
AcDbLayout
  1
Model
 70
     1
 71
     0
 10
0.0
 20
0.0
 11
34.0
 21
22.0
 12
0.0
 22
0.0
 32
0.0
 14
0.0
 24
0.0
 34
0.0
 15
34.0
 25
22.0
 35
0.0
146
0.0
 13
0.0
 23
0.0
 33
0.0
 16
1.0
 26
0.0
 36
0.0
 17
0.0
 27
1.0
 37
0.0
 76
     0
330
1F
331
29
  0
MLINESTYLE
  5
18
102
{ACAD_REACTORS
330
17
102
}
330
17
100
AcDbMlineStyle
  2
Standard
 70
     0
  3

 62
   256
 51
90.0
 52
90.0
 71
     2
 49
0.5
 62
   256
  6
BYLAYER
 49
-0.5
 62
   256
  6
BYLAYER
  0
ACDBPLACEHOLDER
  5
F
102
{ACAD_REACTORS
330
E
102
}
330
E
  0
ENDSEC
  0
EOF
