  0
SECTION
  2
HEADER
  9
$ACADVER
  1
AC1024
  9
$ACADMAINTVER
 70
   183
  9
$DWGCODEPAGE
  3
ANSI_1252
  9
$LASTSAVEDBY
  1
cesar.gomez
  9
$INSBASE
 10
0.0
 20
0.0
 30
0.0
  9
$EXTMIN
 10
2.241760354304872
 20
2.031951957885127
 30
-0.0015258207003583
  9
$EXTMAX
 10
40.24530038871488
 20
20.53369145576573
 30
5.189514201122243
  9
$LIMMIN
 10
0.0
 20
0.0
  9
$LIMMAX
 10
42.0
 20
22.0
  9
$ORTHOMODE
 70
     0
  9
$REGENMODE
 70
     1
  9
$FILLMODE
 70
     1
  9
$QTEXTMODE
 70
     0
  9
$MIRRTEXT
 70
     1
  9
$LTSCALE
 40
1.0
  9
$ATTMODE
 70
     1
  9
$TEXTSIZE
 40
0.2777777778
  9
$TRACEWID
 40
0.05
  9
$TEXTSTYLE
  7
STANDARD
  9
$CLAYER
  8
0
  9
$CELTYPE
  6
ByLayer
  9
$CECOLOR
 62
   256
  9
$CELTSCALE
 40
1.0
  9
$DISPSILH
 70
     0
  9
$DIMSCALE
 40
1.0
  9
$DIMASZ
 40
0.262898763
  9
$DIMEXO
 40
0.05
  9
$DIMDLI
 40
0.38
  9
$DIMRND
 40
0.0
  9
$DIMDLE
 40
0.0
  9
$DIMEXE
 40
0.125
  9
$DIMTP
 40
0.0
  9
$DIMTM
 40
0.0
  9
$DIMTXT
 40
0.3611111111
  9
$DIMCEN
 40
0.09
  9
$DIMTSZ
 40
0.0
  9
$DIMTOL
 70
     0
  9
$DIMLIM
 70
     0
  9
$DIMTIH
 70
     1
  9
$DIMTOH
 70
     1
  9
$DIMSE1
 70
     0
  9
$DIMSE2
 70
     0
  9
$DIMTAD
 70
     0
  9
$DIMZIN
 70
     0
  9
$DIMBLK
  1

  9
$DIMASO
 70
     1
  9
$DIMSHO
 70
     1
  9
$DIMPOST
  1

  9
$DIMAPOST
  1

  9
$DIMALT
 70
     0
  9
$DIMALTD
 70
     2
  9
$DIMALTF
 40
25.4
  9
$DIMLFAC
 40
1.0
  9
$DIMTOFL
 70
     0
  9
$DIMTVP
 40
0.0
  9
$DIMTIX
 70
     0
  9
$DIMSOXD
 70
     0
  9
$DIMSAH
 70
     0
  9
$DIMBLK1
  1

  9
$DIMBLK2
  1

  9
$DIMSTYLE
  2
Standard
  9
$DIMCLRD
 70
     0
  9
$DIMCLRE
 70
     0
  9
$DIMCLRT
 70
     0
  9
$DIMTFAC
 40
1.0
  9
$DIMGAP
 40
0.06
  9
$DIMJUST
 70
     0
  9
$DIMSD1
 70
     0
  9
$DIMSD2
 70
     0
  9
$DIMTOLJ
 70
     1
  9
$DIMTZIN
 70
     0
  9
$DIMALTZ
 70
     0
  9
$DIMALTTZ
 70
     0
  9
$DIMUPT
 70
     0
  9
$DIMDEC
 70
     3
  9
$DIMTDEC
 70
     3
  9
$DIMALTU
 70
     2
  9
$DIMALTTD
 70
     2
  9
$DIMTXSTY
  7
STANDARD
  9
$DIMAUNIT
 70
     0
  9
$DIMADEC
 70
     1
  9
$DIMALTRND
 40
0.0
  9
$DIMAZIN
 70
     0
  9
$DIMDSEP
 70
    46
  9
$DIMATFIT
 70
     3
  9
$DIMFRAC
 70
     0
  9
$DIMLDRBLK
  1

  9
$DIMLUNIT
 70
     2
  9
$DIMLWD
 70
    -2
  9
$DIMLWE
 70
    -2
  9
$DIMTMOVE
 70
     0
  9
$DIMFXL
 40
1.0
  9
$DIMFXLON
 70
     0
  9
$DIMJOGANG
 40
0.7853981633974483
  9
$DIMTFILL
 70
     0
  9
$DIMTFILLCLR
 70
     0
  9
$DIMARCSYM
 70
     0
  9
$DIMLTYPE
  6

  9
$DIMLTEX1
  6

  9
$DIMLTEX2
  6

  9
$DIMTXTDIRECTION
 70
     0
  9
$LUNITS
 70
     2
  9
$LUPREC
 70
     3
  9
$SKETCHINC
 40
0.1
  9
$FILLETRAD
 40
0.5
  9
$AUNITS
 70
     0
  9
$AUPREC
 70
     1
  9
$MENU
  1
.
  9
$ELEVATION
 40
0.0
  9
$PELEVATION
 40
0.0
  9
$THICKNESS
 40
0.0
  9
$LIMCHECK
 70
     0
  9
$CHAMFERA
 40
0.5
  9
$CHAMFERB
 40
0.5
  9
$CHAMFERC
 40
1.0
  9
$CHAMFERD
 40
0.0
  9
$SKPOLY
 70
     0
  9
$TDCREATE
 40
2457529.341295938
  9
$TDUCREATE
 40
2457529.549629271
  9
$TDUPDATE
 40
2457529.342333438
  9
$TDUUPDATE
 40
2457529.550666771
  9
$TDINDWG
 40
0.0009614468
  9
$TDUSRTIMER
 40
0.0009614352
  9
$USRTIMER
 70
     1
  9
$ANGBASE
 50
0.0
  9
$ANGDIR
 70
     0
  9
$PDMODE
 70
     0
  9
$PDSIZE
 40
-1.0
  9
$PLINEWID
 40
0.0
  9
$SPLFRAME
 70
     0
  9
$SPLINETYPE
 70
     6
  9
$SPLINESEGS
 70
     8
  9
$HANDSEED
  5
2A5
  9
$SURFTAB1
 70
     6
  9
$SURFTAB2
 70
     6
  9
$SURFTYPE
 70
     6
  9
$SURFU
 70
     6
  9
$SURFV
 70
     6
  9
$UCSBASE
  2

  9
$UCSNAME
  2

  9
$UCSORG
 10
0.0
 20
0.0
 30
0.0
  9
$UCSXDIR
 10
1.0
 20
0.0
 30
0.0
  9
$UCSYDIR
 10
0.0
 20
1.0
 30
0.0
  9
$UCSORTHOREF
  2

  9
$UCSORTHOVIEW
 70
     0
  9
$UCSORGTOP
 10
0.0
 20
0.0
 30
0.0
  9
$UCSORGBOTTOM
 10
0.0
 20
0.0
 30
0.0
  9
$UCSORGLEFT
 10
0.0
 20
0.0
 30
0.0
  9
$UCSORGRIGHT
 10
0.0
 20
0.0
 30
0.0
  9
$UCSORGFRONT
 10
0.0
 20
0.0
 30
0.0
  9
$UCSORGBACK
 10
0.0
 20
0.0
 30
0.0
  9
$PUCSBASE
  2

  9
$PUCSNAME
  2

  9
$PUCSORG
 10
0.0
 20
0.0
 30
0.0
  9
$PUCSXDIR
 10
1.0
 20
0.0
 30
0.0
  9
$PUCSYDIR
 10
0.0
 20
1.0
 30
0.0
  9
$PUCSORTHOREF
  2

  9
$PUCSORTHOVIEW
 70
     0
  9
$PUCSORGTOP
 10
0.0
 20
0.0
 30
0.0
  9
$PUCSORGBOTTOM
 10
0.0
 20
0.0
 30
0.0
  9
$PUCSORGLEFT
 10
0.0
 20
0.0
 30
0.0
  9
$PUCSORGRIGHT
 10
0.0
 20
0.0
 30
0.0
  9
$PUCSORGFRONT
 10
0.0
 20
0.0
 30
0.0
  9
$PUCSORGBACK
 10
0.0
 20
0.0
 30
0.0
  9
$USERI1
 70
     0
  9
$USERI2
 70
     0
  9
$USERI3
 70
     0
  9
$USERI4
 70
     0
  9
$USERI5
 70
     0
  9
$USERR1
 40
0.0
  9
$USERR2
 40
0.0
  9
$USERR3
 40
0.0
  9
$USERR4
 40
0.0
  9
$USERR5
 40
0.0
  9
$WORLDVIEW
 70
     1
  9
$SHADEDGE
 70
     3
  9
$SHADEDIF
 70
    70
  9
$TILEMODE
 70
     1
  9
$MAXACTVP
 70
    64
  9
$PINSBASE
 10
0.0
 20
0.0
 30
0.0
  9
$PLIMCHECK
 70
     0
  9
$PEXTMIN
 10
1.000000000000000E+20
 20
1.000000000000000E+20
 30
1.000000000000000E+20
  9
$PEXTMAX
 10
-1.000000000000000E+20
 20
-1.000000000000000E+20
 30
-1.000000000000000E+20
  9
$PLIMMIN
 10
0.0
 20
0.0
  9
$PLIMMAX
 10
12.0
 20
9.0
  9
$UNITMODE
 70
     0
  9
$VISRETAIN
 70
     1
  9
$PLINEGEN
 70
     0
  9
$PSLTSCALE
 70
     1
  9
$TREEDEPTH
 70
  3020
  9
$CMLSTYLE
  2
Standard
  9
$CMLJUST
 70
     0
  9
$CMLSCALE
 40
1.0
  9
$PROXYGRAPHICS
 70
     1
  9
$MEASUREMENT
 70
     0
  9
$CELWEIGHT
370
    -1
  9
$ENDCAPS
280
     0
  9
$JOINSTYLE
280
     0
  9
$LWDISPLAY
290
     1
  9
$INSUNITS
 70
     1
  9
$HYPERLINKBASE
  1

  9
$STYLESHEET
  1
monochrome.ctb
  9
$XEDIT
290
     1
  9
$CEPSNTYPE
380
     0
  9
$PSTYLEMODE
290
     1
  9
$FINGERPRINTGUID
  2
{6AEEB098-F36D-47CD-9C1C-38B0112E6316}
  9
$VERSIONGUID
  2
{6D15D0DA-E1A0-41CA-A647-C3207AFCB697}
  9
$EXTNAMES
290
     1
  9
$PSVPSCALE
 40
0.0
  9
$OLESTARTUP
290
     0
  9
$SORTENTS
280
   127
  9
$INDEXCTL
280
     0
  9
$HIDETEXT
280
     1
  9
$XCLIPFRAME
280
     0
  9
$HALOGAP
280
     0
  9
$OBSCOLOR
 70
   257
  9
$OBSLTYPE
280
     0
  9
$INTERSECTIONDISPLAY
280
     0
  9
$INTERSECTIONCOLOR
 70
   257
  9
$DIMASSOC
280
     2
  9
$PROJECTNAME
  1

  9
$CAMERADISPLAY
290
     0
  9
$LENSLENGTH
 40
50.0
  9
$CAMERAHEIGHT
 40
0.0
  9
$STEPSPERSEC
 40
2.0
  9
$STEPSIZE
 40
6.0
  9
$3DDWFPREC
 40
2.0
  9
$PSOLWIDTH
 40
0.25
  9
$PSOLHEIGHT
 40
4.0
  9
$LOFTANG1
 40
1.570796326794896
  9
$LOFTANG2
 40
1.570796326794896
  9
$LOFTMAG1
 40
0.0
  9
$LOFTMAG2
 40
0.0
  9
$LOFTPARAM
 70
     7
  9
$LOFTNORMALS
280
     1
  9
$LATITUDE
 40
37.795
  9
$LONGITUDE
 40
-122.394
  9
$NORTHDIRECTION
 40
0.0
  9
$TIMEZONE
 70
 -8000
  9
$LIGHTGLYPHDISPLAY
280
     1
  9
$TILEMODELIGHTSYNCH
280
     1
  9
$CMATERIAL
347
3C
  9
$SOLIDHIST
280
     0
  9
$SHOWHIST
280
     1
  9
$DWFFRAME
280
     2
  9
$DGNFRAME
280
     0
  9
$REALWORLDSCALE
290
     1
  9
$INTERFERECOLOR
 62
     1
  9
$INTERFEREOBJVS
345
1D0
  9
$INTERFEREVPVS
346
1CD
  9
$CSHADOW
280
     0
  9
$SHADOWPLANELOCATION
 40
0.0
  0
ENDSEC
  0
SECTION
  2
CLASSES
  0
CLASS
  1
ACDBDICTIONARYWDFLT
  2
AcDbDictionaryWithDefault
  3
ObjectDBX Classes
 90
        0
 91
        1
280
     0
281
     0
  0
CLASS
  1
VISUALSTYLE
  2
AcDbVisualStyle
  3
ObjectDBX Classes
 90
     4095
 91
       24
280
     0
281
     0
  0
CLASS
  1
MATERIAL
  2
AcDbMaterial
  3
ObjectDBX Classes
 90
     1153
 91
        3
280
     0
281
     0
  0
CLASS
  1
TABLESTYLE
  2
AcDbTableStyle
  3
ObjectDBX Classes
 90
     4095
 91
        1
280
     0
281
     0
  0
CLASS
  1
SCALE
  2
AcDbScale
  3
ObjectDBX Classes
 90
     1153
 91
       17
280
     0
281
     0
  0
CLASS
  1
MLEADERSTYLE
  2
AcDbMLeaderStyle
  3
ACDB_MLEADERSTYLE_CLASS
 90
     4095
 91
        1
280
     0
281
     0
  0
CLASS
  1
ACDBSECTIONVIEWSTYLE
  2
AcDbSectionViewStyle
  3
ObjectDBX Classes
 90
     1025
 91
        1
280
     0
281
     0
  0
CLASS
  1
ACDBDETAILVIEWSTYLE
  2
AcDbDetailViewStyle
  3
ObjectDBX Classes
 90
     1025
 91
        1
280
     0
281
     0
  0
CLASS
  1
EXACXREFPANELOBJECT
  2
ExAcXREFPanelObject
  3
EXAC_ESW
 90
     1025
 91
        1
280
     0
281
     0
  0
CLASS
  1
NPOCOLLECTION
  2
AcDbImpNonPersistentObjectsCollection
  3
ObjectDBX Classes
 90
     1153
 91
        1
280
     0
281
     0
  0
CLASS
  1
DICTIONARYVAR
  2
AcDbDictionaryVar
  3
ObjectDBX Classes
 90
        0
 91
        9
280
     0
281
     0
  0
CLASS
  1
CELLSTYLEMAP
  2
AcDbCellStyleMap
  3
ObjectDBX Classes
 90
     1152
 91
        2
280
     0
281
     0
  0
ENDSEC
  0
SECTION
  2
TABLES
  0
TABLE
  2
VPORT
  5
8
330
0
100
AcDbSymbolTable
 70
     1
  0
VPORT
  5
29
330
8
100
AcDbSymbolTableRecord
100
AcDbViewportTableRecord
  2
*Active
 70
     0
 10
0.0
 20
0.0
 11
1.0
 21
1.0
 12
23.56614349765785
 22
11.0
 13
0.0
 23
0.0
 14
0.5
 24
0.5
 15
0.5
 25
0.5
 16
0.0
 26
0.0
 36
1.0
 17
0.0
 27
0.0
 37
0.0
 40
21.2122878653632
 41
2.222093023255813
 42
50.0
 43
0.0
 44
0.0
 50
0.0
 51
0.0
 71
     0
 72
  2000
 73
     1
 74
     3
 75
     0
 76
     0
 77
     0
 78
     0
281
     0
 65
     1
110
0.0
120
0.0
130
0.0
111
1.0
121
0.0
131
0.0
112
0.0
122
1.0
132
0.0
 79
     0
146
0.0
348
1CC
 60
     3
 61
     5
292
     1
282
     1
141
0.0
142
0.0
 63
   250
421
  3355443
1001
ACAD_NAV_VCDISPLAY
1070
     3
  0
ENDTAB
  0
TABLE
  2
LTYPE
  5
5
330
0
100
AcDbSymbolTable
 70
     6
  0
LTYPE
  5
14
330
5
100
AcDbSymbolTableRecord
100
AcDbLinetypeTableRecord
  2
ByBlock
 70
     0
  3

 72
    65
 73
     0
 40
0.0
  0
LTYPE
  5
15
330
5
100
AcDbSymbolTableRecord
100
AcDbLinetypeTableRecord
  2
ByLayer
 70
     0
  3

 72
    65
 73
     0
 40
0.0
  0
LTYPE
  5
16
330
5
100
AcDbSymbolTableRecord
100
AcDbLinetypeTableRecord
  2
Continuous
 70
     0
  3
Solid line
 72
    65
 73
     0
 40
0.0
  0
LTYPE
  5
3F
330
5
100
AcDbSymbolTableRecord
100
AcDbLinetypeTableRecord
  2
HIDDEN
 70
     0
  3
Hidden __ __ __ __ __ __ __ __ __ __ __ __ __ __
 72
    65
 73
     2
 40
0.075
 49
0.05
 74
     0
 49
-0.025
 74
     0
  0
LTYPE
  5
40
330
5
100
AcDbSymbolTableRecord
100
AcDbLinetypeTableRecord
  2
PHANTOM
 70
     0
  3
Phantom ______  __  __  ______  __  __  ______
 72
    65
 73
     6
 40
0.5
 49
0.25
 74
     0
 49
-0.05
 74
     0
 49
0.05
 74
     0
 49
-0.05
 74
     0
 49
0.05
 74
     0
 49
-0.05
 74
     0
  0
LTYPE
  5
41
330
5
100
AcDbSymbolTableRecord
100
AcDbLinetypeTableRecord
  2
CENTER
 70
     0
  3
Center ____ _ ____ _ ____ _ ____ _ ____ _ ____
 72
    65
 73
     4
 40
0.4
 49
0.25
 74
     0
 49
-0.05
 74
     0
 49
0.05
 74
     0
 49
-0.05
 74
     0
  0
LTYPE
  5
42
330
5
100
AcDbSymbolTableRecord
100
AcDbLinetypeTableRecord
  2
CENTERX2
 70
     0
  3
Center (2x) ________  __  ________  __  _____
 72
    65
 73
     4
 40
0.8
 49
0.5
 74
     0
 49
-0.1
 74
     0
 49
0.1
 74
     0
 49
-0.1
 74
     0
  0
LTYPE
  5
43
330
5
100
AcDbSymbolTableRecord
100
AcDbLinetypeTableRecord
  2
DOT2
 70
     0
  3
Dot (.5x) ........................................
 72
    65
 73
     2
 40
0.025
 49
0.0
 74
     0
 49
-0.025
 74
     0
  0
ENDTAB
  0
TABLE
  2
LAYER
  5
2
102
{ACAD_XDICTIONARY
360
260
102
}
330
0
100
AcDbSymbolTable
 70
     8
  0
LAYER
  5
10
102
{ACAD_XDICTIONARY
360
1FF
102
}
330
2
100
AcDbSymbolTableRecord
100
AcDbLayerTableRecord
  2
0
 70
     0
 62
     7
  6
Continuous
370
    -3
390
F
347
3E
  0
LAYER
  5
44
102
{ACAD_XDICTIONARY
360
201
102
}
330
2
100
AcDbSymbolTableRecord
100
AcDbLayerTableRecord
  2
SLD-0
 70
     0
 62
   179
  6
Continuous
370
    -3
390
F
347
3E
  0
LAYER
  5
45
102
{ACAD_XDICTIONARY
360
203
102
}
330
2
100
AcDbSymbolTableRecord
100
AcDbLayerTableRecord
  2
OBJECTS
 70
     0
 62
     5
  6
Continuous
370
    -3
390
F
347
3E
  0
LAYER
  5
46
102
{ACAD_XDICTIONARY
360
205
102
}
330
2
100
AcDbSymbolTableRecord
100
AcDbLayerTableRecord
  2
DIMS
 70
     0
 62
     1
  6
Continuous
370
    -3
390
F
347
3E
  0
LAYER
  5
47
102
{ACAD_XDICTIONARY
360
207
102
}
330
2
100
AcDbSymbolTableRecord
100
AcDbLayerTableRecord
  2
NOTES
 70
     0
 62
     7
  6
Continuous
370
    -3
390
F
347
3E
  0
LAYER
  5
48
102
{ACAD_XDICTIONARY
360
209
102
}
330
2
100
AcDbSymbolTableRecord
100
AcDbLayerTableRecord
  2
IMAGES
 70
     0
 62
     7
  6
Continuous
370
    -3
390
F
347
3E
  0
LAYER
  5
49
102
{ACAD_XDICTIONARY
360
20B
102
}
330
2
100
AcDbSymbolTableRecord
100
AcDbLayerTableRecord
  2
CENTERLINES
 70
     0
 62
     7
  6
HIDDEN
370
    -3
390
F
347
3E
  0
LAYER
  5
4A
102
{ACAD_XDICTIONARY
360
20D
102
}
330
2
100
AcDbSymbolTableRecord
100
AcDbLayerTableRecord
  2
BLOCKS
 70
     0
 62
    16
  6
Continuous
370
    -3
390
F
347
3E
  0
ENDTAB
  0
TABLE
  2
STYLE
  5
3
330
0
100
AcDbSymbolTable
 70
     4
  0
STYLE
  5
11
330
3
100
AcDbSymbolTableRecord
100
AcDbTextStyleTableRecord
  2
STANDARD
 70
     0
 40
0.0
 41
1.0
 50
0.0
 71
     0
 42
0.2777777778
  3
ARIAL.TTF
  4

1001
ACAD
1000
ARIAL
1071
       34
  0
STYLE
  5
8D
330
3
100
AcDbSymbolTableRecord
100
AcDbTextStyleTableRecord
  2
SLDTEXTSTYLE0
 70
     0
 40
0.0
 41
0.948
 50
0.0
 71
     0
 42
0.2
  3
ARIAL.TTF
  4

1001
ACAD
1000
Arial
1071
      290
  0
STYLE
  5
1A9
330
3
100
AcDbSymbolTableRecord
100
AcDbTextStyleTableRecord
  2
SLDTEXTSTYLE1
 70
     0
 40
0.0
 41
0.948
 50
0.0
 71
     0
 42
0.2
  3
ARIALBD.TTF
  4

1001
ACAD
1000
Arial
1071
 33554722
  0
ENDTAB
  0
TABLE
  2
VIEW
  5
6
330
0
100
AcDbSymbolTable
 70
     1
  0
ENDTAB
  0
TABLE
  2
UCS
  5
7
330
0
100
AcDbSymbolTable
 70
     0
  0
ENDTAB
  0
TABLE
  2
APPID
  5
9
330
0
100
AcDbSymbolTable
 70
     3
  0
APPID
  5
12
330
9
100
AcDbSymbolTableRecord
100
AcDbRegAppTableRecord
  2
ACAD
 70
     0
  0
APPID
  5
219
330
9
100
AcDbSymbolTableRecord
100
AcDbRegAppTableRecord
  2
ACAD_NAV_VCDISPLAY
 70
     0
  0
APPID
  5
251
330
9
100
AcDbSymbolTableRecord
100
AcDbRegAppTableRecord
  2
ACAD_PSEXT
 70
     0
  0
ENDTAB
  0
TABLE
  2
DIMSTYLE
  5
A
330
0
100
AcDbSymbolTable
 70
     7
100
AcDbDimStyleTable
 71
     1
340
27
  0
DIMSTYLE
105
27
330
A
100
AcDbSymbolTableRecord
100
AcDbDimStyleTableRecord
  2
Standard
 70
     0
340
11
  0
DIMSTYLE
105
A9
102
{ACAD_REACTORS
330
A8
330
B8
330
114
330
127
330
13A
330
14D
102
}
330
A
100
AcDbSymbolTableRecord
100
AcDbDimStyleTableRecord
  2
SLDDIMSTYLE0
 70
     0
 41
0.262898763
 44
0.0
 45
0.000000001
 78
    12
 79
     3
140
0.262898763
141
0.0
147
0.0657246908
148
0.000000001
170
     1
171
     0
173
     1
271
     3
272
     3
274
     0
276
     2
277
     5
284
    12
340
8D
  0
DIMSTYLE
105
C8
102
{ACAD_REACTORS
330
C7
330
FF
102
}
330
A
100
AcDbSymbolTableRecord
100
AcDbDimStyleTableRecord
  2
SLDDIMSTYLE1
 70
     0
 41
0.262898763
 44
0.0
 45
0.000000001
 78
    12
 79
     3
140
0.262898763
147
0.0657246908
148
0.000000001
170
     1
171
     0
173
     1
271
     6
272
     3
274
     0
276
     2
277
     5
284
    12
340
8D
  0
DIMSTYLE
105
DE
102
{ACAD_REACTORS
330
DD
330
EE
102
}
330
A
100
AcDbSymbolTableRecord
100
AcDbDimStyleTableRecord
  2
SLDDIMSTYLE2
 70
     0
 41
0.262898763
 44
0.0
 45
0.000000001
 78
    12
 79
     3
140
0.262898763
147
0.0657246908
148
0.000000001
170
     1
171
     0
173
     1
271
     3
272
     3
274
     0
276
     2
277
     5
284
    12
340
8D
  0
DIMSTYLE
105
161
102
{ACAD_REACTORS
330
160
330
174
330
187
102
}
330
A
100
AcDbSymbolTableRecord
100
AcDbDimStyleTableRecord
  2
SLDDIMSTYLE3
 70
     0
 41
0.262898763
 44
0.0
 45
0.000000001
 78
    12
 79
     3
140
0.262898763
141
0.0
147
0.0657246908
148
0.000000001
170
     1
171
     0
173
     1
271
     3
272
     3
274
     0
276
     2
277
     5
284
    12
340
8D
  0
DIMSTYLE
105
1B6
330
A
100
AcDbSymbolTableRecord
100
AcDbDimStyleTableRecord
  2
SLDDIMSTYLE4
 70
     0
 41
0.262898763
 44
0.0
 45
0.000000001
140
0.0
146
0.262898763
147
0.0
173
     1
271
     0
272
     0
276
     2
277
     5
340
11
  0
ENDTAB
  0
TABLE
  2
BLOCK_RECORD
  5
1
330
0
100
AcDbSymbolTable
 70
    21
  0
BLOCK_RECORD
  5
1F
330
1
100
AcDbSymbolTableRecord
100
AcDbBlockTableRecord
  2
*Model_Space
340
22
 70
     0
280
     1
281
     0
  0
BLOCK_RECORD
  5
1B
330
1
100
AcDbSymbolTableRecord
100
AcDbBlockTableRecord
  2
*Paper_Space
340
1E
 70
     0
280
     1
281
     0
  0
BLOCK_RECORD
  5
23
330
1
100
AcDbSymbolTableRecord
100
AcDbBlockTableRecord
  2
*Paper_Space0
340
26
 70
     0
280
     1
281
     0
  0
BLOCK_RECORD
  5
4B
330
1
100
AcDbSymbolTableRecord
100
AcDbBlockTableRecord
  2
REVEAL- .500
340
0
102
{BLKREFS
331
A7
102
}
 70
     0
280
     1
281
     0
  0
BLOCK_RECORD
  5
7D
330
1
100
AcDbSymbolTableRecord
100
AcDbBlockTableRecord
  2
SW_BLOCK_DIMENSION_0
340
0
102
{BLKREFS
331
94
102
}
 70
     0
280
     1
281
     0
  0
BLOCK_RECORD
  5
AA
330
1
100
AcDbSymbolTableRecord
100
AcDbBlockTableRecord
  2
_D
340
0
 70
     0
280
     1
281
     0
  0
BLOCK_RECORD
  5
B9
330
1
100
AcDbSymbolTableRecord
100
AcDbBlockTableRecord
  2
_D_1
340
0
 70
     0
280
     1
281
     0
  0
BLOCK_RECORD
  5
C9
330
1
100
AcDbSymbolTableRecord
100
AcDbBlockTableRecord
  2
_D_2
340
0
 70
     0
280
     1
281
     0
  0
BLOCK_RECORD
  5
DF
330
1
100
AcDbSymbolTableRecord
100
AcDbBlockTableRecord
  2
_D_3
340
0
 70
     0
280
     1
281
     0
  0
BLOCK_RECORD
  5
EF
330
1
100
AcDbSymbolTableRecord
100
AcDbBlockTableRecord
  2
_D_4
340
0
 70
     0
280
     1
281
     0
  0
BLOCK_RECORD
  5
100
330
1
100
AcDbSymbolTableRecord
100
AcDbBlockTableRecord
  2
_D_5
340
0
 70
     0
280
     1
281
     0
  0
BLOCK_RECORD
  5
115
330
1
100
AcDbSymbolTableRecord
100
AcDbBlockTableRecord
  2
_D_6
340
0
 70
     0
280
     1
281
     0
  0
BLOCK_RECORD
  5
128
330
1
100
AcDbSymbolTableRecord
100
AcDbBlockTableRecord
  2
_D_7
340
0
 70
     0
280
     1
281
     0
  0
BLOCK_RECORD
  5
13B
330
1
100
AcDbSymbolTableRecord
100
AcDbBlockTableRecord
  2
_D_8
340
0
 70
     0
280
     1
281
     0
  0
BLOCK_RECORD
  5
14E
330
1
100
AcDbSymbolTableRecord
100
AcDbBlockTableRecord
  2
_D_9
340
0
 70
     0
280
     1
281
     0
  0
BLOCK_RECORD
  5
162
330
1
100
AcDbSymbolTableRecord
100
AcDbBlockTableRecord
  2
_D_10
340
0
 70
     0
280
     1
281
     0
  0
BLOCK_RECORD
  5
175
330
1
100
AcDbSymbolTableRecord
100
AcDbBlockTableRecord
  2
_D_11
340
0
 70
     0
280
     1
281
     0
  0
BLOCK_RECORD
  5
188
330
1
100
AcDbSymbolTableRecord
100
AcDbBlockTableRecord
  2
_D_12
340
0
 70
     0
280
     1
281
     0
  0
BLOCK_RECORD
  5
19B
330
1
100
AcDbSymbolTableRecord
100
AcDbBlockTableRecord
  2
SW_NOTE_0
340
0
102
{BLKREFS
331
1A0
102
}
 70
     0
280
     1
281
     0
  0
BLOCK_RECORD
  5
1A1
330
1
100
AcDbSymbolTableRecord
100
AcDbBlockTableRecord
  2
SW_NOTE_1
340
0
102
{BLKREFS
331
1AF
102
}
 70
     0
280
     1
281
     0
  0
BLOCK_RECORD
  5
1B0
330
1
100
AcDbSymbolTableRecord
100
AcDbBlockTableRecord
  2
SW_NOTE_2
340
0
102
{BLKREFS
331
1B5
102
}
 70
     0
280
     1
281
     0
  0
BLOCK_RECORD
  5
1B8
330
1
100
AcDbSymbolTableRecord
100
AcDbBlockTableRecord
  2
SW_NOTE_3
340
0
102
{BLKREFS
331
1BF
102
}
 70
     0
280
     1
281
     0
  0
ENDTAB
  0
ENDSEC
  0
SECTION
  2
BLOCKS
  0
BLOCK
  5
20
330
1F
100
AcDbEntity
  8
0
100
AcDbBlockBegin
  2
*Model_Space
 70
     0
 10
0.0
 20
0.0
 30
0.0
  3
*Model_Space
  1

  0
ENDBLK
  5
21
330
1F
100
AcDbEntity
  8
0
100
AcDbBlockEnd
  0
BLOCK
  5
1C
330
1B
100
AcDbEntity
 67
     1
  8
0
100
AcDbBlockBegin
  2
*Paper_Space
 70
     0
 10
0.0
 20
0.0
 30
0.0
  3
*Paper_Space
  1

  0
ENDBLK
  5
1D
330
1B
100
AcDbEntity
 67
     1
  8
0
100
AcDbBlockEnd
  0
BLOCK
  5
24
330
23
100
AcDbEntity
 67
     1
  8
0
100
AcDbBlockBegin
  2
*Paper_Space0
 70
     0
 10
0.0
 20
0.0
 30
0.0
  3
*Paper_Space0
  1

  0
ENDBLK
  5
25
330
23
100
AcDbEntity
 67
     1
  8
0
100
AcDbBlockEnd
  0
BLOCK
  5
4C
330
4B
100
AcDbEntity
  8
0
100
AcDbBlockBegin
  2
REVEAL- .500
 70
     0
 10
0.0
 20
0.0
 30
0.0
  3
REVEAL- .500
  1

  0
ARC
  5
4E
330
4B
100
AcDbEntity
  8
BLOCKS
100
AcDbCircle
 10
20.1601934329
 20
28.8878838846
 30
0.0
 40
0.2338576391325233
100
AcDbArc
 50
0.0
 51
90.0
  0
ARC
  5
4F
330
4B
100
AcDbEntity
  8
BLOCKS
100
AcDbCircle
 10
19.8280715192
 20
29.4726468145
 30
0.0
 40
0.0659795528056719
100
AcDbArc
 50
0.0
 51
90.0
  0
ARC
  5
50
330
4B
100
AcDbEntity
  8
BLOCKS
100
AcDbCircle
 10
19.0470381676
 20
28.990848696
 30
0.0
 40
0.0881257319589152
100
AcDbArc
 50
200.9822712638
 51
339.0177287362
  0
ARC
  5
51
330
4B
100
AcDbEntity
  8
BLOCKS
100
AcDbCircle
 10
20.1601934329
 20
28.8878838846
 30
0.0
 40
0.1878262552218324
100
AcDbArc
 50
0.0
 51
90.0
  0
LINE
  5
52
330
4B
100
AcDbEntity
  8
BLOCKS
100
AcDbLine
 10
19.8280715192
 20
29.5386263673
 30
0.0
 11
18.2509355515
 21
29.5386263673
 31
0.0
  0
LINE
  5
53
330
4B
100
AcDbEntity
  8
BLOCKS
100
AcDbLine
 10
18.2806192052
 20
29.1434426864
 30
0.0
 11
19.894051072
 21
29.1434426864
 31
0.0
  0
LINE
  5
54
330
4B
100
AcDbEntity
  8
BLOCKS
100
AcDbLine
 10
19.3470309437
 20
29.1217415238
 30
0.0
 11
20.1601934329
 21
29.1217415238
 31
0.0
  0
LINE
  5
55
330
4B
100
AcDbEntity
  8
BLOCKS
100
AcDbLine
 10
20.394051072
 20
28.8878838846
 30
0.0
 11
20.394051072
 21
28.4971795949
 31
0.0
  0
LINE
  5
56
330
4B
100
AcDbEntity
  8
BLOCKS
100
AcDbLine
 10
20.394051072
 20
28.4971795949
 30
0.0
 11
20.3480196881
 21
28.4971795949
 31
0.0
  0
LINE
  5
57
330
4B
100
AcDbEntity
  8
BLOCKS
100
AcDbLine
 10
20.3480196881
 20
28.4971795949
 30
0.0
 11
20.3480196881
 21
28.8878838846
 31
0.0
  0
LINE
  5
58
330
4B
100
AcDbEntity
  8
BLOCKS
100
AcDbLine
 10
20.1601934329
 20
29.0757101398
 30
0.0
 11
19.3470309437
 21
29.0757101398
 31
0.0
  0
LINE
  5
59
330
4B
100
AcDbEntity
  8
BLOCKS
100
AcDbLine
 10
19.3470309437
 20
29.0757101398
 30
0.0
 11
19.3470309437
 21
29.1217415238
 31
0.0
  0
LINE
  5
5A
330
4B
100
AcDbEntity
  8
BLOCKS
100
AcDbLine
 10
19.679261078
 20
29.0223488565
 30
0.0
 11
19.7319208682
 21
29.073015856
 31
0.0
  0
LINE
  5
5B
330
4B
100
AcDbEntity
  8
BLOCKS
100
AcDbLine
 10
19.7319208682
 20
29.073015856
 30
0.0
 11
19.7745573648
 21
29.0287024176
 31
0.0
  0
LINE
  5
5C
330
4B
100
AcDbEntity
  8
BLOCKS
100
AcDbLine
 10
19.7745573648
 20
29.0287024176
 30
0.0
 11
19.705650009
 21
28.9624027047
 31
0.0
  0
LINE
  5
5D
330
4B
100
AcDbEntity
  8
BLOCKS
100
AcDbLine
 10
18.43810357549999
 20
29.0888229672
 30
0.0
 11
18.385550816
 21
29.1434426864
 31
0.0
  0
LINE
  5
5E
330
4B
100
AcDbEntity
  8
BLOCKS
100
AcDbLine
 10
18.385550816
 20
29.1434426864
 30
0.0
 11
18.3431444562
 21
29.1026410993
 31
0.0
  0
LINE
  5
5F
330
4B
100
AcDbEntity
  8
BLOCKS
100
AcDbLine
 10
18.3431444562
 20
29.1026410993
 30
0.0
 11
18.4052557657
 21
29.0380868815
 31
0.0
  0
LINE
  5
60
330
4B
100
AcDbEntity
  8
BLOCKS
100
AcDbLine
 10
18.43810357549999
 20
29.0888229672
 30
0.0
 11
19.679261078
 21
29.0223488565
 31
0.0
  0
LINE
  5
61
330
4B
100
AcDbEntity
  8
BLOCKS
100
AcDbLine
 10
19.705650009
 20
28.9624027047
 30
0.0
 11
18.4052557657
 21
29.0380868815
 31
0.0
  0
LINE
  5
62
330
4B
100
AcDbEntity
  8
BLOCKS
100
AcDbLine
 10
19.1283677378
 20
29.0518536895
 30
0.0
 11
19.1283677378
 21
28.9960010797
 31
0.0
  0
LINE
  5
63
330
4B
100
AcDbEntity
  8
BLOCKS
100
AcDbLine
 10
18.9737480593
 20
29.0601348348
 30
0.0
 11
18.9737480593
 21
29.0050000915
 31
0.0
  0
LINE
  5
64
330
4B
100
AcDbEntity
  8
BLOCKS
100
AcDbLine
 10
18.964755941
 20
28.9592927168
 30
0.0
 11
19.1293203942
 21
28.9592927168
 31
0.0
  0
LINE
  5
65
330
4B
100
AcDbEntity
  8
BLOCKS
100
AcDbLine
 10
19.0095275609
 20
29.3495924534
 30
0.0
 11
19.0095275609
 21
28.9592927168
 31
0.0
  0
LINE
  5
66
330
4B
100
AcDbEntity
  8
BLOCKS
100
AcDbLine
 10
19.0864194327
 20
29.3495924534
 30
0.0
 11
19.0864194327
 21
28.9592927168
 31
0.0
  0
LINE
  5
67
330
4B
100
AcDbEntity
  8
BLOCKS
100
AcDbLine
 10
18.9467524826
 20
29.0033177842
 30
0.0
 11
19.1591684741
 21
28.9909549723
 31
0.0
  0
LINE
  5
68
330
4B
100
AcDbEntity
  8
BLOCKS
100
AcDbLine
 10
19.0095275609
 20
29.3495924534
 30
0.0
 11
19.0474925407
 21
29.4047818344
 31
0.0
  0
LINE
  5
69
330
4B
100
AcDbEntity
  8
BLOCKS
100
AcDbLine
 10
19.0474925407
 20
29.4047818344
 30
0.0
 11
19.0864194327
 21
29.3495924534
 31
0.0
  0
LINE
  5
6A
330
4B
100
AcDbEntity
  8
BLOCKS
100
AcDbLine
 10
19.1572986604
 20
28.9588281114
 30
0.0
 11
18.9448826689
 21
28.9711909233
 31
0.0
  0
LINE
  5
6B
330
4B
100
AcDbEntity
  8
BLOCKS
100
AcDbLine
 10
19.1591684741
 20
28.9909549723
 30
0.0
 11
19.1572986604
 21
28.9588281114
 31
0.0
  0
LINE
  5
6C
330
4B
100
AcDbEntity
  8
BLOCKS
100
AcDbLine
 10
18.9467524826
 20
29.0033177842
 30
0.0
 11
18.9448826689
 21
28.9711909233
 31
0.0
  0
LINE
  5
6D
330
4B
100
AcDbEntity
  8
BLOCKS
100
AcDbLine
 10
19.1142839592
 20
29.1434426864
 30
0.0
 11
19.1142839592
 21
29.4238049236
 31
0.0
  0
LINE
  5
6E
330
4B
100
AcDbEntity
  8
BLOCKS
100
AcDbLine
 10
19.1142839592
 20
29.4238049236
 30
0.0
 11
18.9877469673
 21
29.4238049236
 31
0.0
  0
LINE
  5
6F
330
4B
100
AcDbEntity
  8
BLOCKS
100
AcDbLine
 10
18.9877469673
 20
29.4238049236
 30
0.0
 11
18.9877469673
 21
29.1434426864
 31
0.0
  0
LINE
  5
70
330
4B
100
AcDbEntity
  8
BLOCKS
  6
Continuous
100
AcDbLine
 10
19.894051072
 20
29.1434426864
 30
0.0
 11
19.894051072
 21
29.4726468145
 31
0.0
  0
LINE
  5
71
330
4B
100
AcDbEntity
  8
BLOCKS
100
AcDbLine
 10
19.3020232313
 20
29.1434426864
 30
0.0
 11
19.3470309437
 21
29.0987258318
 31
0.0
  0
LINE
  5
72
330
4B
100
AcDbEntity
  8
BLOCKS
100
AcDbLine
 10
19.894051072
 20
29.1434426864
 30
0.0
 11
19.9068063572
 21
29.1217415238
 31
0.0
  0
SPLINE
  5
73
330
4B
100
AcDbEntity
  8
BLOCKS
100
AcDbSpline
210
0.0
220
0.0
230
1.0
 70
     8
 71
     3
 72
     9
 73
     5
 74
     0
 42
0.00000001
 43
0.0000000001
 40
0.0
 40
0.0
 40
0.0
 40
0.0
 40
0.5928291688347104
 40
1.0
 40
1.0
 40
1.0
 40
1.0
 10
18.28061920517429
 20
29.14344268635682
 30
0.0
 10
18.23604355296101
 20
29.22927712752978
 30
0.0
 10
18.31552651528452
 20
29.34850064146644
 30
0.0
 10
18.29741369383499
 20
29.50274888669875
 30
0.0
 10
18.25093555152442
 20
29.53862636728042
 30
0.0
  0
HATCH
  5
74
330
4B
100
AcDbEntity
  8
BLOCKS
 62
    16
100
AcDbHatch
 10
0.0
 20
0.0
 30
0.0
210
0.0
220
0.0
230
1.0
  2
ANSI36
 70
     0
 71
     0
 91
        1
 92
        0
 93
       10
 72
     4
 94
        3
 73
     1
 74
     0
 95
        9
 96
        5
 40
0.0
 40
0.0
 40
0.0
 40
0.0
 40
0.4071708311652897
 40
1.0
 40
1.0
 40
1.0
 40
1.0
 10
18.25093555152442
 20
29.53862636728042
 42
1.0
 10
18.29741369383499
 20
29.50274888669875
 42
1.0
 10
18.31552651528452
 20
29.34850064146644
 42
1.0
 10
18.23604355296101
 20
29.22927712752978
 42
1.0
 10
18.28061920517429
 20
29.14344268635682
 42
1.0
 97
        0
 72
     1
 10
18.28061920517429
 20
29.14344268635682
 11
18.98774696730679
 21
29.14344268635682
 72
     1
 10
18.98774696730679
 20
29.14344268635682
 11
18.98774696730679
 21
29.42380492355081
 72
     1
 10
18.98774696730679
 20
29.42380492355081
 11
19.11428395924128
 21
29.42380492355081
 72
     1
 10
19.11428395924128
 20
29.42380492355081
 11
19.11428395924128
 21
29.14344268635682
 72
     1
 10
19.11428395924128
 20
29.14344268635682
 11
19.30202323130653
 21
29.14344268635682
 72
     1
 10
19.30202323130653
 20
29.14344268635682
 11
19.89405107202551
 21
29.14344268635682
 72
     1
 10
19.89405107202551
 20
29.14344268635682
 11
19.89405107202551
 21
29.47264681447475
 72
     2
 10
19.82807151921984
 20
29.47264681447475
 40
0.0659795528056717
 50
0.0
 51
90.0
 73
     1
 72
     1
 10
19.82807151921984
 20
29.53862636728042
 11
18.25093555152442
 21
29.53862636728042
 97
        0
 75
     0
 76
     1
 52
0.0
 41
0.5
 77
     0
 78
     1
 53
45.0
 43
0.0
 44
0.0
 45
0.0331456303681194
 46
0.1215339780164378
 79
     4
 49
0.15625
 49
-0.03125
 49
0.0
 49
-0.03125
 98
        1
 10
0.0
 20
0.0
  0
HATCH
  5
75
330
4B
100
AcDbEntity
  8
BLOCKS
 62
    16
100
AcDbHatch
 10
0.0
 20
0.0
 30
0.0
210
0.0
220
0.0
230
1.0
  2
ANSI32
 70
     0
 71
     0
 91
        1
 92
        0
 93
        5
 72
     1
 10
19.08641943273533
 20
29.34959245337754
 11
19.04749254074577
 21
29.40478183438993
 72
     1
 10
19.04749254074577
 20
29.40478183438993
 11
19.00952756093279
 21
29.34959245337754
 72
     1
 10
19.00952756093279
 20
29.34959245337754
 11
19.00952756093279
 21
29.14344268635682
 72
     1
 10
19.00952756093279
 20
29.14344268635682
 11
19.08641943273533
 21
29.14344268635682
 72
     1
 10
19.08641943273533
 20
29.14344268635682
 11
19.08641943273533
 21
29.34959245337754
 97
        0
 75
     0
 76
     1
 52
0.0
 41
0.1666666667
 77
     0
 78
     2
 53
45.0
 43
0.0
 44
0.0
 45
-0.0441941738241592
 46
0.0441941738241592
 79
     0
 53
45.0
 43
0.0294627825
 44
0.0
 45
-0.0441941738241592
 46
0.0441941738241592
 79
     0
 98
        1
 10
0.0
 20
0.0
  0
HATCH
  5
76
330
4B
100
AcDbEntity
  8
BLOCKS
 62
    16
100
AcDbHatch
 10
0.0
 20
0.0
 30
0.0
210
0.0
220
0.0
230
1.0
  2
ANSI32
 70
     0
 71
     0
 91
        1
 92
        0
 93
        4
 72
     1
 10
19.08641943273533
 20
29.05410036351303
 11
19.08641943273533
 21
29.14344268635682
 72
     1
 10
19.08641943273533
 20
29.14344268635682
 11
19.00952756093279
 21
29.14344268635682
 72
     1
 10
19.00952756093279
 20
29.14344268635682
 11
19.00952756093279
 21
29.05821855059727
 72
     1
 10
19.00952756093279
 20
29.05821855059727
 11
19.08641943273533
 21
29.05410036351303
 97
        0
 75
     0
 76
     1
 52
0.0
 41
0.1666666667
 77
     0
 78
     2
 53
45.0
 43
0.0
 44
0.0
 45
-0.0441941738241592
 46
0.0441941738241592
 79
     0
 53
45.0
 43
0.0294627825
 44
0.0
 45
-0.0441941738241592
 46
0.0441941738241592
 79
     0
 98
        1
 10
0.0
 20
0.0
  0
HATCH
  5
77
330
4B
100
AcDbEntity
  8
BLOCKS
 62
    16
100
AcDbHatch
 10
0.0
 20
0.0
 30
0.0
210
0.0
220
0.0
230
1.0
  2
ANSI32
 70
     0
 71
     0
 91
        1
 92
        0
 93
        4
 72
     1
 10
19.08641943273533
 20
28.99844251081363
 11
19.08641943273533
 21
29.05410036351303
 72
     1
 10
19.08641943273533
 20
29.05410036351303
 11
19.00952756093279
 21
29.05821855059727
 72
     1
 10
19.00952756093279
 20
29.05821855059727
 11
19.00952756093279
 21
29.00291769059305
 72
     1
 10
19.00952756093279
 20
29.00291769059305
 11
19.08641943273533
 21
28.99844251081363
 97
        0
 75
     0
 76
     1
 52
0.0
 41
0.1666666667
 77
     0
 78
     2
 53
45.0
 43
0.0
 44
0.0
 45
-0.0441941738241592
 46
0.0441941738241592
 79
     0
 53
45.0
 43
0.0294627825
 44
0.0
 45
-0.0441941738241592
 46
0.0441941738241592
 79
     0
 98
        1
 10
0.0
 20
0.0
  0
HATCH
  5
78
330
4B
100
AcDbEntity
  8
BLOCKS
 62
    16
100
AcDbHatch
 10
0.0
 20
0.0
 30
0.0
210
0.0
220
0.0
230
1.0
  2
ANSI32
 70
     0
 71
     0
 91
        1
 92
        0
 93
        4
 72
     1
 10
19.00952756093279
 20
28.96742852935006
 11
19.08641943273534
 21
28.96295334957065
 72
     1
 10
19.08641943273534
 20
28.96295334957065
 11
19.08641943273534
 21
28.99518903540131
 72
     1
 10
19.08641943273534
 20
28.99518903540131
 11
19.0095275609328
 21
28.99966421518074
 72
     1
 10
19.0095275609328
 20
28.99966421518074
 11
19.00952756093279
 21
28.96742852935006
 97
        0
 75
     0
 76
     1
 52
0.0
 41
0.1666666667
 77
     0
 78
     2
 53
45.0
 43
0.0
 44
0.0
 45
-0.0441941738241592
 46
0.0441941738241592
 79
     0
 53
45.0
 43
0.0294627825
 44
0.0
 45
-0.0441941738241592
 46
0.0441941738241592
 79
     0
 98
        1
 10
0.0
 20
0.0
  0
HATCH
  5
79
330
4B
100
AcDbEntity
  8
BLOCKS
 62
    16
100
AcDbHatch
 10
0.0
 20
0.0
 30
0.0
210
0.0
220
0.0
230
1.0
  2
ANSI32
 70
     0
 71
     0
 91
        1
 92
        0
 93
        4
 72
     1
 10
19.0095275609328
 20
28.99966421518074
 11
18.94675248259694
 21
29.00331778420741
 72
     1
 10
18.94675248259694
 20
29.00331778420741
 11
18.94488266885844
 21
28.97119092330762
 72
     1
 10
18.94488266885844
 20
28.97119092330762
 11
19.00952756093279
 21
28.96742852935006
 72
     1
 10
19.00952756093279
 20
28.96742852935006
 11
19.0095275609328
 21
28.99966421518074
 97
        0
 75
     0
 76
     1
 52
0.0
 41
0.1666666667
 77
     0
 78
     2
 53
45.0
 43
0.0
 44
0.0
 45
-0.0441941738241592
 46
0.0441941738241592
 79
     0
 53
45.0
 43
0.0294627825
 44
0.0
 45
-0.0441941738241592
 46
0.0441941738241592
 79
     0
 98
        1
 10
0.0
 20
0.0
  0
HATCH
  5
7A
330
4B
100
AcDbEntity
  8
BLOCKS
 62
    16
100
AcDbHatch
 10
0.0
 20
0.0
 30
0.0
210
0.0
220
0.0
230
1.0
  2
ANSI32
 70
     0
 71
     0
 91
        1
 92
        0
 93
        4
 72
     1
 10
19.15729866039344
 20
28.95882811137627
 11
19.15916847413194
 21
28.99095497227606
 72
     1
 10
19.15916847413194
 20
28.99095497227606
 11
19.08641943273534
 21
28.99518903540131
 72
     1
 10
19.08641943273534
 20
28.99518903540131
 11
19.08641943273534
 21
28.96295334957065
 72
     1
 10
19.08641943273534
 20
28.96295334957065
 11
19.15729866039344
 21
28.95882811137627
 97
        0
 75
     0
 76
     1
 52
0.0
 41
0.1666666667
 77
     0
 78
     2
 53
45.0
 43
0.0
 44
0.0
 45
-0.0441941738241592
 46
0.0441941738241592
 79
     0
 53
45.0
 43
0.0294627825
 44
0.0
 45
-0.0441941738241592
 46
0.0441941738241592
 79
     0
 98
        1
 10
0.0
 20
0.0
  0
HATCH
  5
7B
330
4B
100
AcDbEntity
  8
BLOCKS
 62
    16
100
AcDbHatch
 10
0.0
 20
0.0
 30
0.0
210
0.0
220
0.0
230
1.0
  2
ANSI32
 70
     0
 71
     0
 91
        1
 92
        0
 93
        4
 72
     1
 10
19.00952756093279
 20
28.95929271682988
 11
18.96475594104669
 21
28.95929271682988
 72
     2
 10
19.04703816761626
 20
28.99084869604216
 40
0.0881257319589163
 50
200.9822712637957
 51
339.0177287362059
 73
     1
 72
     1
 10
19.12932039418586
 20
28.95929271682988
 11
19.08641943273533
 21
28.95929271682988
 72
     1
 10
19.08641943273533
 20
28.95929271682988
 11
19.00952756093279
 21
28.95929271682988
 97
        0
 75
     0
 76
     1
 52
0.0
 41
0.1666666667
 77
     0
 78
     2
 53
45.0
 43
0.0
 44
0.0
 45
-0.0441941738241592
 46
0.0441941738241592
 79
     0
 53
45.0
 43
0.0294627825
 44
0.0
 45
-0.0441941738241592
 46
0.0441941738241592
 79
     0
 98
        1
 10
0.0
 20
0.0
  0
HATCH
  5
7C
330
4B
100
AcDbEntity
  8
BLOCKS
 62
    16
100
AcDbHatch
 10
0.0
 20
0.0
 30
0.0
210
0.0
220
0.0
230
1.0
  2
SOLID
 70
     1
 71
     0
 91
        1
 92
        0
 93
        5
 72
     1
 10
19.90680635715495
 20
29.12174152375217
 11
19.89405107202551
 21
29.14344268635682
 72
     1
 10
19.89405107202551
 20
29.14344268635682
 11
19.30202323130653
 21
29.14344268635682
 72
     1
 10
19.30202323130653
 20
29.14344268635682
 11
19.34703094371573
 21
29.09872583179682
 72
     1
 10
19.34703094371573
 20
29.09872583179682
 11
19.34703094371572
 21
29.12174152375217
 72
     1
 10
19.34703094371572
 20
29.12174152375217
 11
19.90680635715495
 21
29.12174152375217
 97
        0
 75
     0
 76
     1
 98
        1
 10
0.0
 20
0.0
450
        0
451
        0
460
0.0
461
0.0
452
        0
462
0.0
453
        0
470

  0
INSERT
  5
94
330
4B
100
AcDbEntity
  8
BLOCKS
100
AcDbBlockReference
  2
SW_BLOCK_DIMENSION_0
 10
19.9473259871
 20
29.6493704876
 30
0.0
  0
ENDBLK
  5
4D
330
4B
100
AcDbEntity
  8
0
100
AcDbBlockEnd
  0
BLOCK
  5
7E
330
7D
100
AcDbEntity
  8
0
100
AcDbBlockBegin
  2
SW_BLOCK_DIMENSION_0
 70
     0
 10
0.0
 20
0.0
 30
0.0
  3
SW_BLOCK_DIMENSION_0
  1

  0
SOLID
  5
80
330
7D
100
AcDbEntity
  8
BLOCKS
 62
     0
100
AcDbTrace
 10
0.4467250849
 20
-0.0313006311
 30
0.0
 11
0.5478399938000001
 21
-0.0468567709
 31
0.0
 12
0.5478399938000001
 22
-0.0157444913
 32
0.0
 13
0.5478399938000001
 23
-0.0157444913
 33
0.0
  0
SOLID
  5
81
330
7D
100
AcDbEntity
  8
BLOCKS
 62
     0
100
AcDbTrace
 10
-0.0532749151
 20
-0.0313006311
 30
0.0
 11
-0.1543898239
 21
-0.0157444913
 31
0.0
 12
-0.1543898239
 22
-0.0468567709
 32
0.0
 13
-0.1543898239
 23
-0.0468567709
 33
0.0
  0
LINE
  5
82
330
7D
100
AcDbEntity
  8
BLOCKS
 62
     0
100
AcDbLine
 10
0.1071566371
 20
0.0798201425
 30
0.0
 11
0.2138310215
 21
0.0798201425
 31
0.0
  0
LINE
  5
83
330
7D
100
AcDbEntity
  8
BLOCKS
 62
     0
100
AcDbLine
 10
0.079089508
 20
-0.0940224566
 30
0.0
 11
0.0559413594
 21
-0.0940224566
 31
0.0
  0
LINE
  5
84
330
7D
100
AcDbEntity
  8
BLOCKS
 62
     0
100
AcDbLine
 10
0.0559413594
 20
-0.0940224566
 30
0.0
 11
0.0559413594
 21
-0.249307956
 31
0.0
  0
LINE
  5
85
330
7D
100
AcDbEntity
  8
BLOCKS
 62
     0
100
AcDbLine
 10
0.0559413594
 20
-0.249307956
 30
0.0
 11
0.079089508
 21
-0.249307956
 31
0.0
  0
LINE
  5
86
330
7D
100
AcDbEntity
  8
BLOCKS
 62
     0
100
AcDbLine
 10
0.2912808701
 20
-0.0940224566
 30
0.0
 11
0.3144290187
 21
-0.0940224566
 31
0.0
  0
LINE
  5
87
330
7D
100
AcDbEntity
  8
BLOCKS
 62
     0
100
AcDbLine
 10
0.3144290187
 20
-0.0940224566
 30
0.0
 11
0.3144290187
 21
-0.249307956
 31
0.0
  0
LINE
  5
88
330
7D
100
AcDbEntity
  8
BLOCKS
 62
     0
100
AcDbLine
 10
0.3144290187
 20
-0.249307956
 30
0.0
 11
0.2912808701
 21
-0.249307956
 31
0.0
  0
LINE
  5
89
330
7D
100
AcDbEntity
  8
BLOCKS
 62
     0
100
AcDbLine
 10
0.4467250849
 20
-0.711486603
 30
0.0
 11
0.4467250849
 21
0.0936993689
 31
0.0
  0
LINE
  5
8A
330
7D
100
AcDbEntity
  8
BLOCKS
 62
     0
100
AcDbLine
 10
-0.0532749151
 20
-0.1267236731
 30
0.0
 11
-0.0532749151
 21
0.0936993689
 31
0.0
  0
LINE
  5
8B
330
7D
100
AcDbEntity
  8
BLOCKS
 62
     0
100
AcDbLine
 10
0.4467250849
 20
-0.0313006311
 30
0.0
 11
0.6411768327000001
 21
-0.0313006311
 31
0.0
  0
LINE
  5
8C
330
7D
100
AcDbEntity
  8
BLOCKS
 62
     0
100
AcDbLine
 10
-0.0532749151
 20
-0.0313006311
 30
0.0
 11
-0.2477266629
 21
-0.0313006311
 31
0.0
  0
MTEXT
  5
8E
330
7D
100
AcDbEntity
  8
BLOCKS
 62
     0
100
AcDbMText
 10
0.0
 20
0.1342778896
 30
0.0039370079
 40
0.1041666667
 41
0.0
 46
0.0
 71
     1
 72
     1
  1
 
  7
SLDTEXTSTYLE0
 73
     1
 44
1.0
  0
MTEXT
  5
8F
330
7D
100
AcDbEntity
  8
BLOCKS
 62
     0
100
AcDbMText
 10
0.1219135808
 20
0.2052438631
 30
0.0039370079
 40
0.1041666667
 41
0.0
 46
0.0
 71
     1
 72
     1
  1
1
  7
SLDTEXTSTYLE0
 73
     1
 44
1.0
  0
MTEXT
  5
90
330
7D
100
AcDbEntity
  8
BLOCKS
 62
     0
100
AcDbMText
 10
0.1219135808
 20
0.0634035871
 30
0.0039370079
 40
0.1041666667
 41
0.0
 46
0.0
 71
     1
 72
     1
  1
2
  7
SLDTEXTSTYLE0
 73
     1
 44
1.0
  0
MTEXT
  5
91
330
7D
100
AcDbEntity
  8
BLOCKS
 62
     0
100
AcDbMText
 10
0.2285879652
 20
0.1342778896
 30
0.0039370079
 40
0.1041666667
 41
0.0
 46
0.0
 71
     1
 72
     1
  1
"
  7
SLDTEXTSTYLE0
 73
     1
 44
1.0
  0
MTEXT
  5
92
330
7D
100
AcDbEntity
  8
BLOCKS
 62
     0
100
AcDbMText
 10
0.1080246921
 20
-0.1150300596
 30
0.0039370079
 40
0.1041666667
 41
0.0
 46
0.0
 71
     1
 72
     1
  1
13
  7
SLDTEXTSTYLE0
 73
     1
 44
1.0
  0
MTEXT
  5
93
330
7D
100
AcDbEntity
  8
BLOCKS
 62
     0
100
AcDbMText
 10
0.3317901205
 20
0.1342778896
 30
0.0039370079
 40
0.1041666667
 41
0.0
 46
0.0
 71
     1
 72
     1
  1
 
  7
SLDTEXTSTYLE0
 73
     1
 44
1.0
  0
ENDBLK
  5
7F
330
7D
100
AcDbEntity
  8
0
100
AcDbBlockEnd
  0
BLOCK
  5
AB
330
AA
100
AcDbEntity
  8
0
100
AcDbBlockBegin
  2
_D
 70
     0
 10
0.0
 20
0.0
 30
0.0
  3
_D
  1

  0
SOLID
  5
AD
330
AA
100
AcDbEntity
  8
DIMS
440
 16777216
100
AcDbTrace
 10
18.4559438188
 20
17.2068263751
 30
0.0
 11
18.3509826511
 21
16.9624193605
 31
0.0
 12
18.4292997268
 22
16.9421723974
 32
0.0
 13
18.4292997268
 23
16.9421723974
 33
0.0
  0
LINE
  5
AE
330
AA
100
AcDbEntity
  8
DIMS
440
 16777216
100
AcDbLine
 10
17.2559808504
 20
16.0758343451
 30
0.0
 11
17.1957956644
 21
16.0758343451
 31
0.0
  0
LINE
  5
AF
330
AA
100
AcDbEntity
  8
DIMS
440
 16777216
100
AcDbLine
 10
17.1957956644
 20
16.0758343451
 30
0.0
 11
17.1957956644
 21
15.6720920758
 31
0.0
  0
LINE
  5
B0
330
AA
100
AcDbEntity
  8
DIMS
440
 16777216
100
AcDbLine
 10
17.1957956644
 20
15.6720920758
 30
0.0
 11
17.2559808504
 21
15.6720920758
 31
0.0
  0
LINE
  5
B1
330
AA
100
AcDbEntity
  8
DIMS
440
 16777216
100
AcDbLine
 10
17.8076783771
 20
16.0758343451
 30
0.0
 11
17.8678635631
 21
16.0758343451
 31
0.0
  0
LINE
  5
B2
330
AA
100
AcDbEntity
  8
DIMS
440
 16777216
100
AcDbLine
 10
17.8678635631
 20
16.0758343451
 30
0.0
 11
17.8678635631
 21
15.6720920758
 31
0.0
  0
LINE
  5
B3
330
AA
100
AcDbEntity
  8
DIMS
440
 16777216
100
AcDbLine
 10
17.8678635631
 20
15.6720920758
 30
0.0
 11
17.8076783771
 21
15.6720920758
 31
0.0
  0
LINE
  5
B4
330
AA
100
AcDbEntity
  8
DIMS
440
 16777216
100
AcDbLine
 10
18.4559438188
 20
17.2068263751
 30
0.0
 11
18.1630024537
 21
16.0737028034
 31
0.0
  0
LINE
  5
B5
330
AA
100
AcDbEntity
  8
DIMS
440
 16777216
100
AcDbLine
 10
18.1630024537
 20
16.0737028034
 30
0.0
 11
17.9130024537
 21
16.0737028034
 31
0.0
  0
MTEXT
  5
B6
330
AA
100
AcDbEntity
  8
DIMS
440
 16777216
100
AcDbMText
 10
17.2369222139
 20
16.4851420485
 30
5.1890401575
 40
0.2708333333
 41
0.0
 46
0.0
 71
     1
 72
     1
  1
R2"
  7
SLDTEXTSTYLE0
 73
     1
 44
1.0
  0
MTEXT
  5
B7
330
AA
100
AcDbEntity
  8
DIMS
440
 16777216
100
AcDbMText
 10
17.3312123363
 20
16.0212145795
 30
5.1890401575
 40
0.2708333333
 41
0.0
 46
0.0
 71
     1
 72
     1
  1
51
  7
SLDTEXTSTYLE0
 73
     1
 44
1.0
  0
ENDBLK
  5
AC
330
AA
100
AcDbEntity
  8
0
100
AcDbBlockEnd
  0
BLOCK
  5
BA
330
B9
100
AcDbEntity
  8
0
100
AcDbBlockBegin
  2
_D_1
 70
     0
 10
0.0
 20
0.0
 30
0.0
  3
_D_1
  1

  0
SOLID
  5
BC
330
B9
100
AcDbEntity
  8
DIMS
440
 16777216
100
AcDbTrace
 10
30.3375271996
 20
17.207138551
 30
0.0
 11
30.3643361293
 21
16.9425012202
 31
0.0
 12
30.4426405788
 22
16.96279696
 32
0.0
 13
30.4426405788
 23
16.96279696
 33
0.0
  0
LINE
  5
BD
330
B9
100
AcDbEntity
  8
DIMS
440
 16777216
100
AcDbLine
 10
31.0469911661
 20
15.8429375843
 30
0.0
 11
30.9868059801
 21
15.8429375843
 31
0.0
  0
LINE
  5
BE
330
B9
100
AcDbEntity
  8
DIMS
440
 16777216
100
AcDbLine
 10
30.9868059801
 20
15.8429375843
 30
0.0
 11
30.9868059801
 21
15.439195315
 31
0.0
  0
LINE
  5
BF
330
B9
100
AcDbEntity
  8
DIMS
440
 16777216
100
AcDbLine
 10
30.9868059801
 20
15.439195315
 30
0.0
 11
31.0469911661
 21
15.439195315
 31
0.0
  0
LINE
  5
C0
330
B9
100
AcDbEntity
  8
DIMS
440
 16777216
100
AcDbLine
 10
31.5986886928
 20
15.8429375843
 30
0.0
 11
31.6588738788
 21
15.8429375843
 31
0.0
  0
LINE
  5
C1
330
B9
100
AcDbEntity
  8
DIMS
440
 16777216
100
AcDbLine
 10
31.6588738788
 20
15.8429375843
 30
0.0
 11
31.6588738788
 21
15.439195315
 31
0.0
  0
LINE
  5
C2
330
B9
100
AcDbEntity
  8
DIMS
440
 16777216
100
AcDbLine
 10
31.6588738788
 20
15.439195315
 30
0.0
 11
31.5986886928
 21
15.439195315
 31
0.0
  0
LINE
  5
C3
330
B9
100
AcDbEntity
  8
DIMS
440
 16777216
100
AcDbLine
 10
30.3375271996
 20
17.207138551
 30
0.0
 11
30.6916670894
 21
15.8408060426
 31
0.0
  0
LINE
  5
C4
330
B9
100
AcDbEntity
  8
DIMS
440
 16777216
100
AcDbLine
 10
30.6916670894
 20
15.8408060426
 30
0.0
 11
30.9416670894
 21
15.8408060426
 31
0.0
  0
MTEXT
  5
C5
330
B9
100
AcDbEntity
  8
DIMS
440
 16777216
100
AcDbMText
 10
31.0279325296
 20
16.2522452877
 30
5.1890401575
 40
0.2708333333
 41
0.0
 46
0.0
 71
     1
 72
     1
  1
R2"
  7
SLDTEXTSTYLE0
 73
     1
 44
1.0
  0
MTEXT
  5
C6
330
B9
100
AcDbEntity
  8
DIMS
440
 16777216
100
AcDbMText
 10
31.122222652
 20
15.7883178187
 30
5.1890401575
 40
0.2708333333
 41
0.0
 46
0.0
 71
     1
 72
     1
  1
51
  7
SLDTEXTSTYLE0
 73
     1
 44
1.0
  0
ENDBLK
  5
BB
330
B9
100
AcDbEntity
  8
0
100
AcDbBlockEnd
  0
BLOCK
  5
CA
330
C9
100
AcDbEntity
  8
0
100
AcDbBlockBegin
  2
_D_2
 70
     0
 10
0.0
 20
0.0
 30
0.0
  3
_D_2
  1

  0
SOLID
  5
CC
330
C9
100
AcDbEntity
  8
DIMS
440
 16777216
100
AcDbTrace
 10
29.9096738534
 20
17.1431648598
 30
0.0
 11
29.8692278898
 21
16.8802660968
 31
0.0
 12
29.9501198169
 22
16.8802660968
 32
0.0
 13
29.9501198169
 23
16.8802660968
 33
0.0
  0
SOLID
  5
CD
330
C9
100
AcDbEntity
  8
DIMS
440
 16777216
100
AcDbTrace
 10
29.9096738534
 20
2.0328706457
 30
0.0
 11
29.9501198169
 21
2.2957694087
 31
0.0
 12
29.8692278898
 22
2.2957694087
 32
0.0
 13
29.8692278898
 23
2.2957694087
 33
0.0
  0
LINE
  5
CE
330
C9
100
AcDbEntity
  8
DIMS
440
 16777216
100
AcDbLine
 10
29.9074169269
 20
10.8823296445
 30
0.0
 11
30.1847703079
 21
10.8823296445
 31
0.0
  0
LINE
  5
CF
330
C9
100
AcDbEntity
  8
DIMS
440
 16777216
100
AcDbLine
 10
29.5335164788
 20
10.4303389168
 30
0.0
 11
29.4733312928
 21
10.4303389168
 31
0.0
  0
LINE
  5
D0
330
C9
100
AcDbEntity
  8
DIMS
440
 16777216
100
AcDbLine
 10
29.4733312928
 20
10.4303389168
 30
0.0
 11
29.4733312928
 21
10.0265966475
 31
0.0
  0
LINE
  5
D1
330
C9
100
AcDbEntity
  8
DIMS
440
 16777216
100
AcDbLine
 10
29.4733312928
 20
10.0265966475
 30
0.0
 11
29.5335164788
 21
10.0265966475
 31
0.0
  0
LINE
  5
D2
330
C9
100
AcDbEntity
  8
DIMS
440
 16777216
100
AcDbLine
 10
30.2858312646
 20
10.4303389168
 30
0.0
 11
30.3460164506
 21
10.4303389168
 31
0.0
  0
LINE
  5
D3
330
C9
100
AcDbEntity
  8
DIMS
440
 16777216
100
AcDbLine
 10
30.3460164506
 20
10.4303389168
 30
0.0
 11
30.3460164506
 21
10.0265966475
 31
0.0
  0
LINE
  5
D4
330
C9
100
AcDbEntity
  8
DIMS
440
 16777216
100
AcDbLine
 10
30.3460164506
 20
10.0265966475
 30
0.0
 11
30.2858312646
 21
10.0265966475
 31
0.0
  0
LINE
  5
D5
330
C9
100
AcDbEntity
  8
DIMS
440
 16777216
100
AcDbLine
 10
29.885728304
 20
17.1431648598
 30
0.0
 11
30.0346738534
 21
17.1431648598
 31
0.0
  0
LINE
  5
D6
330
C9
100
AcDbEntity
  8
DIMS
440
 16777216
100
AcDbLine
 10
29.9096738534
 20
17.1431648598
 30
0.0
 11
29.9096738534
 21
11.220419933
 31
0.0
  0
LINE
  5
D7
330
C9
100
AcDbEntity
  8
DIMS
440
 16777216
100
AcDbLine
 10
29.9096738534
 20
2.0328706457
 30
0.0
 11
29.9096738534
 21
9.966411539500001
 31
0.0
  0
MTEXT
  5
D8
330
C9
100
AcDbEntity
  8
DIMS
440
 16777216
100
AcDbMText
 10
29.4678143111
 20
11.0239198098
 30
5.1890401575
 40
0.2708333333
 41
0.0
 46
0.0
 71
     1
 72
     1
  1
15
  7
SLDTEXTSTYLE0
 73
     1
 44
1.0
  0
MTEXT
  5
D9
330
C9
100
AcDbEntity
  8
DIMS
440
 16777216
100
AcDbMText
 10
29.9457849787
 20
11.20843133
 30
5.1890401575
 40
0.2708333333
 41
0.0
 46
0.0
 71
     1
 72
     1
  1
1
  7
SLDTEXTSTYLE0
 73
     1
 44
1.0
  0
MTEXT
  5
DA
330
C9
100
AcDbEntity
  8
DIMS
440
 16777216
100
AcDbMText
 10
29.9457849787
 20
10.8396465927
 30
5.1890401575
 40
0.2708333333
 41
0.0
 46
0.0
 71
     1
 72
     1
  1
8
  7
SLDTEXTSTYLE0
 73
     1
 44
1.0
  0
MTEXT
  5
DB
330
C9
100
AcDbEntity
  8
DIMS
440
 16777216
100
AcDbMText
 10
30.2231383322
 20
11.0239198098
 30
5.1890401575
 40
0.2708333333
 41
0.0
 46
0.0
 71
     1
 72
     1
  1
"
  7
SLDTEXTSTYLE0
 73
     1
 44
1.0
  0
MTEXT
  5
DC
330
C9
100
AcDbEntity
  8
DIMS
440
 16777216
100
AcDbMText
 10
29.6087479647
 20
10.3757191512
 30
5.1890401575
 40
0.2708333333
 41
0.0
 46
0.0
 71
     1
 72
     1
  1
384
  7
SLDTEXTSTYLE0
 73
     1
 44
1.0
  0
ENDBLK
  5
CB
330
C9
100
AcDbEntity
  8
0
100
AcDbBlockEnd
  0
BLOCK
  5
E0
330
DF
100
AcDbEntity
  8
0
100
AcDbBlockBegin
  2
_D_3
 70
     0
 10
0.0
 20
0.0
 30
0.0
  3
_D_3
  1

  0
SOLID
  5
E2
330
DF
100
AcDbEntity
  8
DIMS
440
 16777216
100
AcDbTrace
 10
40.2432329847
 20
6.8865413445
 30
0.0
 11
39.9803342217
 21
6.926987308099999
 31
0.0
 12
39.9803342217
 22
6.846095381
 32
0.0
 13
39.9803342217
 23
6.846095381
 33
0.0
  0
SOLID
  5
E3
330
DF
100
AcDbEntity
  8
DIMS
440
 16777216
100
AcDbTrace
 10
2.2432329847
 20
6.8865413445
 30
0.0
 11
2.5061317477
 21
6.846095381
 31
0.0
 12
2.5061317477
 22
6.926987308099999
 32
0.0
 13
2.5061317477
 23
6.926987308099999
 33
0.0
  0
LINE
  5
E4
330
DF
100
AcDbEntity
  8
DIMS
440
 16777216
100
AcDbLine
 10
21.1449667019
 20
6.907856916599999
 30
0.0
 11
21.084781516
 21
6.907856916599999
 31
0.0
  0
LINE
  5
E5
330
DF
100
AcDbEntity
  8
DIMS
440
 16777216
100
AcDbLine
 10
21.084781516
 20
6.907856916599999
 30
0.0
 11
21.084781516
 21
6.504114647399999
 31
0.0
  0
LINE
  5
E6
330
DF
100
AcDbEntity
  8
DIMS
440
 16777216
100
AcDbLine
 10
21.084781516
 20
6.504114647399999
 30
0.0
 11
21.1449667019
 21
6.504114647399999
 31
0.0
  0
LINE
  5
E7
330
DF
100
AcDbEntity
  8
DIMS
440
 16777216
100
AcDbLine
 10
21.8972814878
 20
6.907856916599999
 30
0.0
 11
21.9574666738
 21
6.907856916599999
 31
0.0
  0
LINE
  5
E8
330
DF
100
AcDbEntity
  8
DIMS
440
 16777216
100
AcDbLine
 10
21.9574666738
 20
6.907856916599999
 30
0.0
 11
21.9574666738
 21
6.504114647399999
 31
0.0
  0
LINE
  5
E9
330
DF
100
AcDbEntity
  8
DIMS
440
 16777216
100
AcDbLine
 10
21.9574666738
 20
6.504114647399999
 30
0.0
 11
21.8972814878
 21
6.504114647399999
 31
0.0
  0
LINE
  5
EA
330
DF
100
AcDbEntity
  8
DIMS
440
 16777216
100
AcDbLine
 10
40.2432329847
 20
6.8865413445
 30
0.0
 11
22.0627841091
 21
6.8865413445
 31
0.0
  0
LINE
  5
EB
330
DF
100
AcDbEntity
  8
DIMS
440
 16777216
100
AcDbLine
 10
2.2432329847
 20
6.8865413445
 30
0.0
 11
20.979464044
 21
6.8865413445
 31
0.0
  0
MTEXT
  5
EC
330
DF
100
AcDbEntity
  8
DIMS
440
 16777216
100
AcDbMText
 10
21.2563092674
 20
7.317164620099999
 30
5.1890401575
 40
0.2708333333
 41
0.0
 46
0.0
 71
     1
 72
     1
  1
38"
  7
SLDTEXTSTYLE0
 73
     1
 44
1.0
  0
MTEXT
  5
ED
330
DF
100
AcDbEntity
  8
DIMS
440
 16777216
100
AcDbMText
 10
21.2201981879
 20
6.8532371511
 30
5.1890401575
 40
0.2708333333
 41
0.0
 46
0.0
 71
     1
 72
     1
  1
965
  7
SLDTEXTSTYLE0
 73
     1
 44
1.0
  0
ENDBLK
  5
E1
330
DF
100
AcDbEntity
  8
0
100
AcDbBlockEnd
  0
BLOCK
  5
F0
330
EF
100
AcDbEntity
  8
0
100
AcDbBlockBegin
  2
_D_4
 70
     0
 10
0.0
 20
0.0
 30
0.0
  3
_D_4
  1

  0
SOLID
  5
F2
330
EF
100
AcDbEntity
  8
DIMS
440
 16777216
100
AcDbTrace
 10
34.5500247059
 20
18.0328706457
 30
0.0
 11
34.5095787423
 21
17.7699718827
 31
0.0
 12
34.5904706694
 22
17.7699718827
 32
0.0
 13
34.5904706694
 23
17.7699718827
 33
0.0
  0
SOLID
  5
F3
330
EF
100
AcDbEntity
  8
DIMS
440
 16777216
100
AcDbTrace
 10
34.5500247059
 20
2.0328706457
 30
0.0
 11
34.5904706694
 21
2.2957694087
 31
0.0
 12
34.5095787423
 22
2.2957694087
 32
0.0
 13
34.5095787423
 23
2.2957694087
 33
0.0
  0
LINE
  5
F4
330
EF
100
AcDbEntity
  8
DIMS
440
 16777216
100
AcDbLine
 10
34.1738673313
 20
9.048197142399999
 30
0.0
 11
34.1136821453
 21
9.048197142399999
 31
0.0
  0
LINE
  5
F5
330
EF
100
AcDbEntity
  8
DIMS
440
 16777216
100
AcDbLine
 10
34.1136821453
 20
9.048197142399999
 30
0.0
 11
34.1136821453
 21
8.644454873099999
 31
0.0
  0
LINE
  5
F6
330
EF
100
AcDbEntity
  8
DIMS
440
 16777216
100
AcDbLine
 10
34.1136821453
 20
8.644454873099999
 30
0.0
 11
34.1738673313
 21
8.644454873099999
 31
0.0
  0
LINE
  5
F7
330
EF
100
AcDbEntity
  8
DIMS
440
 16777216
100
AcDbLine
 10
34.9261821171
 20
9.048197142399999
 30
0.0
 11
34.9863673031
 21
9.048197142399999
 31
0.0
  0
LINE
  5
F8
330
EF
100
AcDbEntity
  8
DIMS
440
 16777216
100
AcDbLine
 10
34.9863673031
 20
9.048197142399999
 30
0.0
 11
34.9863673031
 21
8.644454873099999
 31
0.0
  0
LINE
  5
F9
330
EF
100
AcDbEntity
  8
DIMS
440
 16777216
100
AcDbLine
 10
34.9863673031
 20
8.644454873099999
 30
0.0
 11
34.9261821171
 21
8.644454873099999
 31
0.0
  0
LINE
  5
FA
330
EF
100
AcDbEntity
  8
DIMS
440
 16777216
100
AcDbLine
 10
34.0432329847
 20
18.0328706457
 30
0.0
 11
34.6750247059
 21
18.0328706457
 31
0.0
  0
LINE
  5
FB
330
EF
100
AcDbEntity
  8
DIMS
440
 16777216
100
AcDbLine
 10
34.5500247059
 20
18.0328706457
 30
0.0
 11
34.5500247059
 21
9.4694934306
 31
0.0
  0
LINE
  5
FC
330
EF
100
AcDbEntity
  8
DIMS
440
 16777216
100
AcDbLine
 10
34.5500247059
 20
2.0328706457
 30
0.0
 11
34.5500247059
 21
8.584269710099999
 31
0.0
  0
MTEXT
  5
FD
330
EF
100
AcDbEntity
  8
DIMS
440
 16777216
100
AcDbMText
 10
34.2852098967
 20
9.4575048458
 30
5.1890401575
 40
0.2708333333
 41
0.0
 46
0.0
 71
     1
 72
     1
  1
16"
  7
SLDTEXTSTYLE0
 73
     1
 44
1.0
  0
MTEXT
  5
FE
330
EF
100
AcDbEntity
  8
DIMS
440
 16777216
100
AcDbMText
 10
34.2490988172
 20
8.993577376799999
 30
5.1890401575
 40
0.2708333333
 41
0.0
 46
0.0
 71
     1
 72
     1
  1
406
  7
SLDTEXTSTYLE0
 73
     1
 44
1.0
  0
ENDBLK
  5
F1
330
EF
100
AcDbEntity
  8
0
100
AcDbBlockEnd
  0
BLOCK
  5
101
330
100
100
AcDbEntity
  8
0
100
AcDbBlockBegin
  2
_D_5
 70
     0
 10
0.0
 20
0.0
 30
0.0
  3
_D_5
  1

  0
SOLID
  5
103
330
100
100
AcDbEntity
  8
DIMS
440
 16777216
100
AcDbTrace
 10
10.2945107556
 20
20.5328706457
 30
0.0
 11
10.254064792
 21
20.2699718827
 31
0.0
 12
10.3349567191
 22
20.2699718827
 32
0.0
 13
10.3349567191
 23
20.2699718827
 33
0.0
  0
SOLID
  5
104
330
100
100
AcDbEntity
  8
DIMS
440
 16777216
100
AcDbTrace
 10
10.2945107556
 20
2.0328706457
 30
0.0
 11
10.3349567191
 21
2.2957694087
 31
0.0
 12
10.254064792
 22
2.2957694087
 32
0.0
 13
10.254064792
 23
2.2957694087
 33
0.0
  0
LINE
  5
105
330
100
100
AcDbEntity
  8
DIMS
440
 16777216
100
AcDbLine
 10
10.2922538292
 20
15.8157535578
 30
0.0
 11
10.5696072101
 21
15.8157535578
 31
0.0
  0
LINE
  5
106
330
100
100
AcDbEntity
  8
DIMS
440
 16777216
100
AcDbLine
 10
9.918353381000001
 20
15.3637628301
 30
0.0
 11
9.858168194999999
 21
15.3637628301
 31
0.0
  0
LINE
  5
107
330
100
100
AcDbEntity
  8
DIMS
440
 16777216
100
AcDbLine
 10
9.858168194999999
 20
15.3637628301
 30
0.0
 11
9.858168194999999
 21
14.9600205608
 31
0.0
  0
LINE
  5
108
330
100
100
AcDbEntity
  8
DIMS
440
 16777216
100
AcDbLine
 10
9.858168194999999
 20
14.9600205608
 30
0.0
 11
9.918353381000001
 21
14.9600205608
 31
0.0
  0
LINE
  5
109
330
100
100
AcDbEntity
  8
DIMS
440
 16777216
100
AcDbLine
 10
10.6706681668
 20
15.3637628301
 30
0.0
 11
10.7308533528
 21
15.3637628301
 31
0.0
  0
LINE
  5
10A
330
100
100
AcDbEntity
  8
DIMS
440
 16777216
100
AcDbLine
 10
10.7308533528
 20
15.3637628301
 30
0.0
 11
10.7308533528
 21
14.9600205608
 31
0.0
  0
LINE
  5
10B
330
100
100
AcDbEntity
  8
DIMS
440
 16777216
100
AcDbLine
 10
10.7308533528
 20
14.9600205608
 30
0.0
 11
10.6706681668
 21
14.9600205608
 31
0.0
  0
LINE
  5
10C
330
100
100
AcDbEntity
  8
DIMS
440
 16777216
100
AcDbLine
 10
10.6932329847
 20
20.5328706457
 30
0.0
 11
10.1695107556
 21
20.5328706457
 31
0.0
  0
LINE
  5
10D
330
100
100
AcDbEntity
  8
DIMS
440
 16777216
100
AcDbLine
 10
10.2945107556
 20
20.5328706457
 30
0.0
 11
10.2945107556
 21
16.1538438464
 31
0.0
  0
LINE
  5
10E
330
100
100
AcDbEntity
  8
DIMS
440
 16777216
100
AcDbLine
 10
10.2945107556
 20
2.0328706457
 30
0.0
 11
10.2945107556
 21
14.8998354528
 31
0.0
  0
MTEXT
  5
10F
330
100
100
AcDbEntity
  8
DIMS
440
 16777216
100
AcDbMText
 10
9.852651213299999
 20
15.9573437231
 30
5.1890401575
 40
0.2708333333
 41
0.0
 46
0.0
 71
     1
 72
     1
  1
18
  7
SLDTEXTSTYLE0
 73
     1
 44
1.0
  0
MTEXT
  5
110
330
100
100
AcDbEntity
  8
DIMS
440
 16777216
100
AcDbMText
 10
10.3306218809
 20
16.1418552433
 30
5.1890401575
 40
0.2708333333
 41
0.0
 46
0.0
 71
     1
 72
     1
  1
1
  7
SLDTEXTSTYLE0
 73
     1
 44
1.0
  0
MTEXT
  5
111
330
100
100
AcDbEntity
  8
DIMS
440
 16777216
100
AcDbMText
 10
10.3306218809
 20
15.773070506
 30
5.1890401575
 40
0.2708333333
 41
0.0
 46
0.0
 71
     1
 72
     1
  1
2
  7
SLDTEXTSTYLE0
 73
     1
 44
1.0
  0
MTEXT
  5
112
330
100
100
AcDbEntity
  8
DIMS
440
 16777216
100
AcDbMText
 10
10.6079752344
 20
15.9573437231
 30
5.1890401575
 40
0.2708333333
 41
0.0
 46
0.0
 71
     1
 72
     1
  1
"
  7
SLDTEXTSTYLE0
 73
     1
 44
1.0
  0
MTEXT
  5
113
330
100
100
AcDbEntity
  8
DIMS
440
 16777216
100
AcDbMText
 10
9.9935848669
 20
15.3091430645
 30
5.1890401575
 40
0.2708333333
 41
0.0
 46
0.0
 71
     1
 72
     1
  1
470
  7
SLDTEXTSTYLE0
 73
     1
 44
1.0
  0
ENDBLK
  5
102
330
100
100
AcDbEntity
  8
0
100
AcDbBlockEnd
  0
BLOCK
  5
116
330
115
100
AcDbEntity
  8
0
100
AcDbBlockBegin
  2
_D_6
 70
     0
 10
0.0
 20
0.0
 30
0.0
  3
_D_6
  1

  0
SOLID
  5
118
330
115
100
AcDbEntity
  8
DIMS
440
 16777216
100
AcDbTrace
 10
6.175196077599999
 20
19.5579756207
 30
0.0
 11
6.264691336499999
 21
19.3074916208
 31
0.0
 12
6.3358428158
 22
19.345975005
 32
0.0
 13
6.3358428158
 23
19.345975005
 33
0.0
  0
LINE
  5
119
330
115
100
AcDbEntity
  8
DIMS
440
 16777216
100
AcDbLine
 10
6.8580024848
 20
18.6359217418
 30
0.0
 11
7.1353558658
 21
18.6359217418
 31
0.0
  0
LINE
  5
11A
330
115
100
AcDbEntity
  8
DIMS
440
 16777216
100
AcDbLine
 10
6.454009464299999
 20
18.1839310141
 30
0.0
 11
6.3938242783
 21
18.1839310141
 31
0.0
  0
LINE
  5
11B
330
115
100
AcDbEntity
  8
DIMS
440
 16777216
100
AcDbLine
 10
6.3938242783
 20
18.1839310141
 30
0.0
 11
6.3938242783
 21
17.7801887448
 31
0.0
  0
LINE
  5
11C
330
115
100
AcDbEntity
  8
DIMS
440
 16777216
100
AcDbLine
 10
6.3938242783
 20
17.7801887448
 30
0.0
 11
6.454009464299999
 21
17.7801887448
 31
0.0
  0
LINE
  5
11D
330
115
100
AcDbEntity
  8
DIMS
440
 16777216
100
AcDbLine
 10
7.206324250099999
 20
18.1839310141
 30
0.0
 11
7.266509436099999
 21
18.1839310141
 31
0.0
  0
LINE
  5
11E
330
115
100
AcDbEntity
  8
DIMS
440
 16777216
100
AcDbLine
 10
7.266509436099999
 20
18.1839310141
 30
0.0
 11
7.266509436099999
 21
17.7801887448
 31
0.0
  0
LINE
  5
11F
330
115
100
AcDbEntity
  8
DIMS
440
 16777216
100
AcDbLine
 10
7.266509436099999
 20
17.7801887448
 30
0.0
 11
7.206324250099999
 21
17.7801887448
 31
0.0
  0
LINE
  5
120
330
115
100
AcDbEntity
  8
DIMS
440
 16777216
100
AcDbLine
 10
9.7432329847
 20
12.961073876
 30
0.0
 11
7.169291810199999
 21
17.7200036367
 31
0.0
  0
LINE
  5
121
330
115
100
AcDbEntity
  8
DIMS
440
 16777216
100
AcDbLine
 10
6.175196077599999
 20
19.5579756207
 30
0.0
 11
6.491041867499999
 21
18.9740120303
 31
0.0
  0
MTEXT
  5
122
330
115
100
AcDbEntity
  8
DIMS
440
 16777216
100
AcDbMText
 10
6.3582146876
 20
18.7775119071
 30
5.1890401575
 40
0.2708333333
 41
0.0
 46
0.0
 71
     1
 72
     1
  1
R7
  7
SLDTEXTSTYLE0
 73
     1
 44
1.0
  0
MTEXT
  5
123
330
115
100
AcDbEntity
  8
DIMS
440
 16777216
100
AcDbMText
 10
6.8963705366
 20
18.9620234273
 30
5.1890401575
 40
0.2708333333
 41
0.0
 46
0.0
 71
     1
 72
     1
  1
1
  7
SLDTEXTSTYLE0
 73
     1
 44
1.0
  0
MTEXT
  5
124
330
115
100
AcDbEntity
  8
DIMS
440
 16777216
100
AcDbMText
 10
6.8963705366
 20
18.59323869
 30
5.1890401575
 40
0.2708333333
 41
0.0
 46
0.0
 71
     1
 72
     1
  1
2
  7
SLDTEXTSTYLE0
 73
     1
 44
1.0
  0
MTEXT
  5
125
330
115
100
AcDbEntity
  8
DIMS
440
 16777216
100
AcDbMText
 10
7.173723926699999
 20
18.7775119071
 30
5.1890401575
 40
0.2708333333
 41
0.0
 46
0.0
 71
     1
 72
     1
  1
"
  7
SLDTEXTSTYLE0
 73
     1
 44
1.0
  0
MTEXT
  5
126
330
115
100
AcDbEntity
  8
DIMS
440
 16777216
100
AcDbMText
 10
6.5292409502
 20
18.1293112485
 30
5.1890401575
 40
0.2708333333
 41
0.0
 46
0.0
 71
     1
 72
     1
  1
191
  7
SLDTEXTSTYLE0
 73
     1
 44
1.0
  0
ENDBLK
  5
117
330
115
100
AcDbEntity
  8
0
100
AcDbBlockEnd
  0
BLOCK
  5
129
330
128
100
AcDbEntity
  8
0
100
AcDbBlockBegin
  2
_D_7
 70
     0
 10
0.0
 20
0.0
 30
0.0
  3
_D_7
  1

  0
SOLID
  5
12B
330
128
100
AcDbEntity
  8
DIMS
440
 16777216
100
AcDbTrace
 10
3.7498852654
 20
2.655968688799999
 30
0.0
 11
3.932858899999999
 21
2.849029002099999
 31
0.0
 12
3.8663680019
 22
2.895099213099999
 32
0.0
 13
3.8663680019
 23
2.895099213099999
 33
0.0
  0
LINE
  5
12C
330
128
100
AcDbEntity
  8
DIMS
440
 16777216
100
AcDbLine
 10
4.667836315199999
 20
4.2295429313
 30
0.0
 11
4.945189696199999
 21
4.2295429313
 31
0.0
  0
LINE
  5
12D
330
128
100
AcDbEntity
  8
DIMS
440
 16777216
100
AcDbLine
 10
4.3641519059
 20
3.777552203599999
 30
0.0
 11
4.3039667199
 21
3.777552203599999
 31
0.0
  0
LINE
  5
12E
330
128
100
AcDbEntity
  8
DIMS
440
 16777216
100
AcDbLine
 10
4.3039667199
 20
3.777552203599999
 30
0.0
 11
4.3039667199
 21
3.3738099343
 31
0.0
  0
LINE
  5
12F
330
128
100
AcDbEntity
  8
DIMS
440
 16777216
100
AcDbLine
 10
4.3039667199
 20
3.3738099343
 30
0.0
 11
4.3641519059
 21
3.3738099343
 31
0.0
  0
LINE
  5
130
330
128
100
AcDbEntity
  8
DIMS
440
 16777216
100
AcDbLine
 10
4.915849432699999
 20
3.777552203599999
 30
0.0
 11
4.976034618599999
 21
3.777552203599999
 31
0.0
  0
LINE
  5
131
330
128
100
AcDbEntity
  8
DIMS
440
 16777216
100
AcDbLine
 10
4.976034618599999
 20
3.777552203599999
 30
0.0
 11
4.976034618599999
 21
3.3738099343
 31
0.0
  0
LINE
  5
132
330
128
100
AcDbEntity
  8
DIMS
440
 16777216
100
AcDbLine
 10
4.976034618599999
 20
3.3738099343
 30
0.0
 11
4.915849432699999
 21
3.3738099343
 31
0.0
  0
LINE
  5
133
330
128
100
AcDbEntity
  8
DIMS
440
 16777216
100
AcDbLine
 10
5.7432329847
 20
5.5328706457
 30
0.0
 11
5.0744393135
 21
4.5676332198
 31
0.0
  0
LINE
  5
134
330
128
100
AcDbEntity
  8
DIMS
440
 16777216
100
AcDbLine
 10
3.7498852654
 20
2.655968688799999
 30
0.0
 11
4.205562025099999
 21
3.313624826199999
 31
0.0
  0
MTEXT
  5
135
330
128
100
AcDbEntity
  8
DIMS
440
 16777216
100
AcDbMText
 10
4.168048517999999
 20
4.3711330966
 30
5.1890401575
 40
0.2708333333
 41
0.0
 46
0.0
 71
     1
 72
     1
  1
R3
  7
SLDTEXTSTYLE0
 73
     1
 44
1.0
  0
MTEXT
  5
136
330
128
100
AcDbEntity
  8
DIMS
440
 16777216
100
AcDbMText
 10
4.706204366999999
 20
4.5556446168
 30
5.1890401575
 40
0.2708333333
 41
0.0
 46
0.0
 71
     1
 72
     1
  1
1
  7
SLDTEXTSTYLE0
 73
     1
 44
1.0
  0
MTEXT
  5
137
330
128
100
AcDbEntity
  8
DIMS
440
 16777216
100
AcDbMText
 10
4.706204366999999
 20
4.1868598795
 30
5.1890401575
 40
0.2708333333
 41
0.0
 46
0.0
 71
     1
 72
     1
  1
2
  7
SLDTEXTSTYLE0
 73
     1
 44
1.0
  0
MTEXT
  5
138
330
128
100
AcDbEntity
  8
DIMS
440
 16777216
100
AcDbMText
 10
4.983557757099999
 20
4.3711330966
 30
5.1890401575
 40
0.2708333333
 41
0.0
 46
0.0
 71
     1
 72
     1
  1
"
  7
SLDTEXTSTYLE0
 73
     1
 44
1.0
  0
MTEXT
  5
139
330
128
100
AcDbEntity
  8
DIMS
440
 16777216
100
AcDbMText
 10
4.439383391799999
 20
3.722932437999999
 30
5.1890401575
 40
0.2708333333
 41
0.0
 46
0.0
 71
     1
 72
     1
  1
89
  7
SLDTEXTSTYLE0
 73
     1
 44
1.0
  0
ENDBLK
  5
12A
330
128
100
AcDbEntity
  8
0
100
AcDbBlockEnd
  0
BLOCK
  5
13C
330
13B
100
AcDbEntity
  8
0
100
AcDbBlockBegin
  2
_D_8
 70
     0
 10
0.0
 20
0.0
 30
0.0
  3
_D_8
  1

  0
SOLID
  5
13E
330
13B
100
AcDbEntity
  8
DIMS
440
 16777216
100
AcDbTrace
 10
37.7809541267
 20
17.0469318121
 30
0.0
 11
37.6020344931
 21
16.8501085404
 31
0.0
 12
37.6694689856
 22
16.8054308828
 32
0.0
 13
37.6694689856
 23
16.8054308828
 33
0.0
  0
LINE
  5
13F
330
13B
100
AcDbEntity
  8
DIMS
440
 16777216
100
AcDbLine
 10
36.8131205462
 20
15.833026359
 30
0.0
 11
37.0904739272
 21
15.833026359
 31
0.0
  0
LINE
  5
140
330
13B
100
AcDbEntity
  8
DIMS
440
 16777216
100
AcDbLine
 10
36.4091275256
 20
15.3810356313
 30
0.0
 11
36.3489423397
 21
15.3810356313
 31
0.0
  0
LINE
  5
141
330
13B
100
AcDbEntity
  8
DIMS
440
 16777216
100
AcDbLine
 10
36.3489423397
 20
15.3810356313
 30
0.0
 11
36.3489423397
 21
14.977293362
 31
0.0
  0
LINE
  5
142
330
13B
100
AcDbEntity
  8
DIMS
440
 16777216
100
AcDbLine
 10
36.3489423397
 20
14.977293362
 30
0.0
 11
36.4091275256
 21
14.977293362
 31
0.0
  0
LINE
  5
143
330
13B
100
AcDbEntity
  8
DIMS
440
 16777216
100
AcDbLine
 10
37.1614423115
 20
15.3810356313
 30
0.0
 11
37.2216274975
 21
15.3810356313
 31
0.0
  0
LINE
  5
144
330
13B
100
AcDbEntity
  8
DIMS
440
 16777216
100
AcDbLine
 10
37.2216274975
 20
15.3810356313
 30
0.0
 11
37.2216274975
 21
14.977293362
 31
0.0
  0
LINE
  5
145
330
13B
100
AcDbEntity
  8
DIMS
440
 16777216
100
AcDbLine
 10
37.2216274975
 20
14.977293362
 30
0.0
 11
37.1614423115
 21
14.977293362
 31
0.0
  0
LINE
  5
146
330
13B
100
AcDbEntity
  8
DIMS
440
 16777216
100
AcDbLine
 10
34.7432329847
 20
12.4619290571
 30
0.0
 11
36.369873175
 21
14.9171082539
 31
0.0
  0
LINE
  5
147
330
13B
100
AcDbEntity
  8
DIMS
440
 16777216
100
AcDbLine
 10
37.7809541267
 20
17.0469318121
 30
0.0
 11
37.2006966255
 21
16.1711166475
 31
0.0
  0
MTEXT
  5
148
330
13B
100
AcDbEntity
  8
DIMS
440
 16777216
100
AcDbMText
 10
36.3133327489
 20
15.9746165243
 30
5.1890401575
 40
0.2708333333
 41
0.0
 46
0.0
 71
     1
 72
     1
  1
R5
  7
SLDTEXTSTYLE0
 73
     1
 44
1.0
  0
MTEXT
  5
149
330
13B
100
AcDbEntity
  8
DIMS
440
 16777216
100
AcDbMText
 10
36.8514885979
 20
16.1591280445
 30
5.1890401575
 40
0.2708333333
 41
0.0
 46
0.0
 71
     1
 72
     1
  1
1
  7
SLDTEXTSTYLE0
 73
     1
 44
1.0
  0
MTEXT
  5
14A
330
13B
100
AcDbEntity
  8
DIMS
440
 16777216
100
AcDbMText
 10
36.8514885979
 20
15.7903433072
 30
5.1890401575
 40
0.2708333333
 41
0.0
 46
0.0
 71
     1
 72
     1
  1
2
  7
SLDTEXTSTYLE0
 73
     1
 44
1.0
  0
MTEXT
  5
14B
330
13B
100
AcDbEntity
  8
DIMS
440
 16777216
100
AcDbMText
 10
37.1288419881
 20
15.9746165243
 30
5.1890401575
 40
0.2708333333
 41
0.0
 46
0.0
 71
     1
 72
     1
  1
"
  7
SLDTEXTSTYLE0
 73
     1
 44
1.0
  0
MTEXT
  5
14C
330
13B
100
AcDbEntity
  8
DIMS
440
 16777216
100
AcDbMText
 10
36.4843590116
 20
15.3264158657
 30
5.1890401575
 40
0.2708333333
 41
0.0
 46
0.0
 71
     1
 72
     1
  1
140
  7
SLDTEXTSTYLE0
 73
     1
 44
1.0
  0
ENDBLK
  5
13D
330
13B
100
AcDbEntity
  8
0
100
AcDbBlockEnd
  0
BLOCK
  5
14F
330
14E
100
AcDbEntity
  8
0
100
AcDbBlockBegin
  2
_D_9
 70
     0
 10
0.0
 20
0.0
 30
0.0
  3
_D_9
  1

  0
SOLID
  5
151
330
14E
100
AcDbEntity
  8
DIMS
440
 16777216
100
AcDbTrace
 10
32.7858717531
 20
17.9558361479
 30
0.0
 11
32.7791657378
 21
17.6899288992
 31
0.0
 12
32.8594017208
 22
17.7002095073
 32
0.0
 13
32.8594017208
 23
17.7002095073
 33
0.0
  0
LINE
  5
152
330
14E
100
AcDbEntity
  8
DIMS
440
 16777216
100
AcDbLine
 10
33.0871635002
 20
16.1105359204
 30
0.0
 11
33.3645168811
 21
16.1105359204
 31
0.0
  0
LINE
  5
153
330
14E
100
AcDbEntity
  8
DIMS
440
 16777216
100
AcDbLine
 10
32.6831704796
 20
15.6585451927
 30
0.0
 11
32.62298529360001
 21
15.6585451927
 31
0.0
  0
LINE
  5
154
330
14E
100
AcDbEntity
  8
DIMS
440
 16777216
100
AcDbLine
 10
32.62298529360001
 20
15.6585451927
 30
0.0
 11
32.62298529360001
 21
15.2548029234
 31
0.0
  0
LINE
  5
155
330
14E
100
AcDbEntity
  8
DIMS
440
 16777216
100
AcDbLine
 10
32.62298529360001
 20
15.2548029234
 30
0.0
 11
32.6831704796
 21
15.2548029234
 31
0.0
  0
LINE
  5
156
330
14E
100
AcDbEntity
  8
DIMS
440
 16777216
100
AcDbLine
 10
33.4354852655
 20
15.6585451927
 30
0.0
 11
33.49567045150001
 21
15.6585451927
 31
0.0
  0
LINE
  5
157
330
14E
100
AcDbEntity
  8
DIMS
440
 16777216
100
AcDbLine
 10
33.49567045150001
 20
15.6585451927
 30
0.0
 11
33.49567045150001
 21
15.2548029234
 31
0.0
  0
LINE
  5
158
330
14E
100
AcDbEntity
  8
DIMS
440
 16777216
100
AcDbLine
 10
33.49567045150001
 20
15.2548029234
 30
0.0
 11
33.4354852655
 21
15.2548029234
 31
0.0
  0
LINE
  5
159
330
14E
100
AcDbEntity
  8
DIMS
440
 16777216
100
AcDbLine
 10
33.9932329847
 20
8.5328706457
 30
0.0
 11
33.1396656798
 21
15.1946178154
 31
0.0
  0
LINE
  5
15A
330
14E
100
AcDbEntity
  8
DIMS
440
 16777216
100
AcDbLine
 10
32.7858717531
 20
17.9558361479
 30
0.0
 11
32.9789900286
 21
16.448626209
 31
0.0
  0
MTEXT
  5
15B
330
14E
100
AcDbEntity
  8
DIMS
440
 16777216
100
AcDbMText
 10
32.5873757029
 20
16.2521260857
 30
5.1890401575
 40
0.2708333333
 41
0.0
 46
0.0
 71
     1
 72
     1
  1
R9
  7
SLDTEXTSTYLE0
 73
     1
 44
1.0
  0
MTEXT
  5
15C
330
14E
100
AcDbEntity
  8
DIMS
440
 16777216
100
AcDbMText
 10
33.12553155190001
 20
16.4366376059
 30
5.1890401575
 40
0.2708333333
 41
0.0
 46
0.0
 71
     1
 72
     1
  1
1
  7
SLDTEXTSTYLE0
 73
     1
 44
1.0
  0
MTEXT
  5
15D
330
14E
100
AcDbEntity
  8
DIMS
440
 16777216
100
AcDbMText
 10
33.12553155190001
 20
16.0678528686
 30
5.1890401575
 40
0.2708333333
 41
0.0
 46
0.0
 71
     1
 72
     1
  1
2
  7
SLDTEXTSTYLE0
 73
     1
 44
1.0
  0
MTEXT
  5
15E
330
14E
100
AcDbEntity
  8
DIMS
440
 16777216
100
AcDbMText
 10
33.4028849421
 20
16.2521260857
 30
5.1890401575
 40
0.2708333333
 41
0.0
 46
0.0
 71
     1
 72
     1
  1
"
  7
SLDTEXTSTYLE0
 73
     1
 44
1.0
  0
MTEXT
  5
15F
330
14E
100
AcDbEntity
  8
DIMS
440
 16777216
100
AcDbMText
 10
32.7584019655
 20
15.6039254271
 30
5.1890401575
 40
0.2708333333
 41
0.0
 46
0.0
 71
     1
 72
     1
  1
241
  7
SLDTEXTSTYLE0
 73
     1
 44
1.0
  0
ENDBLK
  5
150
330
14E
100
AcDbEntity
  8
0
100
AcDbBlockEnd
  0
BLOCK
  5
163
330
162
100
AcDbEntity
  8
0
100
AcDbBlockBegin
  2
_D_10
 70
     0
 10
0.0
 20
0.0
 30
0.0
  3
_D_10
  1

  0
SOLID
  5
165
330
162
100
AcDbEntity
  8
DIMS
440
 16777216
100
AcDbTrace
 10
12.0404401905
 20
20.4747283332
 30
0.0
 11
11.9766368098
 21
20.2165021452
 31
0.0
 12
12.0572043753
 22
20.2092653458
 32
0.0
 13
12.0572043753
 23
20.2092653458
 33
0.0
  0
LINE
  5
166
330
162
100
AcDbEntity
  8
DIMS
440
 16777216
100
AcDbLine
 10
11.9374330864
 20
18.1902248428
 30
0.0
 11
12.2147864674
 21
18.1902248428
 31
0.0
  0
LINE
  5
167
330
162
100
AcDbEntity
  8
DIMS
440
 16777216
100
AcDbLine
 10
11.433131418
 20
17.7382341151
 30
0.0
 11
11.372946232
 21
17.7382341151
 31
0.0
  0
LINE
  5
168
330
162
100
AcDbEntity
  8
DIMS
440
 16777216
100
AcDbLine
 10
11.372946232
 20
17.7382341151
 30
0.0
 11
11.372946232
 21
17.3344918458
 31
0.0
  0
LINE
  5
169
330
162
100
AcDbEntity
  8
DIMS
440
 16777216
100
AcDbLine
 10
11.372946232
 20
17.3344918458
 30
0.0
 11
11.433131418
 21
17.3344918458
 31
0.0
  0
LINE
  5
16A
330
162
100
AcDbEntity
  8
DIMS
440
 16777216
100
AcDbLine
 10
12.1854462038
 20
17.7382341151
 30
0.0
 11
12.2456313898
 21
17.7382341151
 31
0.0
  0
LINE
  5
16B
330
162
100
AcDbEntity
  8
DIMS
440
 16777216
100
AcDbLine
 10
12.2456313898
 20
17.7382341151
 30
0.0
 11
12.2456313898
 21
17.3344918458
 31
0.0
  0
LINE
  5
16C
330
162
100
AcDbEntity
  8
DIMS
440
 16777216
100
AcDbLine
 10
12.2456313898
 20
17.3344918458
 30
0.0
 11
12.1854462038
 21
17.3344918458
 31
0.0
  0
LINE
  5
16D
330
162
100
AcDbEntity
  8
DIMS
440
 16777216
100
AcDbLine
 10
10.7432329847
 20
6.0328706457
 30
0.0
 11
11.7529695586
 21
17.2743067378
 31
0.0
  0
LINE
  5
16E
330
162
100
AcDbEntity
  8
DIMS
440
 16777216
100
AcDbLine
 10
12.0404401905
 20
20.4747283332
 30
0.0
 11
11.8656080265
 21
18.5283151314
 31
0.0
  0
MTEXT
  5
16F
330
162
100
AcDbEntity
  8
DIMS
440
 16777216
100
AcDbMText
 10
11.2370279934
 20
18.3318150081
 30
5.1890401575
 40
0.2708333333
 41
0.0
 46
0.0
 71
     1
 72
     1
  1
R14
  7
SLDTEXTSTYLE0
 73
     1
 44
1.0
  0
MTEXT
  5
170
330
162
100
AcDbEntity
  8
DIMS
440
 16777216
100
AcDbMText
 10
11.9758011382
 20
18.5163265283
 30
5.1890401575
 40
0.2708333333
 41
0.0
 46
0.0
 71
     1
 72
     1
  1
1
  7
SLDTEXTSTYLE0
 73
     1
 44
1.0
  0
MTEXT
  5
171
330
162
100
AcDbEntity
  8
DIMS
440
 16777216
100
AcDbMText
 10
11.9758011382
 20
18.147541791
 30
5.1890401575
 40
0.2708333333
 41
0.0
 46
0.0
 71
     1
 72
     1
  1
2
  7
SLDTEXTSTYLE0
 73
     1
 44
1.0
  0
MTEXT
  5
172
330
162
100
AcDbEntity
  8
DIMS
440
 16777216
100
AcDbMText
 10
12.2531545283
 20
18.3318150081
 30
5.1890401575
 40
0.2708333333
 41
0.0
 46
0.0
 71
     1
 72
     1
  1
"
  7
SLDTEXTSTYLE0
 73
     1
 44
1.0
  0
MTEXT
  5
173
330
162
100
AcDbEntity
  8
DIMS
440
 16777216
100
AcDbMText
 10
11.5083629039
 20
17.6836143495
 30
5.1890401575
 40
0.2708333333
 41
0.0
 46
0.0
 71
     1
 72
     1
  1
368
  7
SLDTEXTSTYLE0
 73
     1
 44
1.0
  0
ENDBLK
  5
164
330
162
100
AcDbEntity
  8
0
100
AcDbBlockEnd
  0
BLOCK
  5
176
330
175
100
AcDbEntity
  8
0
100
AcDbBlockBegin
  2
_D_11
 70
     0
 10
0.0
 20
0.0
 30
0.0
  3
_D_11
  1

  0
SOLID
  5
178
330
175
100
AcDbEntity
  8
DIMS
440
 16777216
100
AcDbTrace
 10
15.6808529459
 20
19.3442665757
 30
0.0
 11
15.5084036397
 21
19.1417502248
 31
0.0
 12
15.5772501409
 22
19.0992806692
 32
0.0
 13
15.5772501409
 23
19.0992806692
 33
0.0
  0
LINE
  5
179
330
175
100
AcDbEntity
  8
DIMS
440
 16777216
100
AcDbLine
 10
14.4420948188
 20
17.5799320229
 30
0.0
 11
14.7194481998
 21
17.5799320229
 31
0.0
  0
LINE
  5
17A
330
175
100
AcDbEntity
  8
DIMS
440
 16777216
100
AcDbLine
 10
14.0381017983
 20
17.1279412952
 30
0.0
 11
13.9779166123
 21
17.1279412952
 31
0.0
  0
LINE
  5
17B
330
175
100
AcDbEntity
  8
DIMS
440
 16777216
100
AcDbLine
 10
13.9779166123
 20
17.1279412952
 30
0.0
 11
13.9779166123
 21
16.7241990259
 31
0.0
  0
LINE
  5
17C
330
175
100
AcDbEntity
  8
DIMS
440
 16777216
100
AcDbLine
 10
13.9779166123
 20
16.7241990259
 30
0.0
 11
14.0381017983
 21
16.7241990259
 31
0.0
  0
LINE
  5
17D
330
175
100
AcDbEntity
  8
DIMS
440
 16777216
100
AcDbLine
 10
14.7904165842
 20
17.1279412952
 30
0.0
 11
14.8506017701
 21
17.1279412952
 31
0.0
  0
LINE
  5
17E
330
175
100
AcDbEntity
  8
DIMS
440
 16777216
100
AcDbLine
 10
14.8506017701
 20
17.1279412952
 30
0.0
 11
14.8506017701
 21
16.7241990259
 31
0.0
  0
LINE
  5
17F
330
175
100
AcDbEntity
  8
DIMS
440
 16777216
100
AcDbLine
 10
14.8506017701
 20
16.7241990259
 30
0.0
 11
14.7904165842
 21
16.7241990259
 31
0.0
  0
LINE
  5
180
330
175
100
AcDbEntity
  8
DIMS
440
 16777216
100
AcDbLine
 10
11.7432329847
 20
12.961073876
 30
0.0
 11
14.0274771412
 21
16.6640139179
 31
0.0
  0
LINE
  5
181
330
175
100
AcDbEntity
  8
DIMS
440
 16777216
100
AcDbLine
 10
15.6808529459
 20
19.3442665757
 30
0.0
 11
14.8010412046
 21
17.9180223115
 31
0.0
  0
MTEXT
  5
182
330
175
100
AcDbEntity
  8
DIMS
440
 16777216
100
AcDbMText
 10
13.9423070216
 20
17.7215221882
 30
5.1890401575
 40
0.2708333333
 41
0.0
 46
0.0
 71
     1
 72
     1
  1
R7
  7
SLDTEXTSTYLE0
 73
     1
 44
1.0
  0
MTEXT
  5
183
330
175
100
AcDbEntity
  8
DIMS
440
 16777216
100
AcDbMText
 10
14.4804628706
 20
17.9060337084
 30
5.1890401575
 40
0.2708333333
 41
0.0
 46
0.0
 71
     1
 72
     1
  1
1
  7
SLDTEXTSTYLE0
 73
     1
 44
1.0
  0
MTEXT
  5
184
330
175
100
AcDbEntity
  8
DIMS
440
 16777216
100
AcDbMText
 10
14.4804628706
 20
17.5372489711
 30
5.1890401575
 40
0.2708333333
 41
0.0
 46
0.0
 71
     1
 72
     1
  1
2
  7
SLDTEXTSTYLE0
 73
     1
 44
1.0
  0
MTEXT
  5
185
330
175
100
AcDbEntity
  8
DIMS
440
 16777216
100
AcDbMText
 10
14.7578162608
 20
17.7215221882
 30
5.1890401575
 40
0.2708333333
 41
0.0
 46
0.0
 71
     1
 72
     1
  1
"
  7
SLDTEXTSTYLE0
 73
     1
 44
1.0
  0
MTEXT
  5
186
330
175
100
AcDbEntity
  8
DIMS
440
 16777216
100
AcDbMText
 10
14.1133332842
 20
17.0733215296
 30
5.1890401575
 40
0.2708333333
 41
0.0
 46
0.0
 71
     1
 72
     1
  1
191
  7
SLDTEXTSTYLE0
 73
     1
 44
1.0
  0
ENDBLK
  5
177
330
175
100
AcDbEntity
  8
0
100
AcDbBlockEnd
  0
BLOCK
  5
189
330
188
100
AcDbEntity
  8
0
100
AcDbBlockBegin
  2
_D_12
 70
     0
 10
0.0
 20
0.0
 30
0.0
  3
_D_12
  1

  0
SOLID
  5
18B
330
188
100
AcDbEntity
  8
DIMS
440
 16777216
100
AcDbTrace
 10
38.59437704280001
 20
2.5624724105
 30
0.0
 11
38.4896562245
 21
2.8069825038
 31
0.0
 12
38.4210044423
 22
2.764198900899999
 32
0.0
 13
38.4210044423
 23
2.764198900899999
 33
0.0
  0
LINE
  5
18C
330
188
100
AcDbEntity
  8
DIMS
440
 16777216
100
AcDbLine
 10
37.7633492562
 20
4.2295429313
 30
0.0
 11
38.0407026372
 21
4.2295429313
 31
0.0
  0
LINE
  5
18D
330
188
100
AcDbEntity
  8
DIMS
440
 16777216
100
AcDbLine
 10
37.4596648469
 20
3.777552203599999
 30
0.0
 11
37.3994796609
 21
3.777552203599999
 31
0.0
  0
LINE
  5
18E
330
188
100
AcDbEntity
  8
DIMS
440
 16777216
100
AcDbLine
 10
37.3994796609
 20
3.777552203599999
 30
0.0
 11
37.3994796609
 21
3.3738099343
 31
0.0
  0
LINE
  5
18F
330
188
100
AcDbEntity
  8
DIMS
440
 16777216
100
AcDbLine
 10
37.3994796609
 20
3.3738099343
 30
0.0
 11
37.4596648469
 21
3.3738099343
 31
0.0
  0
LINE
  5
190
330
188
100
AcDbEntity
  8
DIMS
440
 16777216
100
AcDbLine
 10
38.0113623736
 20
3.777552203599999
 30
0.0
 11
38.0715475596
 21
3.777552203599999
 31
0.0
  0
LINE
  5
191
330
188
100
AcDbEntity
  8
DIMS
440
 16777216
100
AcDbLine
 10
38.0715475596
 20
3.777552203599999
 30
0.0
 11
38.0715475596
 21
3.3738099343
 31
0.0
  0
LINE
  5
192
330
188
100
AcDbEntity
  8
DIMS
440
 16777216
100
AcDbLine
 10
38.0715475596
 20
3.3738099343
 30
0.0
 11
38.0113623736
 21
3.3738099343
 31
0.0
  0
LINE
  5
193
330
188
100
AcDbEntity
  8
DIMS
440
 16777216
100
AcDbLine
 10
36.7432329847
 20
5.5328706457
 30
0.0
 11
37.34476630920001
 21
4.5676332198
 31
0.0
  0
LINE
  5
194
330
188
100
AcDbEntity
  8
DIMS
440
 16777216
100
AcDbLine
 10
38.59437704280001
 20
2.5624724105
 30
0.0
 11
38.1262609112
 21
3.313624826199999
 31
0.0
  0
MTEXT
  5
195
330
188
100
AcDbEntity
  8
DIMS
440
 16777216
100
AcDbMText
 10
37.2635614589
 20
4.3711330966
 30
5.1890401575
 40
0.2708333333
 41
0.0
 46
0.0
 71
     1
 72
     1
  1
R3
  7
SLDTEXTSTYLE0
 73
     1
 44
1.0
  0
MTEXT
  5
196
330
188
100
AcDbEntity
  8
DIMS
440
 16777216
100
AcDbMText
 10
37.8017173079
 20
4.5556446168
 30
5.1890401575
 40
0.2708333333
 41
0.0
 46
0.0
 71
     1
 72
     1
  1
1
  7
SLDTEXTSTYLE0
 73
     1
 44
1.0
  0
MTEXT
  5
197
330
188
100
AcDbEntity
  8
DIMS
440
 16777216
100
AcDbMText
 10
37.8017173079
 20
4.1868598795
 30
5.1890401575
 40
0.2708333333
 41
0.0
 46
0.0
 71
     1
 72
     1
  1
2
  7
SLDTEXTSTYLE0
 73
     1
 44
1.0
  0
MTEXT
  5
198
330
188
100
AcDbEntity
  8
DIMS
440
 16777216
100
AcDbMText
 10
38.0790706981
 20
4.3711330966
 30
5.1890401575
 40
0.2708333333
 41
0.0
 46
0.0
 71
     1
 72
     1
  1
"
  7
SLDTEXTSTYLE0
 73
     1
 44
1.0
  0
MTEXT
  5
199
330
188
100
AcDbEntity
  8
DIMS
440
 16777216
100
AcDbMText
 10
37.5348963328
 20
3.722932437999999
 30
5.1890401575
 40
0.2708333333
 41
0.0
 46
0.0
 71
     1
 72
     1
  1
89
  7
SLDTEXTSTYLE0
 73
     1
 44
1.0
  0
ENDBLK
  5
18A
330
188
100
AcDbEntity
  8
0
100
AcDbBlockEnd
  0
BLOCK
  5
19C
330
19B
100
AcDbEntity
  8
0
100
AcDbBlockBegin
  2
SW_NOTE_0
 70
     0
 10
0.0
 20
0.0
 30
0.0
  3
SW_NOTE_0
  1

  0
MTEXT
  5
19E
330
19B
100
AcDbEntity
  8
NOTES
 62
     0
100
AcDbMText
 10
6.861979166699999
 20
1.0742231165
 30
0.0
 40
0.8333333333
 41
0.0
 46
0.0
 71
     2
 72
     1
  1
TEMPLATE #: 1000001462
  7
SLDTEXTSTYLE0
 73
     1
 44
1.0
  0
MTEXT
  5
19F
330
19B
100
AcDbEntity
  8
NOTES
 62
     0
100
AcDbMText
 10
6.858799870599999
 20
-0.0184439723
 30
0.0
 40
0.4166666667000001
 41
0.0
 46
0.0
 71
     2
 72
     1
  1
REVEAL UNDERMOUNT TEMPLATE 39-1/2" X 20" D-SHAPE
  7
SLDTEXTSTYLE0
 73
     1
 44
1.0
  0
ENDBLK
  5
19D
330
19B
100
AcDbEntity
  8
0
100
AcDbBlockEnd
  0
BLOCK
  5
1A2
330
1A1
100
AcDbEntity
  8
0
100
AcDbBlockBegin
  2
SW_NOTE_1
 70
     0
 10
0.0
 20
0.0
 30
0.0
  3
SW_NOTE_1
  1

  0
MTEXT
  5
1A4
330
1A1
100
AcDbEntity
  8
NOTES
 62
     0
100
AcDbMText
 10
0.0
 20
0.1879890454
 30
0.0
 40
0.1458333333
 41
0.0
 46
0.0
 71
     1
 72
     1
  1
NOTES:
  7
SLDTEXTSTYLE0
 73
     1
 44
1.0
  0
MTEXT
  5
1A5
330
1A1
100
AcDbEntity
  8
NOTES
 62
     0
100
AcDbMText
 10
0.4261082009
 20
-0.2008998388
 30
0.0
 40
0.1458333333
 41
0.0
 46
0.0
 71
     1
 72
     1
  1
THOROUGHLY READ ALL  INSTALLATION INSTRUCTIONS
  7
SLDTEXTSTYLE0
 73
     1
 44
1.0
  0
MTEXT
  5
1A6
330
1A1
100
AcDbEntity
  8
NOTES
 62
     0
100
AcDbMText
 10
0.0
 20
-0.2008998388
 30
0.0
 40
0.1458333333
 41
0.0
 46
0.0
 71
     1
 72
     1
  1
1.
  7
SLDTEXTSTYLE0
 73
     1
 44
1.0
  0
MTEXT
  5
1A7
330
1A1
100
AcDbEntity
  8
NOTES
 62
     0
100
AcDbMText
 10
0.0
 20
-0.3953442809
 30
0.0
 40
0.1458333333
 41
0.0
 46
0.0
 71
     1
 72
     1
  1
BEFORE CUTTING COUNTERTOP.
  7
SLDTEXTSTYLE0
 73
     1
 44
1.0
  0
MTEXT
  5
1A8
330
1A1
100
AcDbEntity
  8
NOTES
 62
     0
100
AcDbMText
 10
0.0
 20
-0.7842331651000001
 30
0.0
 40
0.1458333333
 41
0.0
 46
0.0
 71
     1
 72
     1
  1
2.  DIMENSIONS ARE IN INCHES [MM].
  7
SLDTEXTSTYLE0
 73
     1
 44
1.0
  0
MTEXT
  5
1AA
330
1A1
100
AcDbEntity
  8
NOTES
 62
     0
100
AcDbMText
 10
0.0
 20
-1.367566491399999
 30
0.0
 40
0.1458333333
 41
0.0
 46
0.0
 71
     1
 72
     1
  1
PLEASE CHECK TEMPLATE AGAINST PHYSICAL SINK FOR MOST ACCURATE CUT.
  7
SLDTEXTSTYLE1
 73
     1
 44
1.0
  0
MTEXT
  5
1AB
330
1A1
100
AcDbEntity
  8
NOTES
 62
     0
100
AcDbMText
 10
0.0
 20
-2.145344259799999
 30
0.0
 40
0.1458333333
 41
0.0
 46
0.0
 71
     1
 72
     1
  1
NOTAS:
  7
SLDTEXTSTYLE0
 73
     1
 44
1.0
  0
MTEXT
  5
1AC
330
1A1
100
AcDbEntity
  8
NOTES
 62
     0
100
AcDbMText
 10
0.0
 20
-2.534233143899999
 30
0.0
 40
0.1458333333
 41
0.0
 46
0.0
 71
     1
 72
     1
  1
1.  LEA ATENTAMENTE LAS INSTRUCCIONES DE INSTALACIÓN ANTES DE CORTAR LA ENCIMERA.
  7
SLDTEXTSTYLE0
 73
     1
 44
1.0
  0
MTEXT
  5
1AD
330
1A1
100
AcDbEntity
  8
NOTES
 62
     0
100
AcDbMText
 10
0.0
 20
-2.923122028099999
 30
0.0
 40
0.1458333333
 41
0.0
 46
0.0
 71
     1
 72
     1
  1
2.  DIMENSIONES EN PULGADAS [MM].
  7
SLDTEXTSTYLE0
 73
     1
 44
1.0
  0
MTEXT
  5
1AE
330
1A1
100
AcDbEntity
  8
NOTES
 62
     0
100
AcDbMText
 10
0.0
 20
-3.506455354399999
 30
0.0
 40
0.1458333333
 41
0.0
 46
0.0
 71
     1
 72
     1
  1
POR FAVOR COMPRUEBE PLANTILLA CONTRA FREGADERO FÍSICO PARA CORTE MÁS EXACTO.
  7
SLDTEXTSTYLE1
 73
     1
 44
1.0
  0
ENDBLK
  5
1A3
330
1A1
100
AcDbEntity
  8
0
100
AcDbBlockEnd
  0
BLOCK
  5
1B1
330
1B0
100
AcDbEntity
  8
0
100
AcDbBlockBegin
  2
SW_NOTE_2
 70
     0
 10
0.0
 20
0.0
 30
0.0
  3
SW_NOTE_2
  1

  0
MTEXT
  5
1B3
330
1B0
100
AcDbEntity
  8
NOTES
 62
     0
100
AcDbMText
 10
0.0057208635
 20
0.2692916972
 30
0.0
 40
0.2083333333
 41
0.0
 46
0.0
 71
     3
 72
     1
  1
1/2" REVEAL
  7
SLDTEXTSTYLE0
 73
     1
 44
1.0
  0
MTEXT
  5
1B4
330
1B0
100
AcDbEntity
  8
NOTES
 62
     0
100
AcDbMText
 10
0.0106881981
 20
-0.0084860772
 30
0.0
 40
0.2083333333
 41
0.0
 46
0.0
 71
     3
 72
     1
  1
[12.7 REVELADO]
  7
SLDTEXTSTYLE0
 73
     1
 44
1.0
  0
ENDBLK
  5
1B2
330
1B0
100
AcDbEntity
  8
0
100
AcDbBlockEnd
  0
BLOCK
  5
1B9
330
1B8
100
AcDbEntity
  8
0
100
AcDbBlockBegin
  2
SW_NOTE_3
 70
     0
 10
0.0
 20
0.0
 30
0.0
  3
SW_NOTE_3
  1

  0
MTEXT
  5
1BB
330
1B8
100
AcDbEntity
  8
NOTES
 62
     0
100
AcDbMText
 10
1.0830088084
 20
0.8238637145
 30
0.0
 40
0.25
 41
0.0
 46
0.0
 71
     2
 72
     1
  1
TEMPLATE
  7
SLDTEXTSTYLE0
 73
     1
 44
1.0
  0
MTEXT
  5
1BC
330
1B8
100
AcDbEntity
  8
NOTES
 62
     0
100
AcDbMText
 10
1.086770427399999
 20
0.4905303852000001
 30
0.0
 40
0.25
 41
0.0
 46
0.0
 71
     2
 72
     1
  1
CENTERLINE
  7
SLDTEXTSTYLE0
 73
     1
 44
1.0
  0
MTEXT
  5
1BD
330
1B8
100
AcDbEntity
  8
NOTES
 62
     0
100
AcDbMText
 10
1.0869150584
 20
-0.1761362734
 30
0.0
 40
0.25
 41
0.0
 46
0.0
 71
     2
 72
     1
  1
PLANTILLA
  7
SLDTEXTSTYLE0
 73
     1
 44
1.0
  0
MTEXT
  5
1BE
330
1B8
100
AcDbEntity
  8
NOTES
 62
     0
100
AcDbMText
 10
1.083298165199999
 20
-0.5094696027000002
 30
0.0
 40
0.25
 41
0.0
 46
0.0
 71
     2
 72
     1
  1
CENTRAL
  7
SLDTEXTSTYLE0
 73
     1
 44
1.0
  0
ENDBLK
  5
1BA
330
1B8
100
AcDbEntity
  8
0
100
AcDbBlockEnd
  0
ENDSEC
  0
SECTION
  2
ENTITIES
  0
ARC
  5
95
330
1F
100
AcDbEntity
  8
OBJECTS
  6
Continuous
100
AcDbCircle
 10
18.9565367402
 20
19.1431648598
 30
0.0
 40
2.0
100
AcDbArc
 50
220.5979023592
 51
270.0
  0
ARC
  5
96
330
1F
100
AcDbEntity
  8
OBJECTS
  6
Continuous
100
AcDbCircle
 10
29.835728304
 20
19.1431648598
 30
0.0
 40
2.0
100
AcDbArc
 50
270.0
 51
297.0220880641
  0
ARC
  5
97
330
1F
100
AcDbEntity
  8
OBJECTS
  6
Continuous
100
AcDbCircle
 10
34.7432329847
 20
12.4619290571
 30
0.0
 40
5.499999999999997
100
AcDbArc
 50
0.0
 51
79.19307712510001
  0
ARC
  5
98
330
1F
100
AcDbEntity
  8
OBJECTS
  6
Continuous
100
AcDbCircle
 10
33.9932329847
 20
8.5328706457
 30
0.0
 40
9.5
100
AcDbArc
 50
79.19307712510001
 51
100.8069228749
  0
ARC
  5
99
330
1F
100
AcDbEntity
  8
OBJECTS
  6
Continuous
100
AcDbCircle
 10
33.2432329847
 20
12.4619290571
 30
0.0
 40
5.500000000000003
100
AcDbArc
 50
100.8069228749
 51
117.0220880641
  0
ARC
  5
9A
330
1F
100
AcDbEntity
  8
OBJECTS
  6
Continuous
100
AcDbCircle
 10
36.7432329847
 20
5.5328706457
 30
0.0
 40
3.500000000000001
100
AcDbArc
 50
270.0
 51
0.0
  0
ARC
  5
9B
330
1F
100
AcDbEntity
  8
OBJECTS
  6
Continuous
100
AcDbCircle
 10
5.7432329847
 20
5.5328706457
 30
0.0
 40
3.5
100
AcDbArc
 50
180.0
 51
270.0
  0
ARC
  5
9C
330
1F
100
AcDbEntity
  8
OBJECTS
  6
Continuous
100
AcDbCircle
 10
11.7432329847
 20
12.961073876
 30
0.0
 40
7.500000000000002
100
AcDbArc
 50
40.5979023592
 51
81.78678929829999
  0
ARC
  5
9D
330
1F
100
AcDbEntity
  8
OBJECTS
  6
Continuous
100
AcDbCircle
 10
10.7432329847
 20
6.0328706457
 30
0.0
 40
14.5
100
AcDbArc
 50
81.78678929829999
 51
98.2132107017
  0
ARC
  5
9E
330
1F
100
AcDbEntity
  8
OBJECTS
  6
Continuous
100
AcDbCircle
 10
9.7432329847
 20
12.961073876
 30
0.0
 40
7.500000000000002
100
AcDbArc
 50
98.2132107017
 51
180.0
  0
LINE
  5
9F
330
1F
100
AcDbEntity
  8
OBJECTS
  6
Continuous
100
AcDbLine
 10
18.9565367402
 20
17.1431648598
 30
0.0
 11
29.835728304
 21
17.1431648598
 31
0.0
  0
LINE
  5
A0
330
1F
100
AcDbEntity
  8
OBJECTS
  6
Continuous
100
AcDbLine
 10
40.2432329847
 20
5.5328706457
 30
0.0
 11
40.2432329847
 21
12.4619290571
 31
0.0
  0
LINE
  5
A1
330
1F
100
AcDbEntity
  8
OBJECTS
  6
Continuous
100
AcDbLine
 10
5.7432329847
 20
2.0328706457
 30
0.0
 11
36.7432329847
 21
2.0328706457
 31
0.0
  0
LINE
  5
A2
330
1F
100
AcDbEntity
  8
OBJECTS
  6
Continuous
100
AcDbLine
 10
2.2432329847
 20
12.961073876
 30
0.0
 11
2.2432329847
 21
5.5328706457
 31
0.0
  0
LINE
  5
A3
330
1F
100
AcDbEntity
  8
OBJECTS
  6
CENTERX2
100
AcDbLine
 10
21.2432329847
 20
2.0328706457
 30
0.0
 11
21.2432329847
 21
4.0328706457
 31
0.0
  0
LINE
  5
A4
330
1F
100
AcDbEntity
  8
OBJECTS
  6
CENTERX2
100
AcDbLine
 10
2.2432329847
 20
11.2828706457
 30
0.0
 11
4.2432329847
 21
11.2828706457
 31
0.0
  0
LINE
  5
A5
330
1F
100
AcDbEntity
  8
OBJECTS
  6
CENTERX2
100
AcDbLine
 10
21.2432329847
 20
15.1431648598
 30
0.0
 11
21.2432329847
 21
17.1431648598
 31
0.0
  0
LINE
  5
A6
330
1F
100
AcDbEntity
  8
OBJECTS
  6
CENTERX2
100
AcDbLine
 10
38.2432329847
 20
11.2828706457
 30
0.0
 11
40.2432329847
 21
11.2828706457
 31
0.0
  0
INSERT
  5
A7
330
1F
100
AcDbEntity
  8
BLOCKS
100
AcDbBlockReference
  2
REVEAL- .500
 10
5.8866415308
 20
-13.5600709931
 30
0.0
  0
DIMENSION
  5
A8
330
1F
100
AcDbEntity
  8
DIMS
100
AcDbDimension
280
     0
  2
_D
 10
18.9565367402
 20
19.1431648598
 30
0.0
 11
17.5318296137
 21
16.054518773
 31
0.0
 70
   164
  1
<>
 42
-1.0
 73
     0
 74
     0
 75
     0
  3
SLDDIMSTYLE0
100
AcDbRadialDimension
 15
18.4559438188
 25
17.2068263751
 35
0.0
 40
0.0
  0
DIMENSION
  5
B8
330
1F
100
AcDbEntity
  8
DIMS
100
AcDbDimension
280
     0
  2
_D_1
 10
29.835728304
 20
19.1431648598
 30
0.0
 11
31.3228399294
 21
15.8216220122
 31
0.0
 70
   164
  1
<>
 42
-1.0
 73
     0
 74
     0
 75
     0
  3
SLDDIMSTYLE0
100
AcDbRadialDimension
 15
30.3375271996
 25
17.207138551
 35
0.0
 40
0.0
  0
DIMENSION
  5
C7
330
1F
100
AcDbEntity
  8
DIMS
100
AcDbDimension
280
     0
  2
_D_2
 10
29.9096738534
 20
2.0328706457
 30
0.0
 11
29.9096738534
 21
10.5934157362
 31
0.0
 70
   160
  1
<>
 71
     2
 42
-1.0
 73
     0
 74
     0
 75
     0
  3
SLDDIMSTYLE1
100
AcDbAlignedDimension
 13
29.835728304
 23
17.1431648598
 33
0.0
 14
36.7432329847
 24
2.0328706457
 34
0.0
 50
90.0
100
AcDbRotatedDimension
  0
DIMENSION
  5
DD
330
1F
100
AcDbEntity
  8
DIMS
100
AcDbDimension
280
     0
  2
_D_3
 10
2.2432329847
 20
6.8865413445
 30
0.0
 11
21.5211240765
 21
6.8865413445
 31
0.0
 70
   160
  1
<>
 71
     2
 42
-1.0
 73
     0
 74
     0
 75
     0
  3
SLDDIMSTYLE2
100
AcDbAlignedDimension
 13
40.2432329847
 23
5.5328706457
 33
0.0
 14
2.2432329847
 24
5.5328706457
 34
0.0
100
AcDbRotatedDimension
  0
DIMENSION
  5
EE
330
1F
100
AcDbEntity
  8
DIMS
100
AcDbDimension
280
     0
  2
_D_4
 10
34.5500247059
 20
2.0328706457
 30
0.0
 11
34.5500247059
 21
9.0268815703
 31
0.0
 70
   160
  1
<>
 71
     2
 42
-1.0
 73
     0
 74
     0
 75
     0
  3
SLDDIMSTYLE2
100
AcDbAlignedDimension
 13
33.9932329847
 23
18.0328706457
 33
0.0
 14
36.7432329847
 24
2.0328706457
 34
0.0
 50
90.0
100
AcDbRotatedDimension
  0
DIMENSION
  5
FF
330
1F
100
AcDbEntity
  8
DIMS
100
AcDbDimension
280
     0
  2
_D_5
 10
10.2945107556
 20
2.0328706457
 30
0.0
 11
10.2945107556
 21
15.5268396496
 31
0.0
 70
   160
  1
<>
 71
     2
 42
-1.0
 73
     0
 74
     0
 75
     0
  3
SLDDIMSTYLE1
100
AcDbAlignedDimension
 13
10.7432329847
 23
20.5328706457
 33
0.0
 14
5.7432329847
 24
2.0328706457
 34
0.0
 50
90.0
100
AcDbRotatedDimension
  0
DIMENSION
  5
114
330
1F
100
AcDbEntity
  8
DIMS
100
AcDbDimension
280
     0
  2
_D_6
 10
9.7432329847
 20
12.961073876
 30
0.0
 11
6.8301672326
 21
18.3470082272
 31
0.0
 70
   164
  1
<>
 42
-1.0
 73
     0
 74
     0
 75
     0
  3
SLDDIMSTYLE0
100
AcDbRadialDimension
 15
6.175196077599999
 25
19.5579756207
 35
0.0
 40
0.0
  0
DIMENSION
  5
127
330
1F
100
AcDbEntity
  8
DIMS
100
AcDbDimension
280
     0
  2
_D_7
 10
5.7432329847
 20
5.5328706457
 30
0.0
 11
4.640001062999999
 21
3.9406294167
 31
0.0
 70
   164
  1
<>
 42
-1.0
 73
     0
 74
     0
 75
     0
  3
SLDDIMSTYLE0
100
AcDbRadialDimension
 15
3.7498852654
 25
2.655968688799999
 35
0.0
 40
0.0
  0
DIMENSION
  5
13A
330
1F
100
AcDbEntity
  8
DIMS
100
AcDbDimension
280
     0
  2
_D_8
 10
34.7432329847
 20
12.4619290571
 30
0.0
 11
36.7852852939
 21
15.5441128444
 31
0.0
 70
   164
  1
<>
 42
-1.0
 73
     0
 74
     0
 75
     0
  3
SLDDIMSTYLE0
100
AcDbRadialDimension
 15
37.7809541267
 25
17.0469318121
 35
0.0
 40
0.0
  0
DIMENSION
  5
14D
330
1F
100
AcDbEntity
  8
DIMS
100
AcDbDimension
280
     0
  2
_D_9
 10
33.9932329847
 20
8.5328706457
 30
0.0
 11
33.0593282479
 21
15.8216224059
 31
0.0
 70
   164
  1
<>
 42
-1.0
 73
     0
 74
     0
 75
     0
  3
SLDDIMSTYLE0
100
AcDbRadialDimension
 15
32.7858717531
 25
17.9558361479
 35
0.0
 40
0.0
  0
DIMENSION
  5
160
330
1F
100
AcDbEntity
  8
DIMS
100
AcDbDimension
280
     0
  2
_D_10
 10
10.7432329847
 20
6.0328706457
 30
0.0
 11
11.8092891863
 21
17.9013113283
 31
0.0
 70
   164
  1
<>
 42
-1.0
 73
     0
 74
     0
 75
     0
  3
SLDDIMSTYLE3
100
AcDbRadialDimension
 15
12.0404401905
 25
20.4747283332
 35
0.0
 40
0.0
  0
DIMENSION
  5
174
330
1F
100
AcDbEntity
  8
DIMS
100
AcDbDimension
280
     0
  2
_D_11
 10
11.7432329847
 20
12.961073876
 30
0.0
 11
14.4142595666
 21
17.2910185084
 31
0.0
 70
   164
  1
<>
 42
-1.0
 73
     0
 74
     0
 75
     0
  3
SLDDIMSTYLE3
100
AcDbRadialDimension
 15
15.6808529459
 25
19.3442665757
 35
0.0
 40
0.0
  0
DIMENSION
  5
187
330
1F
100
AcDbEntity
  8
DIMS
100
AcDbDimension
280
     0
  2
_D_12
 10
36.7432329847
 20
5.5328706457
 30
0.0
 11
37.7355140039
 21
3.9406294167
 31
0.0
 70
   164
  1
<>
 42
-1.0
 73
     0
 74
     0
 75
     0
  3
SLDDIMSTYLE3
100
AcDbRadialDimension
 15
38.59437704280001
 25
2.5624724105
 35
0.0
 40
0.0
  0
MTEXT
  5
19A
330
1F
100
AcDbEntity
  8
NOTES
100
AcDbMText
 10
30.8529079119
 20
3.303341782799999
 30
0.0
 40
0.2083333333
 41
0.0
 46
0.0
 71
     1
 72
     1
  1
REV_E  5/16
  7
SLDTEXTSTYLE0
 73
     1
 44
1.0
  0
INSERT
  5
1A0
330
1F
100
AcDbEntity
  8
NOTES
100
AcDbBlockReference
  2
SW_NOTE_0
 10
14.2050502568
 20
9.4643815513
 30
0.0
  0
INSERT
  5
1AF
330
1F
100
AcDbEntity
  8
NOTES
100
AcDbBlockReference
  2
SW_NOTE_1
 10
14.7028552174
 20
14.8833984602
 30
0.0
  0
INSERT
  5
1B5
102
{ACAD_REACTORS
330
1B7
102
}
330
1F
100
AcDbEntity
  8
NOTES
100
AcDbBlockReference
  2
SW_NOTE_2
 10
26.2045015599
 20
14.5047658516
 30
0.0
  0
LEADER
  5
1B7
330
1F
100
AcDbEntity
  8
NOTES
100
AcDbLeader
  3
SLDDIMSTYLE4
 73
     2
 76
     3
 10
27.5913159051
 20
17.1431648598
 30
0.0
 10
26.4545015599
 20
14.5047658516
 30
0.0
 10
26.2045015599
 20
14.5047658516
 30
0.0
340
1B5
  0
INSERT
  5
1BF
102
{ACAD_REACTORS
330
1C0
330
1C1
102
}
330
1F
100
AcDbEntity
  8
NOTES
100
AcDbBlockReference
  2
SW_NOTE_3
 10
6.859327229099999
 20
9.787784719600001
 30
0.0
  0
LEADER
  5
1C0
330
1F
100
AcDbEntity
  8
NOTES
100
AcDbLeader
  3
SLDDIMSTYLE4
 73
     2
 76
     3
 10
3.606869393199999
 20
11.2828706457
 30
0.0
 10
6.609327229099999
 20
9.787784719600001
 30
0.0
 10
6.859327229099999
 20
9.787784719600001
 30
0.0
340
1BF
  0
LEADER
  5
1C1
330
1F
100
AcDbEntity
  8
NOTES
100
AcDbLeader
  3
SLDDIMSTYLE4
 73
     2
 76
     3
 10
21.2432329847
 20
3.296449697599999
 30
0.0
 10
9.2599031191
 20
9.787784719600001
 30
0.0
 10
9.0099031191
 20
9.787784719600001
 30
0.0
340
1BF
212
2.150575890029633
222
0.0
232
0.0
  0
ENDSEC
  0
SECTION
  2
OBJECTS
  0
DICTIONARY
  5
C
330
0
100
AcDbDictionary
281
     1
  3
ACAD_CIP_PREVIOUS_PRODUCT_INFO
350
1FC
  3
ACAD_COLOR
350
1DF
  3
ACAD_DETAILVIEWSTYLE
350
1F6
  3
ACAD_GROUP
350
D
  3
ACAD_LAYOUT
350
1A
  3
ACAD_MATERIAL
350
3B
  3
ACAD_MLEADERSTYLE
350
1C3
  3
ACAD_MLINESTYLE
350
17
  3
ACAD_PLOTSETTINGS
350
19
  3
ACAD_PLOTSTYLENAME
350
E
  3
ACAD_SCALELIST
350
1E1
  3
ACAD_SECTIONVIEWSTYLE
350
1F4
  3
ACAD_TABLESTYLE
350
1C2
  3
ACAD_VISUALSTYLE
350
1C6
  3
ACDB_RECOMPOSE_DATA
350
268
  3
AcDbVariableDictionary
350
20F
  3
AcDsDecomposeData
350
26E
  0
DICTIONARY
  5
260
330
2
100
AcDbDictionary
280
     1
281
     1
  3
ACAD_LAYERSTATES
360
261
  0
DICTIONARY
  5
1FF
330
10
100
AcDbDictionary
280
     1
281
     1
  3
ADSK_XREC_LAYER_RECONCILED
360
200
  0
DICTIONARY
  5
201
330
44
100
AcDbDictionary
280
     1
281
     1
  3
ADSK_XREC_LAYER_RECONCILED
360
202
  0
DICTIONARY
  5
203
330
45
100
AcDbDictionary
280
     1
281
     1
  3
ADSK_XREC_LAYER_RECONCILED
360
204
  0
DICTIONARY
  5
205
330
46
100
AcDbDictionary
280
     1
281
     1
  3
ADSK_XREC_LAYER_RECONCILED
360
206
  0
DICTIONARY
  5
207
330
47
100
AcDbDictionary
280
     1
281
     1
  3
ADSK_XREC_LAYER_RECONCILED
360
208
  0
DICTIONARY
  5
209
330
48
100
AcDbDictionary
280
     1
281
     1
  3
ADSK_XREC_LAYER_RECONCILED
360
20A
  0
DICTIONARY
  5
20B
330
49
100
AcDbDictionary
280
     1
281
     1
  3
ADSK_XREC_LAYER_RECONCILED
360
20C
  0
DICTIONARY
  5
20D
330
4A
100
AcDbDictionary
280
     1
281
     1
  3
ADSK_XREC_LAYER_RECONCILED
360
20E
  0
XRECORD
  5
1FC
102
{ACAD_REACTORS
330
C
102
}
330
C
100
AcDbXrecord
280
     1
300
AMECH_PP
300
2015
300
86266PDSP_2015_0F
  0
DICTIONARY
  5
1DF
102
{ACAD_REACTORS
330
C
102
}
330
C
100
AcDbDictionary
281
     1
  0
DICTIONARY
  5
1F6
102
{ACAD_REACTORS
330
C
102
}
330
C
100
AcDbDictionary
281
     1
  3
Imperial24
350
1F7
  0
DICTIONARY
  5
D
102
{ACAD_REACTORS
330
C
102
}
330
C
100
AcDbDictionary
281
     1
  0
DICTIONARY
  5
1A
102
{ACAD_REACTORS
330
C
102
}
330
C
100
AcDbDictionary
281
     1
  3
Layout1
350
1E
  3
Layout2
350
26
  3
Model
350
22
  0
DICTIONARY
  5
3B
102
{ACAD_REACTORS
330
C
102
}
330
C
100
AcDbDictionary
281
     1
  3
ByBlock
350
3D
  3
ByLayer
350
3C
  3
Global
350
3E
  0
DICTIONARY
  5
1C3
102
{ACAD_REACTORS
330
C
102
}
330
C
100
AcDbDictionary
281
     1
  3
Standard
350
1F3
  0
DICTIONARY
  5
17
102
{ACAD_REACTORS
330
C
102
}
330
C
100
AcDbDictionary
281
     1
  3
Standard
350
18
  0
DICTIONARY
  5
19
102
{ACAD_REACTORS
330
C
102
}
330
C
100
AcDbDictionary
281
     1
  0
ACDBDICTIONARYWDFLT
  5
E
102
{ACAD_REACTORS
330
C
102
}
330
C
100
AcDbDictionary
281
     1
  3
Normal
350
F
100
AcDbDictionaryWithDefault
340
F
  0
DICTIONARY
  5
1E1
102
{ACAD_REACTORS
330
C
102
}
330
C
100
AcDbDictionary
281
     1
  3
A0
350
1E2
  3
A1
350
1E3
  3
A2
350
1E4
  3
A3
350
1E5
  3
A4
350
1E6
  3
A5
350
1E7
  3
A6
350
1E8
  3
A7
350
1E9
  3
A8
350
1EA
  3
A9
350
1EB
  3
B0
350
1EC
  3
B1
350
1ED
  3
B2
350
1EE
  3
B3
350
1EF
  3
B4
350
1F0
  3
B5
350
1F1
  3
B6
350
1F2
  0
DICTIONARY
  5
1F4
102
{ACAD_REACTORS
330
C
102
}
330
C
100
AcDbDictionary
281
     1
  3
Imperial24
350
1F5
  0
DICTIONARY
  5
1C2
102
{ACAD_REACTORS
330
C
102
}
330
C
100
AcDbDictionary
281
     1
  3
Standard
350
1E0
  0
DICTIONARY
  5
1C6
102
{ACAD_REACTORS
330
C
102
}
330
C
100
AcDbDictionary
281
     1
  3
2dWireframe
350
1CC
  3
Basic
350
1CB
  3
Brighten
350
1D2
  3
ColorChange
350
1D6
  3
Conceptual
350
1CF
  3
Dim
350
1D1
  3
EdgeColorOff
350
1DE
  3
Facepattern
350
1D5
  3
Flat
350
1C7
  3
FlatWithEdges
350
1C8
  3
Gouraud
350
1C9
  3
GouraudWithEdges
350
1CA
  3
Hidden
350
1CE
  3
JitterOff
350
1DC
  3
Linepattern
350
1D4
  3
OverhangOff
350
1DD
  3
Realistic
350
1D0
  3
Shaded
350
1DB
  3
Shaded with edges
350
1DA
  3
Shades of Gray
350
1D7
  3
Sketchy
350
1D8
  3
Thicken
350
1D3
  3
Wireframe
350
1CD
  3
X-Ray
350
1D9
  0
XRECORD
  5
268
102
{ACAD_REACTORS
330
C
102
}
330
C
100
AcDbXrecord
280
     1
 90
        1
330
1E0
  0
DICTIONARY
  5
20F
102
{ACAD_REACTORS
330
C
102
}
330
C
100
AcDbDictionary
281
     1
  3
CANNOSCALE
350
215
  3
CMLEADERSTYLE
350
211
  3
CTABLESTYLE
350
210
  3
CVIEWDETAILSTYLE
350
212
  3
CVIEWSECTIONSTYLE
350
213
  3
LAYEREVAL
350
217
  3
LAYERNOTIFY
350
218
  3
LIGHTINGUNITS
350
216
  3
MSLTSCALE
350
214
  0
DICTIONARY
  5
26E
102
{ACAD_REACTORS
330
C
102
}
330
C
100
AcDbDictionary
281
     1
  3
AcDsRecords
350
270
  3
AcDsSchemas
350
26F
1001
ACAD
1070
     2
  0
DICTIONARY
  5
261
102
{ACAD_REACTORS
330
260
102
}
330
260
100
AcDbDictionary
281
     1
  0
XRECORD
  5
200
102
{ACAD_REACTORS
330
1FF
102
}
330
1FF
100
AcDbXrecord
280
     1
290
     1
  0
XRECORD
  5
202
102
{ACAD_REACTORS
330
201
102
}
330
201
100
AcDbXrecord
280
     1
290
     1
  0
XRECORD
  5
204
102
{ACAD_REACTORS
330
203
102
}
330
203
100
AcDbXrecord
280
     1
290
     1
  0
XRECORD
  5
206
102
{ACAD_REACTORS
330
205
102
}
330
205
100
AcDbXrecord
280
     1
290
     1
  0
XRECORD
  5
208
102
{ACAD_REACTORS
330
207
102
}
330
207
100
AcDbXrecord
280
     1
290
     1
  0
XRECORD
  5
20A
102
{ACAD_REACTORS
330
209
102
}
330
209
100
AcDbXrecord
280
     1
290
     1
  0
XRECORD
  5
20C
102
{ACAD_REACTORS
330
20B
102
}
330
20B
100
AcDbXrecord
280
     1
290
     1
  0
XRECORD
  5
20E
102
{ACAD_REACTORS
330
20D
102
}
330
20D
100
AcDbXrecord
280
     1
290
     1
  0
ACDBDETAILVIEWSTYLE
  5
1F7
102
{ACAD_XDICTIONARY
360
2A3
102
}
102
{ACAD_REACTORS
330
1F6
102
}
330
1F6
100
AcDbModelDocViewStyle
 70
     0
  3
Imperial24
290
     0
100
AcDbDetailViewStyle
 70
     0
 71
     0
 90
        3
 71
     1
340
11
 62
   256
 40
0.24
340
0
 62
   256
 40
0.24
300

 40
0.36
280
     3
 71
     2
340
16
 90
       25
 62
   256
 71
     3
340
11
 62
   256
 40
0.24
 90
        1
 40
0.75
 90
        1
300
%<\AcVar ViewType \f "%tc1">% %<\AcVar ViewDetailId>%\PSCALE %<\AcVar ViewScale \f "%sn">%
 71
     4
340
16
 90
       25
 62
   256
340
16
 90
       25
 62
   256
280
     0
  0
LAYOUT
  5
1E
102
{ACAD_REACTORS
330
1A
102
}
330
1A
100
AcDbPlotSettings
  1

  2
none_device
  4

  6

 40
0.0
 41
0.0
 42
0.0
 43
0.0
 44
0.0
 45
0.0
 46
0.0
 47
0.0
 48
0.0
 49
0.0
140
0.0
141
0.0
142
1.0
143
1.0
 70
   688
 72
     0
 73
     0
 74
     5
  7
monochrome.ctb
 75
    16
147
1.0
 76
     0
 77
     2
 78
   300
148
0.0
149
0.0
100
AcDbLayout
  1
Layout1
 70
     1
 71
     1
 10
0.0
 20
0.0
 11
12.0
 21
9.0
 12
0.0
 22
0.0
 32
0.0
 14
1.000000000000000E+20
 24
1.000000000000000E+20
 34
1.000000000000000E+20
 15
-1.000000000000000E+20
 25
-1.000000000000000E+20
 35
-1.000000000000000E+20
146
0.0
 13
0.0
 23
0.0
 33
0.0
 16
1.0
 26
0.0
 36
0.0
 17
0.0
 27
1.0
 37
0.0
 76
     0
330
1B
  0
LAYOUT
  5
26
102
{ACAD_REACTORS
330
1A
102
}
330
1A
100
AcDbPlotSettings
  1

  2
none_device
  4

  6

 40
0.0
 41
0.0
 42
0.0
 43
0.0
 44
0.0
 45
0.0
 46
0.0
 47
0.0
 48
0.0
 49
0.0
140
0.0
141
0.0
142
1.0
143
1.0
 70
   688
 72
     0
 73
     0
 74
     5
  7
monochrome.ctb
 75
    16
147
1.0
 76
     0
 77
     2
 78
   300
148
0.0
149
0.0
100
AcDbLayout
  1
Layout2
 70
     1
 71
     2
 10
0.0
 20
0.0
 11
0.0
 21
0.0
 12
0.0
 22
0.0
 32
0.0
 14
0.0
 24
0.0
 34
0.0
 15
0.0
 25
0.0
 35
0.0
146
0.0
 13
0.0
 23
0.0
 33
0.0
 16
1.0
 26
0.0
 36
0.0
 17
0.0
 27
1.0
 37
0.0
 76
     0
330
23
  0
LAYOUT
  5
22
102
{ACAD_REACTORS
330
1A
102
}
330
1A
100
AcDbPlotSettings
  1

  2
\\ZZBV1FP\BV1_1_CPF685_Custom
  4
User300
  6

 40
3.757083415985107
 41
3.757080078125
 42
3.75714111328125
 43
3.757080078125
 44
609.5153198242187
 45
1117.515258789062
 46
66.02845602439256
 47
72.35559087939913
 48
0.0
 49
0.0
140
0.0
141
0.0
142
1.0
143
1.0
 70
 11940
 72
     0
 73
     1
 74
     1
  7
monochrome.ctb
 75
     0
147
0.2816623575854878
 76
     0
 77
     2
 78
   300
148
-56.94071299934376
149
-51.61157973028222
100
AcDbLayout
  1
Model
 70
     1
 71
     0
 10
0.0
 20
0.0
 11
42.0
 21
22.0
 12
0.0
 22
0.0
 32
0.0
 14
0.0
 24
0.0
 34
0.0
 15
42.0
 25
22.0
 35
0.0
146
0.0
 13
0.0
 23
0.0
 33
0.0
 16
1.0
 26
0.0
 36
0.0
 17
0.0
 27
1.0
 37
0.0
 76
     0
330
1F
331
29
1001
ACAD_PSEXT
1000
\\ZZBV1FP\BV1_1_CPF685_Custom
1000
Canon iPF685
1000
Custom Engineering Office
1000
Canon ProGraph ipf685^M^JS/N# - AANP0031   Asset Tag# AA6776
1070
     0
  0
MATERIAL
  5
3D
102
{ACAD_REACTORS
330
3B
102
}
330
3B
100
AcDbMaterial
  1
ByBlock
  0
MATERIAL
  5
3C
102
{ACAD_REACTORS
330
3B
102
}
330
3B
100
AcDbMaterial
  1
ByLayer
  0
MATERIAL
  5
3E
102
{ACAD_XDICTIONARY
360
25B
102
}
102
{ACAD_REACTORS
330
3B
102
}
330
3B
100
AcDbMaterial
  1
Global
  0
MLEADERSTYLE
  5
1F3
102
{ACAD_REACTORS
330
1C3
102
}
330
1C3
100
AcDbMLeaderStyle
179
     2
170
     2
171
     1
172
     0
 90
        2
 40
0.0
 41
0.0
173
     1
 91
-1056964608
340
14
 92
       -2
290
     1
 42
0.09
291
     1
 43
0.36
  3
Standard
 44
0.18
300

342
11
174
     1
178
     6
175
     1
176
     0
 93
-1056964608
 45
0.18
292
     0
297
     0
 46
0.18
 94
-1056964608
 47
1.0
 49
1.0
140
1.0
293
     1
141
0.0
294
     1
177
     0
142
1.0
295
     0
296
     0
143
0.125
271
     0
272
     9
273
     9
  0
MLINESTYLE
  5
18
102
{ACAD_REACTORS
330
17
102
}
330
17
100
AcDbMlineStyle
  2
STANDARD
 70
     0
  3

 62
   256
 51
90.0
 52
90.0
 71
     2
 49
0.5
 62
   256
  6
BYLAYER
 49
-0.5
 62
   256
  6
BYLAYER
  0
ACDBPLACEHOLDER
  5
F
102
{ACAD_REACTORS
330
E
102
}
330
E
  0
SCALE
  5
1E2
102
{ACAD_REACTORS
330
1E1
102
}
330
1E1
100
AcDbScale
 70
     0
300
1:1
140
1.0
141
1.0
290
     1
  0
SCALE
  5
1E3
102
{ACAD_REACTORS
330
1E1
102
}
330
1E1
100
AcDbScale
 70
     0
300
1/128" = 1'-0"
140
0.0078125
141
12.0
290
     0
  0
SCALE
  5
1E4
102
{ACAD_REACTORS
330
1E1
102
}
330
1E1
100
AcDbScale
 70
     0
300
1/64" = 1'-0"
140
0.015625
141
12.0
290
     0
  0
SCALE
  5
1E5
102
{ACAD_REACTORS
330
1E1
102
}
330
1E1
100
AcDbScale
 70
     0
300
1/32" = 1'-0"
140
0.03125
141
12.0
290
     0
  0
SCALE
  5
1E6
102
{ACAD_REACTORS
330
1E1
102
}
330
1E1
100
AcDbScale
 70
     0
300
1/16" = 1'-0"
140
0.0625
141
12.0
290
     0
  0
SCALE
  5
1E7
102
{ACAD_REACTORS
330
1E1
102
}
330
1E1
100
AcDbScale
 70
     0
300
3/32" = 1'-0"
140
0.09375
141
12.0
290
     0
  0
SCALE
  5
1E8
102
{ACAD_REACTORS
330
1E1
102
}
330
1E1
100
AcDbScale
 70
     0
300
1/8" = 1'-0"
140
0.125
141
12.0
290
     0
  0
SCALE
  5
1E9
102
{ACAD_REACTORS
330
1E1
102
}
330
1E1
100
AcDbScale
 70
     0
300
3/16" = 1'-0"
140
0.1875
141
12.0
290
     0
  0
SCALE
  5
1EA
102
{ACAD_REACTORS
330
1E1
102
}
330
1E1
100
AcDbScale
 70
     0
300
1/4" = 1'-0"
140
0.25
141
12.0
290
     0
  0
SCALE
  5
1EB
102
{ACAD_REACTORS
330
1E1
102
}
330
1E1
100
AcDbScale
 70
     0
300
3/8" = 1'-0"
140
0.375
141
12.0
290
     0
  0
SCALE
  5
1EC
102
{ACAD_REACTORS
330
1E1
102
}
330
1E1
100
AcDbScale
 70
     0
300
1/2" = 1'-0"
140
0.5
141
12.0
290
     0
  0
SCALE
  5
1ED
102
{ACAD_REACTORS
330
1E1
102
}
330
1E1
100
AcDbScale
 70
     0
300
3/4" = 1'-0"
140
0.75
141
12.0
290
     0
  0
SCALE
  5
1EE
102
{ACAD_REACTORS
330
1E1
102
}
330
1E1
100
AcDbScale
 70
     0
300
1" = 1'-0"
140
1.0
141
12.0
290
     0
  0
SCALE
  5
1EF
102
{ACAD_REACTORS
330
1E1
102
}
330
1E1
100
AcDbScale
 70
     0
300
1-1/2" = 1'-0"
140
1.5
141
12.0
290
     0
  0
SCALE
  5
1F0
102
{ACAD_REACTORS
330
1E1
102
}
330
1E1
100
AcDbScale
 70
     0
300
3" = 1'-0"
140
3.0
141
12.0
290
     0
  0
SCALE
  5
1F1
102
{ACAD_REACTORS
330
1E1
102
}
330
1E1
100
AcDbScale
 70
     0
300
6" = 1'-0"
140
6.0
141
12.0
290
     0
  0
SCALE
  5
1F2
102
{ACAD_REACTORS
330
1E1
102
}
330
1E1
100
AcDbScale
 70
     0
300
1'-0" = 1'-0"
140
12.0
141
12.0
290
     0
  0
ACDBSECTIONVIEWSTYLE
  5
1F5
102
{ACAD_XDICTIONARY
360
2A1
102
}
102
{ACAD_REACTORS
330
1F4
102
}
330
1F4
100
AcDbModelDocViewStyle
 70
     0
  3
Imperial24
290
     0
100
AcDbSectionViewStyle
 70
     0
 71
     0
 90
       78
 71
     1
340
11
 62
   256
 40
0.24
340
0
340
0
 62
   256
 40
0.24
300
I, O, Q, S, X, Z
 40
0.48
 90
        3
 40
0.18
 90
        1
 71
     2
340
16
 90
       25
 62
   256
340
16
 90
       50
 62
   256
 40
0.24
 40
0.0
 40
0.24
 71
     3
340
11
 62
   256
 40
0.24
 90
        1
 40
0.75
 90
        1
300
%<\AcVar ViewType \f "%tc1">% %<\AcVar ViewSectionStartId>%-%<\AcVar ViewSectionEndId>%\PSCALE %<\AcVar ViewScale \f "%sn">%
 71
     4
 62
   256
 62
   257
300
ANSI31
 40
1.0
 90
        0
290
     0
290
     0
 90
        6
 40
0.0
 40
1.570796326794896
 40
0.2617993877991494
 40
1.308996938995747
 40
-0.2617993877991494
 40
1.832595714594046
  0
TABLESTYLE
  5
1E0
102
{ACAD_XDICTIONARY
360
266
102
}
102
{ACAD_REACTORS
330
1C2
102
}
330
1C2
100
AcDbTableStyle
280
     0
  3
Standard
 70
     0
 71
     0
 40
0.06
 41
0.06
280
     0
281
     0
  7
STANDARD
140
0.18
170
     2
 62
     0
 63
     7
283
     0
 90
      512
 91
        0
  1

274
    -2
284
     1
 64
     0
275
    -2
285
     1
 65
     0
276
    -2
286
     1
 66
     0
277
    -2
287
     1
 67
     0
278
    -2
288
     1
 68
     0
279
    -2
289
     1
 69
     0
  7
STANDARD
140
0.25
170
     5
 62
     0
 63
     7
283
     0
 90
      512
 91
        0
  1

274
    -2
284
     1
 64
     0
275
    -2
285
     1
 65
     0
276
    -2
286
     1
 66
     0
277
    -2
287
     1
 67
     0
278
    -2
288
     1
 68
     0
279
    -2
289
     1
 69
     0
  7
STANDARD
140
0.18
170
     5
 62
     0
 63
     7
283
     0
 90
      512
 91
        0
  1

274
    -2
284
     1
 64
     0
275
    -2
285
     1
 65
     0
276
    -2
286
     1
 66
     0
277
    -2
287
     1
 67
     0
278
    -2
288
     1
 68
     0
279
    -2
289
     1
 69
     0
  0
VISUALSTYLE
  5
1CC
102
{ACAD_XDICTIONARY
360
27B
102
}
102
{ACAD_REACTORS
330
1C6
102
}
330
1C6
100
AcDbVisualStyle
  2
2dWireframe
 70
     4
177
     2
291
     0
 71
     0
176
     1
 72
     2
176
     1
 73
     0
176
     1
 90
        0
176
     1
 40
0.6
176
     1
 41
30.0
176
     1
 63
     7
421
 16777215
176
     1
 74
     1
176
     1
 91
        4
176
     1
 64
     7
176
     1
 65
   257
176
     1
 75
     1
176
     1
175
     1
176
     1
 42
1.0
176
     1
 92
        0
176
     1
 66
   257
176
     1
 43
1.0
176
     1
 76
     1
176
     1
 77
     6
176
     1
 78
     2
176
     1
 67
     7
176
     1
 79
     5
176
     1
170
     0
176
     1
171
     0
176
     1
290
     0
176
     1
 93
        1
176
     1
 44
0.0
176
     1
173
     0
176
     1
1001
ACAD
1000
AcDbSavedByObjectVersion
1070
     0
  0
VISUALSTYLE
  5
1CB
102
{ACAD_XDICTIONARY
360
279
102
}
102
{ACAD_REACTORS
330
1C6
102
}
330
1C6
100
AcDbVisualStyle
  2
Basic
 70
     7
177
     2
291
     1
 71
     1
176
     1
 72
     0
176
     1
 73
     1
176
     1
 90
        0
176
     1
 40
0.6
176
     1
 41
30.0
176
     1
 63
     7
421
 16777215
176
     1
 74
     0
176
     1
 91
        4
176
     1
 64
     7
176
     1
 65
   257
176
     1
 75
     1
176
     1
175
     1
176
     1
 42
1.0
176
     1
 92
        8
176
     1
 66
     7
176
     1
 43
1.0
176
     1
 76
     1
176
     1
 77
     6
176
     1
 78
     2
176
     1
 67
     7
176
     1
 79
     5
176
     1
170
     0
176
     1
171
     0
176
     1
290
     0
176
     1
 93
        1
176
     1
 44
0.0
176
     1
173
     0
176
     1
1001
ACAD
1000
AcDbSavedByObjectVersion
1070
     0
  0
VISUALSTYLE
  5
1D2
102
{ACAD_XDICTIONARY
360
287
102
}
102
{ACAD_REACTORS
330
1C6
102
}
330
1C6
100
AcDbVisualStyle
  2
Brighten
 70
    12
177
     2
291
     1
 71
     2
176
     1
 72
     2
176
     1
 73
     0
176
     1
 90
        0
176
     1
 40
0.6
176
     1
 41
30.0
176
     1
 63
     7
421
 16777215
176
     1
 74
     1
176
     1
 91
        4
176
     1
 64
     7
176
     1
 65
   257
176
     1
 75
     1
176
     1
175
     1
176
     1
 42
1.0
176
     1
 92
        8
176
     1
 66
     7
176
     1
 43
1.0
176
     1
 76
     1
176
     1
 77
     6
176
     1
 78
     2
176
     1
 67
     7
176
     1
 79
     5
176
     1
170
     0
176
     1
171
     0
176
     1
290
     0
176
     1
 93
        1
176
     1
 44
50.0
176
     1
173
     0
176
     1
1001
ACAD
1000
AcDbSavedByObjectVersion
1070
     0
  0
VISUALSTYLE
  5
1D6
102
{ACAD_XDICTIONARY
360
28F
102
}
102
{ACAD_REACTORS
330
1C6
102
}
330
1C6
100
AcDbVisualStyle
  2
ColorChange
 70
    16
177
     2
291
     1
 71
     2
176
     1
 72
     2
176
     1
 73
     3
176
     1
 90
        0
176
     1
 40
0.6
176
     1
 41
30.0
176
     1
 63
     8
421
  8421504
176
     1
 74
     1
176
     1
 91
        4
176
     1
 64
     7
176
     1
 65
   257
176
     1
 75
     1
176
     1
175
     1
176
     1
 42
1.0
176
     1
 92
        8
176
     1
 66
     8
424
  8421504
176
     1
 43
1.0
176
     1
 76
     1
176
     1
 77
     6
176
     1
 78
     2
176
     1
 67
     7
176
     1
 79
     5
176
     1
170
     0
176
     1
171
     0
176
     1
290
     0
176
     1
 93
        1
176
     1
 44
0.0
176
     1
173
     0
176
     1
1001
ACAD
1000
AcDbSavedByObjectVersion
1070
     0
  0
VISUALSTYLE
  5
1CF
102
{ACAD_XDICTIONARY
360
281
102
}
102
{ACAD_REACTORS
330
1C6
102
}
330
1C6
100
AcDbVisualStyle
  2
Conceptual
 70
     9
177
     2
291
     0
 71
     3
176
     1
 72
     2
176
     1
 73
     0
176
     1
 90
        0
176
     1
 40
0.6
176
     1
 41
30.0
176
     1
 63
     7
421
 16777215
176
     1
 74
     2
176
     1
 91
        2
176
     1
 64
     7
176
     1
 65
   257
176
     1
 75
     1
176
     1
175
     1
176
     1
 42
179.0
176
     1
 92
        8
176
     1
 66
     7
176
     1
 43
1.0
176
     1
 76
     1
176
     1
 77
     6
176
     1
 78
     2
176
     1
 67
     7
176
     1
 79
     3
176
     1
170
     0
176
     1
171
     0
176
     1
290
     0
176
     1
 93
        1
176
     1
 44
0.0
176
     1
173
     0
176
     1
1001
ACAD
1000
AcDbSavedByObjectVersion
1070
     0
  0
VISUALSTYLE
  5
1D1
102
{ACAD_XDICTIONARY
360
285
102
}
102
{ACAD_REACTORS
330
1C6
102
}
330
1C6
100
AcDbVisualStyle
  2
Dim
 70
    11
177
     2
291
     1
 71
     2
176
     1
 72
     2
176
     1
 73
     0
176
     1
 90
        0
176
     1
 40
0.6
176
     1
 41
30.0
176
     1
 63
     7
421
 16777215
176
     1
 74
     1
176
     1
 91
        4
176
     1
 64
     7
176
     1
 65
   257
176
     1
 75
     1
176
     1
175
     1
176
     1
 42
1.0
176
     1
 92
        8
176
     1
 66
     7
176
     1
 43
1.0
176
     1
 76
     1
176
     1
 77
     6
176
     1
 78
     2
176
     1
 67
     7
176
     1
 79
     5
176
     1
170
     0
176
     1
171
     0
176
     1
290
     0
176
     1
 93
        1
176
     1
 44
-50.0
176
     1
173
     0
176
     1
1001
ACAD
1000
AcDbSavedByObjectVersion
1070
     0
  0
VISUALSTYLE
  5
1DE
102
{ACAD_XDICTIONARY
360
29F
102
}
102
{ACAD_REACTORS
330
1C6
102
}
330
1C6
100
AcDbVisualStyle
  2
EdgeColorOff
 70
    22
177
     2
291
     1
 71
     2
176
     0
 72
     2
176
     0
 73
     0
176
     0
 90
        0
176
     0
 40
0.6
176
     0
 41
30.0
176
     0
 63
     7
421
 16777215
176
     0
 74
     1
176
     0
 91
        4
176
     0
 64
     7
176
     0
 65
   257
176
     0
 75
     1
176
     0
175
     1
176
     0
 42
1.0
176
     0
 92
        8
176
     2
 66
     7
176
     0
 43
1.0
176
     0
 76
     1
176
     0
 77
     6
176
     0
 78
     2
176
     0
 67
     7
176
     0
 79
     5
176
     0
170
     0
176
     0
171
     0
176
     0
290
     0
176
     0
 93
        1
176
     0
 44
0.0
176
     0
173
     0
176
     0
1001
ACAD
1000
AcDbSavedByObjectVersion
1070
     0
  0
VISUALSTYLE
  5
1D5
102
{ACAD_XDICTIONARY
360
28D
102
}
102
{ACAD_REACTORS
330
1C6
102
}
330
1C6
100
AcDbVisualStyle
  2
Facepattern
 70
    15
177
     2
291
     1
 71
     2
176
     1
 72
     2
176
     1
 73
     0
176
     1
 90
        0
176
     1
 40
0.6
176
     1
 41
30.0
176
     1
 63
     7
421
 16777215
176
     1
 74
     1
176
     1
 91
        4
176
     1
 64
     7
176
     1
 65
   257
176
     1
 75
     1
176
     1
175
     1
176
     1
 42
1.0
176
     1
 92
        8
176
     1
 66
     7
176
     1
 43
1.0
176
     1
 76
     1
176
     1
 77
     6
176
     1
 78
     2
176
     1
 67
     7
176
     1
 79
     5
176
     1
170
     0
176
     1
171
     0
176
     1
290
     0
176
     1
 93
        1
176
     1
 44
0.0
176
     1
173
     0
176
     1
1001
ACAD
1000
AcDbSavedByObjectVersion
1070
     0
  0
VISUALSTYLE
  5
1C7
102
{ACAD_XDICTIONARY
360
271
102
}
102
{ACAD_REACTORS
330
1C6
102
}
330
1C6
100
AcDbVisualStyle
  2
Flat
 70
     0
177
     2
291
     1
 71
     2
176
     1
 72
     1
176
     1
 73
     1
176
     1
 90
        2
176
     1
 40
0.6
176
     1
 41
30.0
176
     1
 63
     7
421
 16777215
176
     1
 74
     0
176
     1
 91
        0
176
     1
 64
     7
176
     1
 65
   257
176
     1
 75
     1
176
     1
175
     1
176
     1
 42
1.0
176
     1
 92
        8
176
     1
 66
     7
176
     1
 43
1.0
176
     1
 76
     1
176
     1
 77
     6
176
     1
 78
     2
176
     1
 67
     7
176
     1
 79
     5
176
     1
170
     0
176
     1
171
     0
176
     1
290
     0
176
     1
 93
       13
176
     1
 44
0.0
176
     1
173
     0
176
     1
1001
ACAD
1000
AcDbSavedByObjectVersion
1070
     0
  0
VISUALSTYLE
  5
1C8
102
{ACAD_XDICTIONARY
360
273
102
}
102
{ACAD_REACTORS
330
1C6
102
}
330
1C6
100
AcDbVisualStyle
  2
FlatWithEdges
 70
     1
177
     2
291
     1
 71
     2
176
     1
 72
     1
176
     1
 73
     1
176
     1
 90
        2
176
     1
 40
0.6
176
     1
 41
30.0
176
     1
 63
     7
421
 16777215
176
     1
 74
     1
176
     1
 91
        0
176
     1
 64
     7
176
     1
 65
   257
176
     1
 75
     1
176
     1
175
     1
176
     1
 42
1.0
176
     1
 92
        0
176
     1
 66
   257
176
     1
 43
1.0
176
     1
 76
     1
176
     1
 77
     6
176
     1
 78
     2
176
     1
 67
     7
176
     1
 79
     5
176
     1
170
     0
176
     1
171
     0
176
     1
290
     0
176
     1
 93
       13
176
     1
 44
0.0
176
     1
173
     0
176
     1
1001
ACAD
1000
AcDbSavedByObjectVersion
1070
     0
  0
VISUALSTYLE
  5
1C9
102
{ACAD_XDICTIONARY
360
275
102
}
102
{ACAD_REACTORS
330
1C6
102
}
330
1C6
100
AcDbVisualStyle
  2
Gouraud
 70
     2
177
     2
291
     1
 71
     2
176
     1
 72
     2
176
     1
 73
     1
176
     1
 90
        2
176
     1
 40
0.6
176
     1
 41
30.0
176
     1
 63
     7
421
 16777215
176
     1
 74
     0
176
     1
 91
        0
176
     1
 64
     7
176
     1
 65
   257
176
     1
 75
     1
176
     1
175
     1
176
     1
 42
1.0
176
     1
 92
        0
176
     1
 66
     7
176
     1
 43
1.0
176
     1
 76
     1
176
     1
 77
     6
176
     1
 78
     2
176
     1
 67
     7
176
     1
 79
     5
176
     1
170
     0
176
     1
171
     0
176
     1
290
     0
176
     1
 93
       13
176
     1
 44
0.0
176
     1
173
     0
176
     1
1001
ACAD
1000
AcDbSavedByObjectVersion
1070
     0
  0
VISUALSTYLE
  5
1CA
102
{ACAD_XDICTIONARY
360
277
102
}
102
{ACAD_REACTORS
330
1C6
102
}
330
1C6
100
AcDbVisualStyle
  2
GouraudWithEdges
 70
     3
177
     2
291
     1
 71
     2
176
     1
 72
     2
176
     1
 73
     1
176
     1
 90
        2
176
     1
 40
0.6
176
     1
 41
30.0
176
     1
 63
     7
421
 16777215
176
     1
 74
     1
176
     1
 91
        0
176
     1
 64
     7
176
     1
 65
   257
176
     1
 75
     1
176
     1
175
     1
176
     1
 42
1.0
176
     1
 92
        0
176
     1
 66
   257
176
     1
 43
1.0
176
     1
 76
     1
176
     1
 77
     6
176
     1
 78
     2
176
     1
 67
     7
176
     1
 79
     5
176
     1
170
     0
176
     1
171
     0
176
     1
290
     0
176
     1
 93
       13
176
     1
 44
0.0
176
     1
173
     0
176
     1
1001
ACAD
1000
AcDbSavedByObjectVersion
1070
     0
  0
VISUALSTYLE
  5
1CE
102
{ACAD_XDICTIONARY
360
27F
102
}
102
{ACAD_REACTORS
330
1C6
102
}
330
1C6
100
AcDbVisualStyle
  2
Hidden
 70
     6
177
     2
291
     0
 71
     1
176
     1
 72
     2
176
     1
 73
     2
176
     1
 90
        0
176
     1
 40
0.6
176
     1
 41
30.0
176
     1
 63
     7
421
 16777215
176
     1
 74
     2
176
     1
 91
        2
176
     1
 64
     7
176
     1
 65
   257
176
     1
 75
     2
176
     1
175
     1
176
     1
 42
40.0
176
     1
 92
        0
176
     1
 66
   257
176
     1
 43
1.0
176
     1
 76
     1
176
     1
 77
     6
176
     1
 78
     2
176
     1
 67
     7
176
     1
 79
     3
176
     1
170
     0
176
     1
171
     0
176
     1
290
     0
176
     1
 93
        1
176
     1
 44
0.0
176
     1
173
     0
176
     1
1001
ACAD
1000
AcDbSavedByObjectVersion
1070
     0
  0
VISUALSTYLE
  5
1DC
102
{ACAD_XDICTIONARY
360
29B
102
}
102
{ACAD_REACTORS
330
1C6
102
}
330
1C6
100
AcDbVisualStyle
  2
JitterOff
 70
    20
177
     2
291
     1
 71
     2
176
     0
 72
     2
176
     0
 73
     0
176
     0
 90
        0
176
     0
 40
0.6
176
     0
 41
30.0
176
     0
 63
     7
421
 16777215
176
     0
 74
     1
176
     0
 91
        4
176
     0
 64
     7
176
     0
 65
   257
176
     0
 75
     1
176
     0
175
     1
176
     0
 42
1.0
176
     0
 92
       10
176
     2
 66
     7
176
     0
 43
1.0
176
     0
 76
     1
176
     0
 77
     6
176
     0
 78
     2
176
     0
 67
     7
176
     0
 79
     5
176
     0
170
     0
176
     0
171
     0
176
     0
290
     0
176
     0
 93
        1
176
     0
 44
0.0
176
     0
173
     0
176
     0
1001
ACAD
1000
AcDbSavedByObjectVersion
1070
     0
  0
VISUALSTYLE
  5
1D4
102
{ACAD_XDICTIONARY
360
28B
102
}
102
{ACAD_REACTORS
330
1C6
102
}
330
1C6
100
AcDbVisualStyle
  2
Linepattern
 70
    14
177
     2
291
     1
 71
     2
176
     1
 72
     2
176
     1
 73
     0
176
     1
 90
        0
176
     1
 40
0.6
176
     1
 41
30.0
176
     1
 63
     7
421
 16777215
176
     1
 74
     1
176
     1
 91
        4
176
     1
 64
     7
176
     1
 65
   257
176
     1
 75
     7
176
     1
175
     7
176
     1
 42
1.0
176
     1
 92
        8
176
     1
 66
     7
176
     1
 43
1.0
176
     1
 76
     1
176
     1
 77
     6
176
     1
 78
     2
176
     1
 67
     7
176
     1
 79
     5
176
     1
170
     0
176
     1
171
     0
176
     1
290
     0
176
     1
 93
        1
176
     1
 44
0.0
176
     1
173
     0
176
     1
1001
ACAD
1000
AcDbSavedByObjectVersion
1070
     0
  0
VISUALSTYLE
  5
1DD
102
{ACAD_XDICTIONARY
360
29D
102
}
102
{ACAD_REACTORS
330
1C6
102
}
330
1C6
100
AcDbVisualStyle
  2
OverhangOff
 70
    21
177
     2
291
     1
 71
     2
176
     0
 72
     2
176
     0
 73
     0
176
     0
 90
        0
176
     0
 40
0.6
176
     0
 41
30.0
176
     0
 63
     7
421
 16777215
176
     0
 74
     1
176
     0
 91
        4
176
     0
 64
     7
176
     0
 65
   257
176
     0
 75
     1
176
     0
175
     1
176
     0
 42
1.0
176
     0
 92
        9
176
     2
 66
     7
176
     0
 43
1.0
176
     0
 76
     1
176
     0
 77
     6
176
     0
 78
     2
176
     0
 67
     7
176
     0
 79
     5
176
     0
170
     0
176
     0
171
     0
176
     0
290
     0
176
     0
 93
        1
176
     0
 44
0.0
176
     0
173
     0
176
     0
1001
ACAD
1000
AcDbSavedByObjectVersion
1070
     0
  0
VISUALSTYLE
  5
1D0
102
{ACAD_XDICTIONARY
360
283
102
}
102
{ACAD_REACTORS
330
1C6
102
}
330
1C6
100
AcDbVisualStyle
  2
Realistic
 70
     8
177
     2
291
     0
 71
     2
176
     1
 72
     3
176
     1
 73
     0
176
     1
 90
        2
176
     1
 40
0.6
176
     1
 41
30.0
176
     1
 63
     7
421
 16777215
176
     1
 74
     0
176
     1
 91
        0
176
     1
 64
     7
176
     1
 65
   257
176
     1
 75
     1
176
     1
175
     1
176
     1
 42
1.0
176
     1
 92
        8
176
     1
 66
   257
176
     1
 43
1.0
176
     1
 76
     1
176
     1
 77
     6
176
     1
 78
     2
176
     1
 67
     7
176
     1
 79
     3
176
     1
170
     0
176
     1
171
     0
176
     1
290
     0
176
     1
 93
       13
176
     1
 44
0.0
176
     1
173
     0
176
     1
1001
ACAD
1000
AcDbSavedByObjectVersion
1070
     0
  0
VISUALSTYLE
  5
1DB
102
{ACAD_XDICTIONARY
360
299
102
}
102
{ACAD_REACTORS
330
1C6
102
}
330
1C6
100
AcDbVisualStyle
  2
Shaded
 70
    27
177
     2
291
     0
 71
     2
176
     1
 72
     2
176
     1
 73
     1
176
     1
 90
        2
176
     1
 40
0.6
176
     1
 41
30.0
176
     1
 63
     7
421
 16777215
176
     1
 74
     0
176
     1
 91
        4
176
     1
 64
     7
176
     1
 65
   257
176
     1
 75
     1
176
     1
175
     1
176
     1
 42
1.0
176
     1
 92
        8
176
     1
 66
   257
176
     1
 43
1.0
176
     1
 76
     1
176
     1
 77
     6
176
     1
 78
     2
176
     1
 67
     8
425
  7895160
176
     1
 79
     3
176
     1
170
     0
176
     1
171
     0
176
     1
290
     0
176
     1
 93
        5
176
     1
 44
0.0
176
     1
173
     0
176
     1
1001
ACAD
1000
AcDbSavedByObjectVersion
1070
     0
  0
VISUALSTYLE
  5
1DA
102
{ACAD_XDICTIONARY
360
297
102
}
102
{ACAD_REACTORS
330
1C6
102
}
330
1C6
100
AcDbVisualStyle
  2
Shaded with edges
 70
    26
177
     2
291
     0
 71
     2
176
     1
 72
     2
176
     1
 73
     1
176
     1
 90
        2
176
     1
 40
0.6
176
     1
 41
30.0
176
     1
 63
     7
421
 16777215
176
     1
 74
     1
176
     1
 91
       10
176
     1
 64
     7
176
     1
 65
   257
176
     1
 75
     2
176
     1
175
     1
176
     1
 42
1.0
176
     1
 92
        8
176
     1
 66
   257
176
     1
 43
1.0
176
     1
 76
     1
176
     1
 77
     6
176
     1
 78
     2
176
     1
 67
     7
176
     1
 79
     3
176
     1
170
     0
176
     1
171
     0
176
     1
290
     0
176
     1
 93
        5
176
     1
 44
0.0
176
     1
173
     0
176
     1
1001
ACAD
1000
AcDbSavedByObjectVersion
1070
     0
  0
VISUALSTYLE
  5
1D7
102
{ACAD_XDICTIONARY
360
291
102
}
102
{ACAD_REACTORS
330
1C6
102
}
330
1C6
100
AcDbVisualStyle
  2
Shades of Gray
 70
    23
177
     2
291
     0
 71
     2
176
     1
 72
     2
176
     1
 73
     3
176
     1
 90
        0
176
     1
 40
0.6
176
     1
 41
30.0
176
     1
 63
     7
421
 16777215
176
     1
 74
     2
176
     1
 91
        2
176
     1
 64
     7
176
     1
 65
     7
176
     1
 75
     1
176
     1
175
     1
176
     1
 42
40.0
176
     1
 92
        8
176
     1
 66
     7
176
     1
 43
1.0
176
     1
 76
     1
176
     1
 77
     6
176
     1
 78
     2
176
     1
 67
     7
176
     1
 79
     3
176
     1
170
     0
176
     1
171
     0
176
     1
290
     0
176
     1
 93
        1
176
     1
 44
0.0
176
     1
173
     0
176
     1
1001
ACAD
1000
AcDbSavedByObjectVersion
1070
     0
  0
VISUALSTYLE
  5
1D8
102
{ACAD_XDICTIONARY
360
293
102
}
102
{ACAD_REACTORS
330
1C6
102
}
330
1C6
100
AcDbVisualStyle
  2
Sketchy
 70
    24
177
     2
291
     0
 71
     1
176
     1
 72
     2
176
     1
 73
     2
176
     1
 90
        0
176
     1
 40
0.6
176
     1
 41
30.0
176
     1
 63
     7
421
 16777215
176
     1
 74
     2
176
     1
 91
        2
176
     1
 64
     7
176
     1
 65
     7
176
     1
 75
     1
176
     1
175
     1
176
     1
 42
40.0
176
     1
 92
       11
176
     1
 66
     7
176
     1
 43
1.0
176
     1
 76
     1
176
     1
 77
     6
176
     1
 78
     2
176
     1
 67
     7
176
     1
 79
     6
176
     1
170
     0
176
     1
171
     0
176
     1
290
     0
176
     1
 93
        1
176
     1
 44
0.0
176
     1
173
     0
176
     1
1001
ACAD
1000
AcDbSavedByObjectVersion
1070
     0
  0
VISUALSTYLE
  5
1D3
102
{ACAD_XDICTIONARY
360
289
102
}
102
{ACAD_REACTORS
330
1C6
102
}
330
1C6
100
AcDbVisualStyle
  2
Thicken
 70
    13
177
     2
291
     1
 71
     2
176
     1
 72
     2
176
     1
 73
     0
176
     1
 90
        0
176
     1
 40
0.6
176
     1
 41
30.0
176
     1
 63
     7
421
 16777215
176
     1
 74
     1
176
     1
 91
        4
176
     1
 64
     7
176
     1
 65
   257
176
     1
 75
     1
176
     1
175
     1
176
     1
 42
1.0
176
     1
 92
       12
176
     1
 66
     7
176
     1
 43
1.0
176
     1
 76
     1
176
     1
 77
     6
176
     1
 78
     2
176
     1
 67
     7
176
     1
 79
     5
176
     1
170
     0
176
     1
171
     0
176
     1
290
     0
176
     1
 93
        1
176
     1
 44
0.0
176
     1
173
     0
176
     1
1001
ACAD
1000
AcDbSavedByObjectVersion
1070
     0
  0
VISUALSTYLE
  5
1CD
102
{ACAD_XDICTIONARY
360
27D
102
}
102
{ACAD_REACTORS
330
1C6
102
}
330
1C6
100
AcDbVisualStyle
  2
Wireframe
 70
     5
177
     2
291
     0
 71
     0
176
     1
 72
     2
176
     1
 73
     0
176
     1
 90
        0
176
     1
 40
0.6
176
     1
 41
30.0
176
     1
 63
     7
421
 16777215
176
     1
 74
     1
176
     1
 91
        4
176
     1
 64
     7
176
     1
 65
   257
176
     1
 75
     1
176
     1
175
     1
176
     1
 42
1.0
176
     1
 92
        0
176
     1
 66
   257
176
     1
 43
1.0
176
     1
 76
     1
176
     1
 77
     6
176
     1
 78
     2
176
     1
 67
     7
176
     1
 79
     3
176
     1
170
     0
176
     1
171
     0
176
     1
290
     0
176
     1
 93
        1
176
     1
 44
0.0
176
     1
173
     0
176
     1
1001
ACAD
1000
AcDbSavedByObjectVersion
1070
     0
  0
VISUALSTYLE
  5
1D9
102
{ACAD_XDICTIONARY
360
295
102
}
102
{ACAD_REACTORS
330
1C6
102
}
330
1C6
100
AcDbVisualStyle
  2
X-Ray
 70
    25
177
     2
291
     0
 71
     2
176
     1
 72
     2
176
     1
 73
     1
176
     1
 90
        1
176
     1
 40
0.5
176
     1
 41
30.0
176
     1
 63
     7
421
 16777215
176
     1
 74
     1
176
     1
 91
        0
176
     1
 64
     7
176
     1
 65
   257
176
     1
 75
     1
176
     1
175
     1
176
     1
 42
1.0
176
     1
 92
        8
176
     1
 66
     7
176
     1
 43
1.0
176
     1
 76
     1
176
     1
 77
     6
176
     1
 78
     2
176
     1
 67
     7
176
     1
 79
     3
176
     1
170
     0
176
     1
171
     0
176
     1
290
     0
176
     1
 93
       13
176
     1
 44
0.0
176
     1
173
     0
176
     1
1001
ACAD
1000
AcDbSavedByObjectVersion
1070
     0
  0
DICTIONARYVAR
  5
215
102
{ACAD_REACTORS
330
20F
102
}
330
20F
100
DictionaryVariables
280
     0
  1
1:1
  0
DICTIONARYVAR
  5
211
102
{ACAD_REACTORS
330
20F
102
}
330
20F
100
DictionaryVariables
280
     0
  1
STANDARD
  0
DICTIONARYVAR
  5
210
102
{ACAD_REACTORS
330
20F
102
}
330
20F
100
DictionaryVariables
280
     0
  1
STANDARD
  0
DICTIONARYVAR
  5
212
102
{ACAD_REACTORS
330
20F
102
}
330
20F
100
DictionaryVariables
280
     0
  1
Imperial24
  0
DICTIONARYVAR
  5
213
102
{ACAD_REACTORS
330
20F
102
}
330
20F
100
DictionaryVariables
280
     0
  1
Imperial24
  0
DICTIONARYVAR
  5
217
102
{ACAD_REACTORS
330
20F
102
}
330
20F
100
DictionaryVariables
280
     0
  1
1
  0
DICTIONARYVAR
  5
218
102
{ACAD_REACTORS
330
20F
102
}
330
20F
100
DictionaryVariables
280
     0
  1
15
  0
DICTIONARYVAR
  5
216
102
{ACAD_REACTORS
330
20F
102
}
330
20F
100
DictionaryVariables
280
     0
  1
0
  0
DICTIONARYVAR
  5
214
102
{ACAD_REACTORS
330
20F
102
}
330
20F
100
DictionaryVariables
280
     0
  1
0
  0
DICTIONARY
  5
270
102
{ACAD_REACTORS
330
26E
102
}
330
26E
100
AcDbDictionary
281
     1
  0
DICTIONARY
  5
26F
102
{ACAD_REACTORS
330
26E
102
}
330
26E
100
AcDbDictionary
281
     1
  3
8796087871632
350
269
  3
8796087871648
350
26A
  3
8796087871664
350
26B
  3
8796087871680
350
26C
  3
8796087871696
350
26D
  0
DICTIONARY
  5
2A3
330
1F7
100
AcDbDictionary
280
     1
281
     1
  3
ACAD_XREC_ROUNDTRIP
360
2A4
  0
DICTIONARY
  5
25B
330
3E
100
AcDbDictionary
280
     1
281
     1
  3
FBXASSET
360
25C
  0
DICTIONARY
  5
2A1
330
1F5
100
AcDbDictionary
280
     1
281
     1
  3
ACAD_XREC_ROUNDTRIP
360
2A2
  0
DICTIONARY
  5
266
330
1E0
100
AcDbDictionary
280
     1
281
     1
  3
ACAD_ROUNDTRIP_2008_TABLESTYLE_CELLSTYLEMAP
360
267
  0
DICTIONARY
  5
27B
330
1CC
100
AcDbDictionary
280
     1
281
     1
  3
ACAD_XREC_ROUNDTRIP
360
27C
  0
DICTIONARY
  5
279
330
1CB
100
AcDbDictionary
280
     1
281
     1
  3
ACAD_XREC_ROUNDTRIP
360
27A
  0
DICTIONARY
  5
287
330
1D2
100
AcDbDictionary
280
     1
281
     1
  3
ACAD_XREC_ROUNDTRIP
360
288
  0
DICTIONARY
  5
28F
330
1D6
100
AcDbDictionary
280
     1
281
     1
  3
ACAD_XREC_ROUNDTRIP
360
290
  0
DICTIONARY
  5
281
330
1CF
100
AcDbDictionary
280
     1
281
     1
  3
ACAD_XREC_ROUNDTRIP
360
282
  0
DICTIONARY
  5
285
330
1D1
100
AcDbDictionary
280
     1
281
     1
  3
ACAD_XREC_ROUNDTRIP
360
286
  0
DICTIONARY
  5
29F
330
1DE
100
AcDbDictionary
280
     1
281
     1
  3
ACAD_XREC_ROUNDTRIP
360
2A0
  0
DICTIONARY
  5
28D
330
1D5
100
AcDbDictionary
280
     1
281
     1
  3
ACAD_XREC_ROUNDTRIP
360
28E
  0
DICTIONARY
  5
271
330
1C7
100
AcDbDictionary
280
     1
281
     1
  3
ACAD_XREC_ROUNDTRIP
360
272
  0
DICTIONARY
  5
273
330
1C8
100
AcDbDictionary
280
     1
281
     1
  3
ACAD_XREC_ROUNDTRIP
360
274
  0
DICTIONARY
  5
275
330
1C9
100
AcDbDictionary
280
     1
281
     1
  3
ACAD_XREC_ROUNDTRIP
360
276
  0
DICTIONARY
  5
277
330
1CA
100
AcDbDictionary
280
     1
281
     1
  3
ACAD_XREC_ROUNDTRIP
360
278
  0
DICTIONARY
  5
27F
330
1CE
100
AcDbDictionary
280
     1
281
     1
  3
ACAD_XREC_ROUNDTRIP
360
280
  0
DICTIONARY
  5
29B
330
1DC
100
AcDbDictionary
280
     1
281
     1
  3
ACAD_XREC_ROUNDTRIP
360
29C
  0
DICTIONARY
  5
28B
330
1D4
100
AcDbDictionary
280
     1
281
     1
  3
ACAD_XREC_ROUNDTRIP
360
28C
  0
DICTIONARY
  5
29D
330
1DD
100
AcDbDictionary
280
     1
281
     1
  3
ACAD_XREC_ROUNDTRIP
360
29E
  0
DICTIONARY
  5
283
330
1D0
100
AcDbDictionary
280
     1
281
     1
  3
ACAD_XREC_ROUNDTRIP
360
284
  0
DICTIONARY
  5
299
330
1DB
100
AcDbDictionary
280
     1
281
     1
  3
ACAD_XREC_ROUNDTRIP
360
29A
  0
DICTIONARY
  5
297
330
1DA
100
AcDbDictionary
280
     1
281
     1
  3
ACAD_XREC_ROUNDTRIP
360
298
  0
DICTIONARY
  5
291
330
1D7
100
AcDbDictionary
280
     1
281
     1
  3
ACAD_XREC_ROUNDTRIP
360
292
  0
DICTIONARY
  5
293
330
1D8
100
AcDbDictionary
280
     1
281
     1
  3
ACAD_XREC_ROUNDTRIP
360
294
  0
DICTIONARY
  5
289
330
1D3
100
AcDbDictionary
280
     1
281
     1
  3
ACAD_XREC_ROUNDTRIP
360
28A
  0
DICTIONARY
  5
27D
330
1CD
100
AcDbDictionary
280
     1
281
     1
  3
ACAD_XREC_ROUNDTRIP
360
27E
  0
DICTIONARY
  5
295
330
1D9
100
AcDbDictionary
280
     1
281
     1
  3
ACAD_XREC_ROUNDTRIP
360
296
  0
XRECORD
  5
269
102
{ACAD_REACTORS
330
26F
102
}
330
26F
100
AcDbXrecord
280
     1
  1
AcDb_Thumbnail_Schema
102
{ATTRRECORD
341
26A
  2
AcDbDs::TreatedAsObjectData
280
     1
291
     1
102
ATTRRECORD}
102
{ATTRRECORD
341
26B
  2
AcDbDs::Legacy
280
     1
291
     1
102
ATTRRECORD}
  2
AcDbDs::ID
280
    10
 91
        8
102
{ATTRRECORD
341
26C
  2
AcDs:Indexable
280
     1
291
     1
102
ATTRRECORD}
102
{ATTRRECORD
341
26D
  2
AcDbDs::HandleAttribute
280
     7
282
     1
102
ATTRRECORD}
  2
Thumbnail_Data
280
    15
 91
        0
  0
XRECORD
  5
26A
102
{ACAD_REACTORS
330
26F
102
}
330
26F
100
AcDbXrecord
280
     1
  1
AcDbDs::TreatedAsObjectDataSchema
  2
AcDbDs::TreatedAsObjectData
280
     1
 91
        0
  0
XRECORD
  5
26B
102
{ACAD_REACTORS
330
26F
102
}
330
26F
100
AcDbXrecord
280
     1
  1
AcDbDs::LegacySchema
  2
AcDbDs::Legacy
280
     1
 91
        0
  0
XRECORD
  5
26C
102
{ACAD_REACTORS
330
26F
102
}
330
26F
100
AcDbXrecord
280
     1
  1
AcDbDs::IndexedPropertySchema
  2
AcDs:Indexable
280
     1
 91
        0
  0
XRECORD
  5
26D
102
{ACAD_REACTORS
330
26F
102
}
330
26F
100
AcDbXrecord
280
     1
  1
AcDbDs::HandleAttributeSchema
  2
AcDbDs::HandleAttribute
280
     7
 91
        1
284
     1
  0
XRECORD
  5
2A4
102
{ACAD_REACTORS
330
2A3
102
}
330
2A3
100
AcDbXrecord
280
     1
102
DISPLAYNAME
  1
Imperial24
102
FLAGS
 90
        0
  0
XRECORD
  5
25C
102
{ACAD_REACTORS
330
25B
102
}
330
25B
100
AcDbXrecord
280
     1
 70
     1
 90
650459304
 71
     1
  1
866055B3-7C69-45B5-AF6C-73B7231B5259
311
504B03041400060808008C41B448D3B6C294D9000000200100004F00000037394643433445382D304339432D343346392D393936362D4533363643463144413336332F4173736574446174612F446566696E6974696F6E4974657261746F7250726F706572746965732E62696E454E3D6FC23010351D8A3A74E01F2076D71F
311
7202444065251553BB94A90B3A9C032239098A13A963C7FEEBF6AC5271D2BB779FEFEE9B31F673350AD988F045FE91788B0D76957B7767AC81DDC78A6F0FE0C7B7DE1D85312DF00883EFE3D66B151C7A0F0DB64398DC46A735F42407FE292E3D10FE0B212A9CFE8EC5FB6F84F85264282FD9338480FD5A1C0F9FC2D8C2264A
311
2A9E16CA72F3B2B4DCE64BC993459E1B53C8B992A9E830B443E730082DE4FEAABCBF34A7AADCACFAAAC6690335AE67AE43FAA99C6DB454299709D772271799D299361F2B11277F01504B03041400060808008C41B44826203CF50B010000300200004500000037394643433445382D304339432D343346392D393936362D45
311
33363643463144413336332F4173736574446174612F496E7374616E636550726F706572746965732E62696EEB606060F80F0540260323103700495E20ED9E9A975A94991C9C9C919A9BA80214B030333330357532D6357736B3D435317532D575743373D63537763237323674323532B564476804693136347171050AEB9A
311
9A9818EB9A981919EA3AB939B9E81A9A1B1B389B393B5B3ABA5A029581ED65D08CE93FF455E38A3D9066028A3500318C0FA6817C20F8600F51CDC020E0C020001602132A0E08365616502304C01958950105E10A3E3003790D400CD5FA004AF300853001281C113270433014A6EC74C0104311C0D40A325A0349CD077B1620
311
0F145B7C401C5C9E58929CA1EB54949897929A02921100621038D113E00066A0114D407E201083CC0599820450B8072E9C7DF70F14A7500000504B03041400060808008C41B44828BB58AF800100009E0500003D00000037394643433445382D304339432D343346392D393936362D4533363643463144413336332F536368
311
656D61732F436F6D6D6F6E536368656D612E786D6CBD544D4FC23018BEFB2B96DE15493C78601010A34B880709DEDFB52FD0D8B54BD70DF6EFED3AC0B12E6442E2716BFB3CEFF3D18E26FB440405EA8C2B1992E1C323095052C5B8DC842437EBFB673219DF8DA659866649B798C078B48AE6410122242F2A4994AC7F93815D
311
F85C049C8564CA0A901499DD886B2EB9B1E02448F358701A9235880C49A0119892A20C89D1B9FD768815CAD268CB5E0355B40B1E47F3E37A2020464BED06AA57CE8FCC20C3C3446D46761A2632A8C1283D07031EFF2AE7CCB1BFEEE916E406DFAC8E36FFD99A9D60A6944090EEDC3B670C7DC13DE86B6B2C5C240D6E503BB8
311
5ACD579D513F1B9F9A69DC9CC22AFA80C426D40AF0B21EA168559156B6276F0F726A6BFF04DCD513A87A62CAD41FB24FCB2858B3952E3D852084DA25B9303C15687973CC8E8AAE11DF2836C38C6A9E765E8C1BA1BFB1DC29CDFE518C8B5A7655A4ED7E77291ABEB80DBD82EC866ADE1B8D05AF9E35CF09D7A061F38A986D9E
311
C412B8F0F65E5D81534D9B231D1E5A8FE577A241F3A5FD01504B03041400060808008C41B4482CCEBD668A040000E01200003E00000037394643433445382D304339432D343346392D393936362D4533363643463144413336332F536368656D61732F47656E65726963536368656D612E786D6CD5586D6FDB380CFE7EBF42
311
F0F7A649B70E1B90744856B4970F450FCD7A5F05459613EDE4174872DADCAF3F522F8ED3B88D2F1D06AC4050DBA2493EE4438AF2F8EB73AEC8466823CB62928C06C384888297A92C5693A4B6D9D9E7E4EBD51FE3A931C22EF85AE4EC6AFC38BF261BA626C9AD288496DC3F4FCEAFC63366845F7A10452AF41DB320C0D44EC2
311
6EAB20918735565582695670811A6A49643A49A6E9069FA4604A64B29016DC4B48552F95E4932463CA888468C1D2B250DB4962750DF7CE273069CE8363F1FF4EDB00E0A21999574AE4A2B00C353B93F3BD4777B8A61ED8F604ABFEDD79CE56A2B7BDFBDBC50996E0ADDE16FED26223C5D30956C29BDF4A55EA686E5E58B112
311
DA45CE67F76F4FA27EFA3FB672FD7372FC388FAECDCA5209E693CAD167BADCD272F943701B3812F8A3D852008B1D2E32DB927B2F833C6EA95879925356D254582695095A3CE982924720BE5774A3CB9CDCDB350427D2DF20DA1B5532EBE2D5D6288D75D4F7E4FD9890A0EF8E3D93EBB8F8BA4758158EF6FB90A6F9520281C9
311
3DE7AAC6D24607DA296BB96018123F821A7D6A5C5884050C475DA4865442732C8B95684A50165CBB3A32F25F783A4A480ED59AD7F924B968AEA50131F46303223E6A397B0E52976030DC1DCA81D7E7C1EDEEA42C19FF27635C505E2BD5198A599020DF50A2330FCB3AAF28CB0124108429553EF1B228802E2265D8F7CC2401
311
042B155BCC7070F1E5C55F13B4A9577362CCCE46C32174E010C3C378C44841A4BDA00FE3A12006CE11EE6AEC59894D3526DDE1CD59D503ECC324017F8061B7F162162FA62EDD81AE3308617770796DCBDAD2B2625C5AE8A63DE20B2C8AA5E95E76E5730823955956E33E705425A2187C185D36489A1B44D3DCEC2172F6BA21
311
05C3546287A7194B2331768EBBE64F6E70A9930ABE0ADEA89E9E2C38523B810287AD67A54A039C1606EAFE68F8304610BB9093DBDDABC0B2AE4E290DCDA15376D7E39F72B556F0B32EAB5D3D498B4C41ABADEC3A1434C422D87E8025A84BDCB2B1417ED750FAE4DA8976863974C577C7F902D3F156AD354DEA3540DE6BEAE2
311
BEA52F7A2EB4CA43802ECE5BF2CE2EDC9347179FFB023CE412E60BE16DA0BE29B374988A553F561DC04615DD35F7D2C8979F60E5955CE93DF29DED8AFA1EE6642D53418086C03C47C377910F75F7E8F5EF665F70B60FFB22AEDF897D119E8423C773E819A3C1E55E550599EE6EDCA34D0C86FD72057DF2CD46F16A47068247
311
1C164E4346D5306BF12D7D12D82CFF673D41636C347443FEB51B50D72EA171A8E4A58623A4A16E0FA2B8B10A0D23268D87C33896EE8FB73305A74BF224EDBADFA0BD674AB354D63DB7BD5D83426761C077DE767728235446A552754EB93B755891C3C4CC6CADE37CF0E912A7BB38DBA010F9DE1282EDF470CA69A9CDA482E3
311
34C4A6EA4107987980B17E72F31730EBF88BBD39E7C629F56797A3C0009C2C5AE7951D9A05A02773440F02EEB4DE396A3B6A570C72CCFBCD823B0B8ED3F1D5CEDDFED772FA70236C83FB7D86C385D570B87107535572A60A96035F8F7C6A7192F13007246BBE0521855E6AC46F3E27689CEE7D186A6FD679D98CDCAD13333E
311
04EBE7ED6F55FF01504B03041400060808008C41B4486180134D5F0100006B0300004500000037394643433445382D304339432D343346392D393936362D4533363643463144413336332F536368656D61732F52656E6465724D6174657269616C536368656D612E786D6CA5934D6FC2300C86EFFB1551EEE343DBA41D1A10
311
3009551ADAD40EAE28A4A68D9426284961FCFBE5A340113B2071746D3F765EBF4DC6BFB5407BD0862B49F0B037C0082453059725C18DDD3EBFE3F1E829991803366715D474942CD30FB4A782E00C64017A412D684E454CE3FE28995203B162A6EA5AC94B66997D225E109CD63B0135484BAD1B3C07E9080CA35DB3119C11BC
311
A5C200461A68A1A438126C75E3E230D40FF81FB3F03C91D1E3A3A0AF79FE28E25BC39EC3E17E4C2A2D94A0833A51AF55BCCA7D88572FCBAC529C4140B020FC3AAFA886621DCED7EAD7664CC86024E806DC297DA1BB393E4156543457A4537DB8817349A70F8ACBF09B3EEE2CB2F33E91B65D60786E4E3B39B77E3FEEEF5650
311
424525DA657FB8B46BE6BF064646F0A0F7327C0BC1BC1B4CBBC1C419FA3CCB23500007872A2580CAAE5461865565294E4EDB4617B62FF579DF9A5B2F54E834076A597573A020912FED777F9B3F504B03041400060808008C41B44818FAFF8251000000570000004700000037394643433445382D304339432D343346392D39
311
3936362D4533363643463144413336332F4173736574446174612F41737365745461626C654F66436F6E74656E74732E62696E53616060B030333330357532D6357736B3D435317532D575743373D63537763237323674323532B51402AACB4D2C492DCA4CCC492C28484D2C4ACC4B4E050A82012F90744FCD03CA26072767
311
A4E6260200504B03041400060808008C41B448F865834058000000680000004500000037394643433445382D304339432D343346392D393936362D4533363643463144413336332F4173736574446174612F53747265616D56657273696F6E5461626C652E696E66558CBD0A80300C06F73E4B117FB66E451741D041DC5BF9
311
8480A492E4FDD18EAEC7DD4555D89EF28DF51A0B1BD8340C4DE7DD848B988C0ACF0649566493F2408C508DDEBB99D5129FF8F1AF8CF5B9503E20FAE5A16B5AF702504B03041400060808008C41B44830C11686340100009A0400003600000037394643433445382D304339432D343346392D393936362D4533363643463144
311
413336332F4173736574446174612F636E782E786D6CCD94314FC3301085FF4AE43D761201AA2AC71582A51348540C6C57E752AC3A76645F10FC7BEC3403A888A943D7F3BBF3F327BF939BCFC1161F18A2F1AE6535AF58814EFBCEB843CB26EACB152B364A06EFE9878C150E066C592E33250FC14FE352EAB087C9E6AA35EE
311
B814EF6344DAC1DEE253FFE01DA1A3C80A6D21C69645FD8E037098C877188FBC03025EF380D14F41639A4466C065920E08841D534D55DF95D56DD954BB6AB5AE9B7573F32645562AB9F7DE2E7A932E0B7E2CF4E956A62A29F2B19253308B26BF85A9BF3CF2BD715224A592914262B274D0D7983A601CADD140099DF09A90CA
311
244218A43889951499C12F128FD81B6772CB361903F2E139D9C34006AF8EC87F5E2F4F66EB2281D378BD3CCE1D5E9EC2CBFC835E4F819C13736D393977C88DEB2F901231AF91149ABC55D437504B03041400060808008C41B4487C341ACC070100004F0300003400000037394643433445382D304339432D343346392D3939
311
36362D4533363643463144413336332F536368656D61732F636E782E786D6CCD93314F04211484FF0AA13F60376A2E17962B2CAC6CD4CA0EE1DD490E781B608DFE7B61A5B84BECB4B80E862F646678C8FD67F0E403527618273A3041094483D6C5E3449772D86C29D92B9910CB194649D40126DA64AAE431E13277C9C2412F
311
BEA9DEC55317EF31048CCFE61D82A6C4789DF344F3BA657A2968219F98D545B38125C8B82403F586E202F41B4C025DC052358AE16E236E37A37811DBDD30EEC69B57C91BA9E41BA2EFBC8B0512CEC4605DC46A4748DE8E955C92EB4CCB40D5B93756DB90BC124AE6926A079D2C5F7325F53C7B6774A955F115FC6194E42DEA
311
45E00788909CB9CEC417E6FE2DF213440BE9B1BE5272DA5F67F2DF3CFEAD00BECE7E1D81F615D437504B03041400060808008C41B448410A3D5871000000A40000002C00000037394643433445382D304339432D343346392D393936362D4533363643463144413336332F636E782E786D6C55CC4D0E82301086E1AB34B317
311
74E7A22D31F1069E60020334B633A63FC6E34B0909B07DDE2F9FEE7EC1AB2FC5E4840DDC9A2B28E25E06C7938192C7CB1D54677514C9871928C640062A83D55394F2D968A0118BAFEA1DBF377CA444F98919176EAB9FEAAB9F2960DA5BBB1E2ED3FA6FFF504B03041400060808008C41B448E96D19A67E000000A300000007
311
000000636E782E786D6C4D8CD10AC22018465F45FE7B6BC3F137411D61F33D467343721A36A3C74F63175D7D70F8CE11C367F3E46DD3CBC520A13D35406CB8C7D9855542DE17DA0319944831EE7F372061DAAC848A418935C5FC3CD06C9729FB4ABD0B8F035EB8D1BA1B7BDA68AE69C70CA79C23D291216AD3DEAE0C5931CE
311
5529F3EB95AD79F505504B03041400060808008C41B44816E99B5DA600000035010000130000005B436F6E74656E745F54797065735D2E786D6C9590410E82301045AFD2740F4517C6180A0BF5065E60AC53688469D30E066F6F91AD9AB89CF9FFFD3F99BA9DC7413C3026E749CB4D59498164FCCD51A7E5C4B6D84BD136F5
311
E5193089ECA5A465CF1C0E4A25D3E308A9F401292BD6C711388FB15301CC1D3A54DBAADA29E38991B8E0254336F5092D4C038BF39CD76B6FC6A538AEBEA54A4B08617006389FA516557DE4AE8E7E70DE30729138228C5F021CD93F02D4FB0DCD0B504B03041400060808008C41B4483DEE336E64000000790000001B000000
311
6175746F6465736B2D64657369676E2D7061636B6167652E786D6C35CBC10E83200C00D05F21DCA56CA76D41FC96062B120735B69A7DBE268BB7777961F8D5AF396893C2ADB70FE7ADA196782C2DF776D7A97B5933C430F15651E5469C55D70F80A4992A3ADC954792C525AE70A1E4D6AD9816CC044FEFDF01FE3FDE907802
311
504B03041400060808008C41B448FDDA1B4FF9000000960100003700000037394643433445382D304339432D343346392D393936362D4533363643463144413336332F4173736574446174612F636F72652E786D6C8550CB6E833010FC15B477836D282591714414F70B7AEACD0287580936F2A3EAE7D70E546A4F3DED6A76
311
667677D8E96B79149FCA796D4D0FA4C4502833DA499BB98718AEA883E2C499B336FCA24161E4A27AC83070363B1BD71D1AAD09CA64D4D849EDA0F45E0528C6476A7AF0E34D2DB294312486BF97AB1CEF72562529371E6731EA6997EA29B9E9AB560E78D31D5A31D42D7AC38D40CD59D4E8F05A0B4407D10EE24C2EB4C1ACCA
311
62CE825E7EB68F4EC9A026E0149316E11744F13BEE8E841E69F3C1AACCE4CC07977EDE97E6EF800FF9EA8B0C9255DBF48F6B5CA7FF5DA336A1A6BBEBA6F0C0493AF239E0ACCA29A5F28C30D59C28FF06504B03041400060808008C41B44828A27BDAF7000000940100003500000037394643433445382D304339432D343346
311
392D393936362D4533363643463144413336332F536368656D61732F636F72652E786D6C8550416EC32010FC8AB5776C8C5D37893091A3D20FB4A7DE1010072506CB40D5E7176C576A4F3DED6A76667677E8F96B7A149F7AF1C6D91EEA1243A1AD74CAD8B18718AEE800C599D1C5B9F08B06851593EE21C3C0E8B8B838EF90
311
7436689B51EB94DE41E1BD0E50C8476A7AF0F2A627518A1812C3DFCB59C8BB187559971B8FD1188DDAA546253773357A01D61E8E1D1F9A0EBDE296A3F6C21B747C6E382203EF067EA95F488B6995C58C0633FD6C978B16412B6004D71DC24F88E0777C38D5E444DA0F5A6526A33E2CE9E77D69FE0ED8DB7AA7A7D536FBE319
311
67F5BF6734363464F7DC141E589D4E5C078C5639A354D60053CD79B26F504B03041400060808008C41B44879EB944901010000D70100002D00000037394643433445382D304339432D343346392D393936362D4533363643463144413336332F636F72652E786D6C95914D6EC3201085AF62CD1EFFC7B5234C54B9F109BAEA
311
8EC2C44189C1025CF5F885DA55DB5DBB023DBE37C39BA1A7F7F99EBCA175CAE81E8A348704B53052E9A987D55F480BC989516B8CFF8141A2F98C3D4419189DAC59975D12467BD451D546E22E72E7D04322EEE1D28313579C79CA571F08774B172E6E7CC2B448378E51AFE62FABB0C83D4A60655E34243F90327FCEDB63511E
311
CBFA856691647455DA57E5DE0CE7579489597C8804EC40B3ED3550AB923BA364F8A3BA28B4C01EBA7118EA734BF2A11B485D8D1DE9BAA621E7AA6986B1787AAC9A2A140966469DB761327B913883BFDA37E3AF64EB22FF996C733860C577A82C8E99D1EC7307E18C2B611F504B03041400060808008C41B448C9042CE70601
311
0000B201000008000000636F72652E786D6C8D50CD6E8420107E15327714D15A77836CDCD43E414FBD51615DB20A4670D3BE7D61A5497BEB69C837DF1FC34E9FF384EE6A75DA9A168A8C005266B0529BB185CD5F7003E8C4D96AADFF450364C4AC5A88307036AE765B123458E39589A8B152255038A73CA0610A8F16DC7055
311
B3C8C4E603C3DDB2450C3731AAACC8761E675ECF3FD26155C22B099C92A2C6E40953F2469A63418FB47A67796472B66D5AA6282D43BABE68B502AF9A43DD77658D5F49D5E3EADC97F8F05CF698767DDDF5E7E2855684E551CC99F36BF87332093D3D72E21E7359BEAF38FBB0764A84504A226BA62FE0C1212EFE94DE16F98F
311
D2DAF89226C35DE18017A1D0631182E305C3789C37CC786DFE0D504B010214001400060808008C41B448D3B6C294D9000000200100004F000000000000000000000000000000000037394643433445382D304339432D343346392D393936362D4533363643463144413336332F4173736574446174612F446566696E697469
311
6F6E4974657261746F7250726F706572746965732E62696E504B010214001400060808008C41B44826203CF50B0100003002000045000000000000000000000000004601000037394643433445382D304339432D343346392D393936362D4533363643463144413336332F4173736574446174612F496E7374616E63655072
311
6F706572746965732E62696E504B010214001400060808008C41B44828BB58AF800100009E0500003D00000000000000000000000000B402000037394643433445382D304339432D343346392D393936362D4533363643463144413336332F536368656D61732F436F6D6D6F6E536368656D612E786D6C504B010214001400
311
060808008C41B4482CCEBD668A040000E01200003E000000000000000000000000008F04000037394643433445382D304339432D343346392D393936362D4533363643463144413336332F536368656D61732F47656E65726963536368656D612E786D6C504B010214001400060808008C41B4486180134D5F0100006B0300
311
0045000000000000000000000000007509000037394643433445382D304339432D343346392D393936362D4533363643463144413336332F536368656D61732F52656E6465724D6174657269616C536368656D612E786D6C504B010214001400060808008C41B44818FAFF8251000000570000004700000000000000000000
311
000000370B000037394643433445382D304339432D343346392D393936362D4533363643463144413336332F4173736574446174612F41737365745461626C654F66436F6E74656E74732E62696E504B010214001400060808008C41B448F865834058000000680000004500000000000000000000000000ED0B0000373946
311
43433445382D304339432D343346392D393936362D4533363643463144413336332F4173736574446174612F53747265616D56657273696F6E5461626C652E696E66504B010214001400060808008C41B44830C11686340100009A0400003600000000000000000000000000A80C000037394643433445382D304339432D34
311
3346392D393936362D4533363643463144413336332F4173736574446174612F636E782E786D6C504B010214001400060808008C41B4487C341ACC070100004F0300003400000000000000000000000000300E000037394643433445382D304339432D343346392D393936362D4533363643463144413336332F536368656D
311
61732F636E782E786D6C504B010214001400060808008C41B448410A3D5871000000A40000002C00000000000000000000000000890F000037394643433445382D304339432D343346392D393936362D4533363643463144413336332F636E782E786D6C504B010214001400060808008C41B448E96D19A67E000000A30000
311
00070000000000000000000000000044100000636E782E786D6C504B010214001400060808008C41B44816E99B5DA6000000350100001300000000000000000000000000E71000005B436F6E74656E745F54797065735D2E786D6C504B010214001400060808008C41B4483DEE336E64000000790000001B00000000000000
311
000000000000BE1100006175746F6465736B2D64657369676E2D7061636B6167652E786D6C504B010214001400060808008C41B448FDDA1B4FF90000009601000037000000000000000000000000005B12000037394643433445382D304339432D343346392D393936362D4533363643463144413336332F41737365744461
311
74612F636F72652E786D6C504B010214001400060808008C41B44828A27BDAF7000000940100003500000000000000000000000000A913000037394643433445382D304339432D343346392D393936362D4533363643463144413336332F536368656D61732F636F72652E786D6C504B010214001400060808008C41B44879
311
EB944901010000D70100002D00000000000000000000000000F314000037394643433445382D304339432D343346392D393936362D4533363643463144413336332F636F72652E786D6C504B010214001400060808008C41B448C9042CE706010000B201000008000000000000000000000000003F160000636F72652E786D
311
6C504B050600000000110011005A0600006B1700000000
310
504B03041400060808008C41B448000000000000000000000000370000006662782F41303439313631352D313135442D343543302D413233372D3139444138423136384435412F617474726962757465732E62696E504B03041400060808008C41B448000000000000000000000000350000006662782F4130343931363135
310
2D313135442D343543302D413233372D3139444138423136384435412F76657274696365732E62696E504B03041400060808008C41B448F270F1330600000004000000360000006662782F41303439313631352D313135442D343543302D413233372D3139444138423136384435412F747269616E676C65732E62696E6366
310
60600000504B03041400060808008C41B44851464CB48900000043010000360000006662782F41303439313631352D313135442D343543302D413233372D3139444138423136384435412F6469726563746F72792E786D6C9D8F310EC2300C45AF127987122606C71DD918B841D4B851A43646695A717C52A85029031293A5
310
A76FBF6FACEF7DA7264E43906840EF0FA03836E242F406C6DCEE4EA06AC22492573150D1F66C60C640E8938CB705396EEDD86DE9B5042FE27813D640EA63BB001C722AF6E55CB61E4863F58284D5D3F53DD715CE1C3985E63FD7F1B7EBDD617E9F1E504B03041400060808008C41B448E17B553737070000201C0000340000
310
006662782F41303439313631352D313135442D343543302D413233372D3139444138423136384435412F6F626A656374732E786D6CDD59DB6EDB3810FD1542FBB2FBA09B6FB10BC5852F4D6114698B1A5DEC9B40CBB4C38D6E20A5C4D9AFDF2145CA922CDB4AB6058A4D80C461A8E1CC999933C391F7FE1085E889304E93F8
310
D6702DC740240E922D8DF7B7469EEDCCB181DE4F91C79224ABEC33508C23726B886563EAED5992A76A694B76380F9BAB77F3BF100F484C0C148498F35B83070F24C216CEB3644BF8A3B5C519B6F6BB83E55AC5C6BAD83DC3E943E3A814331267A02AACC7204569E0D6FF0493ECA9678B0DB56DBD6EDBFA17B6D9D2F0BAA234
310
E6198E8313AD1A727ADDB4EABB83E587DE70620E0783BE3918F55C737E375F9AEE4DDF598C168BC9ECC3C440536F932461E98094C45BF0E28B31753D5BFCA7345FA1D0A67790C43109149A6D1BB644C9A5843731A901EB4AD32A0E296CAD2CF43B1A7F665B27506A2AD5D0D6C6E9DFD5E84D367F0308BC4B94324E4494F38C
310
81AF15F6453E389E5DACD6FC42398A704618C5210AE98661060E82AD85836A6244B60851486026BDA8E5557585C0BE9E4B6D5AEEF23014F96B4C65A6F9908F24E35233FA0F6147EDABA7814E606D4EE36CAC8CCD5E521031F16CB958FCAFDF53FF2C8044BB10EF215AC04CB1A9DF6BE0B5105CB05A1AD34F779BC35AF043FB
310
E1294B52C2321179329955DE690F56420B82AF032805AE75DF1D51F906D07F06E44B5D90079E63F430380CB4ED0CC77C97B008BC831C643AF0C341E2E3C927CF2E1F9E2254E3CA739842DAFE204C6B66D4CEAE403AF59E20E813D657C6AD031C424CDFD358E439040A0A135802BEDF6D0EC67405640A8BF0140EC17AF8F66C
310
F111C1AF420EF04DC3436DF4DBC1513A619A7976F4D54788194683D255351BCFE13BFC21F8CE96EB4FEB9CED7040EE55622FC98EC6348362DAAE500DF45ACA7F5F7D961979624F6D5700E7EC13411C2D7E592BBF20E9185045D4E1C23572E59E42BA87218E499273B5DE4654411226CCDFBCF8450EB79EF5A70E82E230C86F
310
1101AD6406D53D603415A01853655EC984D61127C1832A00F78553FD0D0E1E05BC7E008CF5163D206A316B0ACDA3D4C75192C782BE4FC3BB699AD577E497EB4E7ACEA4379E8CB4B15C8AD7D9A3A9A1545E9C13E1F4CC218B9AB7146B68C9451E0D802DDB2C08A067CA333F497140B3F6586818A13214C0BEA8F296EE763907
310
526F85A5A1B1D57787C8A9FC2C0FB9ACBD3AC4A711DE137F8745856B3DAF0650295C5BD08ACC3E4C38A731E1B2433961AE062A8E054450C4AD96DA128494FB11C9F05BE24F96BC46F831B20B7DE8A532D1CD5E8F3EADA0AA9EE7248ACE2D897D69FF8BCF7194864597760D03B7D738A11557A1B438E209E2CDC799EF6C896C
310
BAAF492F7941E3DB49FAE4CDE2CFC0C3F04F87471F41A1F5861A79DDB3AE357427E26B0CA4321ABAFD1BED886B58E9A332D1838439744DC18BFF4CE8FEA11BA1753A879370E7D330CC23BFA8071989A005C359CE3AE5EB68E89C385FF14223212A27ED68080D7267D294BD87EE3EC02AD97C9C23CDCA3160148DE18ED6C990
310
132B5A4358FA42DE47C5B5EBBAF75F2FF53FF365F59EF2485E9E13B66DD5B4DE46E80E4C370C822E55852BE3484A9E7AD5E48BE4C5E53A0E032D44F15B714B5011C2C81315830979036ABD3FF0679C0540A46BF9DB9C43466CC9F6D853D4C4A93187318543B534DDA7566F3A4076A27CD41AAF9520D408A60D58F0ECBDF810
310
7EC3E06AE8FCB8ADBA1ABB585F89C266C160E5A8C705595F3EAE1B5260A5F3D35F0546E4B92141AD2E44237741D4F7D5B15F6D4850167D5F5D783C7BC8A34D8CA9A88C222CF0367DF75EDE256F6DB828D883D97236741DD71C2DDD9939F8309999B3C5C43187E3C56230583A37AE33B219E149CE02C2ED9EEDF8BA774AE3BD
310
0E8C02BA2E370A982A5CBFFAE9786E3AF87F7CA308930D3E178BBFEA85A26CF74443D6C8C5AE178A56A2DEBCAEFB774F88BABD88BDAA732E66053AC02F972D20235DEFBBB7165AB4EE24DA75AE54C45716DEB3B7959F5E636A84DE5A1F6A3BDA28BFCEC5307B6AA952FA762B796D3C1A39C3E1BC6FDE2C461373309C0FCDD9
310
DD6861DEF4E737BDBE3B1FC27CB6445CD5C2AE75E597E050AD6C658C06D3609E841486F2648BF624811B104C1D3AF02B8B0897371B68005419D76F043A3CFD54CC5433BC09F5D3C10386C174A82A721EC050146E1DB7865A47BFC118544C22E570CA7A84C2A3A2DD4039A3B706844046A1BE581B1867C9E1A194DE185782DB
310
70BC1777A6E2A9F2EFE363021D8895A35DE59E2EB828CB6AD109C38154BE2700B6D30DC9DB4DD7EA209CC1C74D9E95C61C178ED62810F40B81C23898FA3D2A780F403C97ED722DB9A70649A7C9FCC53828A49A19667B395EAFE03D5B7EB5C5647CF505A561BE17EEBC54EF6B924CD16784793184F2203094992916F7F0C53B
310
FB2B4BE0155384EE280401FAFD301EFD612F92284AE262C99EA9175568FD00AF9DB6B61EF941E3E2B8435BF63D6AAC0F732B4E2CBCE58FB000AE6554CC460B886B0150D2532500B447842FE0B1DAFED512A922506961ABADAB8047CEF4112492789723D2A6BAA13280845C00AD8A396DF9412F78368321F8F45F504B030414
310
00060808008C41B448883FEEEF3E01000046050000300000006662782F41303439313631352D313135442D343543302D413233372D3139444138423136384435412F636E782E786D6CCD94414EC3301045AF62799F3889005595E34A2C38010BC4CE71A6C134B1237B8CE8EDB18B5340A88845A576678DFF48FFCD7C0DDFBC
310
4F237903E7B5352DADCB8A1230CAF6DA0C2D0DB82D56946C0477D6E2371925464ED0D254A6820FCE8639977AD8CA30A6EAA8CD2E1725A2D35D40F094A8517ADF52AF5E6092A50C687BF0BBB29728CBBA74E06D700A623FEA0972BF7220117A2A9AAABE2BAADBA2A91EABD5BA6ED6CDCD336749297867ED98F5DA20383B1365
310
E3C344331567E95BF0E074D624022ABE9C959D369CC57FC17D746B86ACC3FD9C74F33C6A25318E895985804514819C38FB140BCE12EF0FEA87FBA7C501E9B50385D6ED2F3480FAD4008EC6CA9884FFF11F847F63DBEE35E25E6ADB2761B3ADB3A12E69F531AEBFF71F5324CD305E5FE88FC6CE9FF9784A50ABEB435E7C9D89
310
981D4E5E5C7ABA80E203504B03041400060808008C41B4489F3A11027D000000A30000000B0000006662782F636E782E786D6C4D8C410EC2201405AF42FE1EE56BA934011A948B3496368D140C16E3F105D385AB974CDE8CEC3FAB276F975E4B0C0AF0C080B8708FE3126605799BA800D26B9962DCFE6E40C2B03A05158396
310
738AF9B9A3D14D43F695FA253C766858D3618B9C22724B1B7E63D49CCE178A9D35E28AADB0DC14E3589532BF5ED99AD75F504B03041400060808008C41B448A6D797065F0000008200000007000000636E782E786D6C4DCB3B0E80201045D1AD90E9FD7516806B51190811670C8A61F982B1B0BAC9C97B72CA7B1037C6D333
310
2918DA1E04D2CAC69353902EDB8C20262D23F3F59B81A079470595414B17391D1F19B4730A5583A7ED43BBE4025D9592775E5ADFFA01504B03041400060808008C41B4484FEB6A7CA0000000F4000000130000005B436F6E74656E745F54797065735D2E786D6C7D8F4B0EC2300C44AF1279DFA6B0400835ED02B8011730C1
310
6D239A8F121795DB93D02D6269CFBC19BBED573B8B17C564BC53B0AB1B10E4B47F18372A5878A88E20FAAEBDBD032591BD2E299898C349CAA427B2986A1FC86565F0D122E7318E32A07EE24872DF3407A9BD63725C71C980AEBDD080CBCCE2BAE6F5D69B7110E7CD57AA146008B3D1C8F92C5954F993BB1BF787F39A89ABC4
310
91D09600F9FDA2FB00504B03041400060808008C41B4483DEE336E64000000790000001B0000006175746F6465736B2D64657369676E2D7061636B6167652E786D6C35CBC10E83200C00D05F21DCA56CA76D41FC96062B120735B69A7DBE268BB7777961F8D5AF396893C2ADB70FE7ADA196782C2DF776D7A97B5933C430F1
310
5651E5469C55D70F80A4992A3ADC954792C525AE70A1E4D6AD9816CC044FEFDF01FE3FDE907802504B03041400060808008C41B448B7B8AAC4F8000000960100003B0000006662782F41303439313631352D313135442D343543302D413233372D3139444138423136384435412F7265736F75726365732F636F72652E786D
310
6C8550CB6EC32010FC156BEFD818BB711261A22452BEA0A7DE106C1C94182C1E553FBF90B8527BEA696176667677F8E16B7E549FE883717684B6A650A1554E1B3B8D90E2956CA13A08EE9D8BBF68505939E3080506C127EFD2B242CAD988B6A0D6695C41190246A8D4233F4608EA86B3AC658A9911EEF522D55D4E58B7F58B
310
27784A46AF52A3B39BB91AF420B6F4C48EBBE142D879D8903EFFC8F1343072BA745D7F3CF743B7A3BC2962C1A3997FA62B8F32A206C168BB21F48D30FA4EB7FB96ED59FFC19BC2143C449F6F5E8796EB40780C2E79858137AFEE1FD7B4E8FF5D93B1B163ABEB4B1140B479C96743F0A6A494CB33C25C4BA2E21B504B030414
310
00060808008C41B448ECDFD404F1000000B1010000310000006662782F41303439313631352D313135442D343543302D413233372D3139444138423136384435412F636F72652E786D6C8D50CB6EC32010FC156BEFD840ECD48930915B7F424FBD21202E4A0C168FAA9F5F885DA9BDE5B4687686991D76F95EEED597F6C138
310
3B00A93154DA4AA78C9D0748F18A7AA82E9C79E7E21F1A54562C7A80020367B37769DD21E96CD4B6A0D629BD8322041DA192F7FC1820C84FBD885AA49819E156AF42DEC4AC6B526F3CCEA2597EA5D26B11B5024E313922DC218ADF717F26F44CDB0FD61426672919B55B1995DDCDD5680F7CC4ED891C498708E926D4766F18
310
8DF4F082C8691AFB5772ECA76E644D117316A2CF37EF9F94EB9E956FC27F99D3AA9EC86C6C3CD0DD705304E024E7792C386B4A81793CDACDB394CD7F00504B03041400060808008C41B4487E2F761953010000DD0200000C0000006662782F636F72652E786D6C8D525D6F832014FD2B867714D1D5AE419AB6497FC19EF646
310
913A52058360FAF3077EC4F9B06E315138F79E73EF39911C9F6D130DC2F452AB12A4310291505C5752D52570F60EF7203A5262B4B63FDA40A4582B4A106040496DB4EB66886B65850AA8D2959841D6F7C2828837FE50829E7F8996C5CC59DFD13FE28EF107AB459CC6531F25CEC96AA6CACAABC9BB1406D03D3AE3D37B7185
310
F852EC60EE6FF0742E303C5FB32C3F5DF2227B472409644AAC6C97E9DC086645052846E90EA23788D107DA1F527CC0F92749422725BD35DEF33C34B803F47E7B9264C2377AAEABFED67352D90CCF7A13A30734F5EB8D054A92908FFF8CE16D33F4837D7E96DD9AC5C2C34383E0569BDC572AEDD6D2C01A27BC348AC6872453
310
D52B8F02BFE9E0173AAF357C504CD57E3566FDF1E66C98BEDDA913060EF619296D5AD6ACCB4D2BAEEF75D0C6D242E7BAD1E63FECC5EA1266127E4CFA0D504B03041400060808008C41B448E1DE7D6707010000B201000008000000636F72652E786D6C8D50416EC32010FC0ADA3B36C66EEC4498C88E9417F4D41B35C445B1
310
C1021CB5BF2FC4AED4DE7A5A989D9D995D76FE9C27F450CE6B6B5A2832024899C14A6DC616D670C30DA03367CEDAF08B06C88859B59060E06C74765D7668B02628935063A5DA41E1BD0A8086293E5AF0C3879A4526D61019FE9E2D62B88B516545B6F1380B7AFE191D9C124149E09414074C5E3025AFA43915F444AB379627
310
2667EBAAE56EA56574D737AD1CF086F4B43BD6574C2FF50157F187BBBEA6B8BF9665D55DAABA3C1296A761CE7C7071E75D24E60CC88B47F265F9D6E2ECDDDA6927C4501259337D018F0AA9F127F4BAC87F84D626947417DC263CF022067A36A271BA602CCFF3C69AAECDBF01504B010214001400060808008C41B448000000
310
0000000000000000003700000000000000000000000000000000006662782F41303439313631352D313135442D343543302D413233372D3139444138423136384435412F617474726962757465732E62696E504B010214001400060808008C41B4480000000000000000000000003500000000000000000000000000550000
310
006662782F41303439313631352D313135442D343543302D413233372D3139444138423136384435412F76657274696365732E62696E504B010214001400060808008C41B448F270F13306000000040000003600000000000000000000000000A80000006662782F41303439313631352D313135442D343543302D41323337
310
2D3139444138423136384435412F747269616E676C65732E62696E504B010214001400060808008C41B44851464CB489000000430100003600000000000000000000000000020100006662782F41303439313631352D313135442D343543302D413233372D3139444138423136384435412F6469726563746F72792E786D6C
310
504B010214001400060808008C41B448E17B553737070000201C00003400000000000000000000000000DF0100006662782F41303439313631352D313135442D343543302D413233372D3139444138423136384435412F6F626A656374732E786D6C504B010214001400060808008C41B448883FEEEF3E0100004605000030
310
00000000000000000000000000680900006662782F41303439313631352D313135442D343543302D413233372D3139444138423136384435412F636E782E786D6C504B010214001400060808008C41B4489F3A11027D000000A30000000B00000000000000000000000000F40A00006662782F636E782E786D6C504B010214
310
001400060808008C41B448A6D797065F0000008200000007000000000000000000000000009A0B0000636E782E786D6C504B010214001400060808008C41B4484FEB6A7CA0000000F400000013000000000000000000000000001E0C00005B436F6E74656E745F54797065735D2E786D6C504B010214001400060808008C41
310
B4483DEE336E64000000790000001B00000000000000000000000000EF0C00006175746F6465736B2D64657369676E2D7061636B6167652E786D6C504B010214001400060808008C41B448B7B8AAC4F8000000960100003B000000000000000000000000008C0D00006662782F41303439313631352D313135442D34354330
310
2D413233372D3139444138423136384435412F7265736F75726365732F636F72652E786D6C504B010214001400060808008C41B448ECDFD404F1000000B10100003100000000000000000000000000DD0E00006662782F41303439313631352D313135442D343543302D413233372D3139444138423136384435412F636F72
310
652E786D6C504B010214001400060808008C41B4487E2F761953010000DD0200000C000000000000000000000000001D1000006662782F636F72652E786D6C504B010214001400060808008C41B448E1DE7D6707010000B201000008000000000000000000000000009A110000636F72652E786D6C504B0506000000000E00
310
0E0080040000C71200000000
  0
XRECORD
  5
2A2
102
{ACAD_REACTORS
330
2A1
102
}
330
2A1
100
AcDbXrecord
280
     1
102
DISPLAYNAME
  1
Imperial24
102
FLAGS
 90
        0
  0
CELLSTYLEMAP
  5
267
102
{ACAD_REACTORS
330
266
102
}
330
266
100
AcDbCellStyleMap
 90
        3
300
CELLSTYLE
  1
TABLEFORMAT_BEGIN
 90
        5
170
     1
 91
        0
 92
    32768
 62
   257
 93
        1
300
CONTENTFORMAT
  1
CONTENTFORMAT_BEGIN
 90
        0
 91
        0
 92
      512
 93
        0
300

 40
0.0
140
1.0
 94
        5
 62
     0
340
11
144
0.25
309
CONTENTFORMAT_END
171
     0
 94
        0
309
TABLEFORMAT_END
  1
CELLSTYLE_BEGIN
 90
        1
 91
        1
300
_TITLE
309
CELLSTYLE_END
300
CELLSTYLE
  1
TABLEFORMAT_BEGIN
 90
        5
170
     1
 91
        0
 92
        0
 62
   257
 93
        1
300
CONTENTFORMAT
  1
CONTENTFORMAT_BEGIN
 90
        0
 91
        0
 92
      512
 93
        0
300

 40
0.0
140
1.0
 94
        5
 62
     0
340
11
144
0.18
309
CONTENTFORMAT_END
171
     0
 94
        0
309
TABLEFORMAT_END
  1
CELLSTYLE_BEGIN
 90
        2
 91
        1
300
_HEADER
309
CELLSTYLE_END
300
CELLSTYLE
  1
TABLEFORMAT_BEGIN
 90
        5
170
     1
 91
        0
 92
        0
 62
   257
 93
        1
300
CONTENTFORMAT
  1
CONTENTFORMAT_BEGIN
 90
        0
 91
        0
 92
      512
 93
        0
300

 40
0.0
140
1.0
 94
        2
 62
     0
340
11
144
0.18
309
CONTENTFORMAT_END
171
     0
 94
        0
309
TABLEFORMAT_END
  1
CELLSTYLE_BEGIN
 90
        3
 91
        2
300
_DATA
309
CELLSTYLE_END
  0
XRECORD
  5
27C
102
{ACAD_REACTORS
330
27B
102
}
330
27B
100
AcDbXrecord
280
     1
102
RTVSPost2010Prop28
280
     1
102
RTVSPost2010PropOp28
 70
     1
102
RTVSPost2010Prop29
280
     1
102
RTVSPost2010PropOp29
 70
     1
102
RTVSPost2010Prop30
280
     0
102
RTVSPost2010PropOp30
 70
     1
102
RTVSPost2010Prop31
280
     0
102
RTVSPost2010PropOp31
 70
     1
102
RTVSPost2010Prop32
280
     0
102
RTVSPost2010PropOp32
 70
     1
102
RTVSPost2010Prop33
280
     0
102
RTVSPost2010PropOp33
 70
     1
102
RTVSPost2010Prop34
280
     0
102
RTVSPost2010PropOp34
 70
     1
102
RTVSPost2010Prop35
280
     0
102
RTVSPost2010PropOp35
 70
     1
102
RTVSPost2010Prop36
280
     0
102
RTVSPost2010PropOp36
 70
     1
102
RTVSPost2010Prop37
 90
       50
102
RTVSPost2010PropOp37
 70
     1
102
RTVSPost2010Prop38
140
0.0
102
RTVSPost2010PropOp38
 70
     1
102
RTVSPost2010Prop39
140
1.0
102
RTVSPost2010PropOp39
 70
     1
102
RTVSPost2010Prop40
 90
        0
102
RTVSPost2010PropOp40
 70
     1
102
RTVSPost2010Prop41ColorIndex
 90
       18
102
RTVSPost2010Prop41ColorRGB
 90
        0
102
RTVSPost2010PropOp41
 70
     1
102
RTVSPost2010Prop42
 90
       50
102
RTVSPost2010PropOp42
 70
     1
102
RTVSPost2010Prop43
 90
        3
102
RTVSPost2010PropOp43
 70
     1
102
RTVSPost2010Prop44ColorIndex
 90
        5
102
RTVSPost2010Prop44ColorRGB
 90
      255
102
RTVSPost2010PropOp44
 70
     1
102
RTVSPost2010Prop45
280
     0
102
RTVSPost2010PropOp45
 70
     1
102
RTVSPost2010Prop46
 90
       50
102
RTVSPost2010PropOp46
 70
     1
102
RTVSPost2010Prop47
 90
       50
102
RTVSPost2010PropOp47
 70
     1
102
RTVSPost2010Prop48
 90
       50
102
RTVSPost2010PropOp48
 70
     1
102
RTVSPost2010Prop49
280
     0
102
RTVSPost2010PropOp49
 70
     1
102
RTVSPost2010Prop50
 90
       50
102
RTVSPost2010PropOp50
 70
     1
102
RTVSPost2010Prop51ColorIndex
 90
      256
102
RTVSPost2010Prop51ColorRGB
 90
-16777216
102
RTVSPost2010PropOp51
 70
     0
102
RTVSPost2010Prop52
140
1.0
102
RTVSPost2010PropOp52
 70
     0
102
RTVSPost2010Prop53
 90
        2
102
RTVSPost2010PropOp53
 70
     1
102
RTVSPost2010Prop54
  1
strokes_ogs.tif
102
RTVSPost2010PropOp54
 70
     1
102
RTVSPost2010Prop55
280
     0
102
RTVSPost2010PropOp55
 70
     1
102
RTVSPost2010Prop56
140
1.0
102
RTVSPost2010PropOp56
 70
     1
102
RTVSPost2010Prop57
140
1.0
102
RTVSPost2010PropOp57
 70
     1
  0
XRECORD
  5
27A
102
{ACAD_REACTORS
330
279
102
}
330
279
100
AcDbXrecord
280
     1
102
RTVSPost2010Prop28
280
     0
102
RTVSPost2010PropOp28
 70
     1
102
RTVSPost2010Prop29
280
     1
102
RTVSPost2010PropOp29
 70
     1
102
RTVSPost2010Prop30
280
     1
102
RTVSPost2010PropOp30
 70
     1
102
RTVSPost2010Prop31
280
     0
102
RTVSPost2010PropOp31
 70
     1
102
RTVSPost2010Prop32
280
     0
102
RTVSPost2010PropOp32
 70
     1
102
RTVSPost2010Prop33
280
     0
102
RTVSPost2010PropOp33
 70
     1
102
RTVSPost2010Prop34
280
     0
102
RTVSPost2010PropOp34
 70
     1
102
RTVSPost2010Prop35
280
     0
102
RTVSPost2010PropOp35
 70
     1
102
RTVSPost2010Prop36
280
     0
102
RTVSPost2010PropOp36
 70
     1
102
RTVSPost2010Prop37
 90
       50
102
RTVSPost2010PropOp37
 70
     1
102
RTVSPost2010Prop38
140
0.0
102
RTVSPost2010PropOp38
 70
     1
102
RTVSPost2010Prop39
140
1.0
102
RTVSPost2010PropOp39
 70
     1
102
RTVSPost2010Prop40
 90
        0
102
RTVSPost2010PropOp40
 70
     1
102
RTVSPost2010Prop41ColorIndex
 90
       18
102
RTVSPost2010Prop41ColorRGB
 90
        0
102
RTVSPost2010PropOp41
 70
     1
102
RTVSPost2010Prop42
 90
       50
102
RTVSPost2010PropOp42
 70
     1
102
RTVSPost2010Prop43
 90
        3
102
RTVSPost2010PropOp43
 70
     1
102
RTVSPost2010Prop44ColorIndex
 90
        5
102
RTVSPost2010Prop44ColorRGB
 90
      255
102
RTVSPost2010PropOp44
 70
     1
102
RTVSPost2010Prop45
280
     0
102
RTVSPost2010PropOp45
 70
     1
102
RTVSPost2010Prop46
 90
       50
102
RTVSPost2010PropOp46
 70
     1
102
RTVSPost2010Prop47
 90
       50
102
RTVSPost2010PropOp47
 70
     1
102
RTVSPost2010Prop48
 90
       50
102
RTVSPost2010PropOp48
 70
     1
102
RTVSPost2010Prop49
280
     0
102
RTVSPost2010PropOp49
 70
     1
102
RTVSPost2010Prop50
 90
       50
102
RTVSPost2010PropOp50
 70
     1
102
RTVSPost2010Prop51ColorIndex
 90
      256
102
RTVSPost2010Prop51ColorRGB
 90
-16777216
102
RTVSPost2010PropOp51
 70
     0
102
RTVSPost2010Prop52
140
1.0
102
RTVSPost2010PropOp52
 70
     0
102
RTVSPost2010Prop53
 90
        2
102
RTVSPost2010PropOp53
 70
     1
102
RTVSPost2010Prop54
  1
strokes_ogs.tif
102
RTVSPost2010PropOp54
 70
     1
102
RTVSPost2010Prop55
280
     0
102
RTVSPost2010PropOp55
 70
     1
102
RTVSPost2010Prop56
140
1.0
102
RTVSPost2010PropOp56
 70
     1
102
RTVSPost2010Prop57
140
1.0
102
RTVSPost2010PropOp57
 70
     1
  0
XRECORD
  5
288
102
{ACAD_REACTORS
330
287
102
}
330
287
100
AcDbXrecord
280
     1
102
RTVSPost2010Prop28
280
     0
102
RTVSPost2010PropOp28
 70
     1
102
RTVSPost2010Prop29
280
     1
102
RTVSPost2010PropOp29
 70
     1
102
RTVSPost2010Prop30
280
     1
102
RTVSPost2010PropOp30
 70
     1
102
RTVSPost2010Prop31
280
     0
102
RTVSPost2010PropOp31
 70
     1
102
RTVSPost2010Prop32
280
     0
102
RTVSPost2010PropOp32
 70
     1
102
RTVSPost2010Prop33
280
     0
102
RTVSPost2010PropOp33
 70
     1
102
RTVSPost2010Prop34
280
     0
102
RTVSPost2010PropOp34
 70
     1
102
RTVSPost2010Prop35
280
     0
102
RTVSPost2010PropOp35
 70
     1
102
RTVSPost2010Prop36
280
     0
102
RTVSPost2010PropOp36
 70
     1
102
RTVSPost2010Prop37
 90
       50
102
RTVSPost2010PropOp37
 70
     1
102
RTVSPost2010Prop38
140
0.0
102
RTVSPost2010PropOp38
 70
     1
102
RTVSPost2010Prop39
140
1.0
102
RTVSPost2010PropOp39
 70
     1
102
RTVSPost2010Prop40
 90
        0
102
RTVSPost2010PropOp40
 70
     1
102
RTVSPost2010Prop41ColorIndex
 90
       18
102
RTVSPost2010Prop41ColorRGB
 90
        0
102
RTVSPost2010PropOp41
 70
     1
102
RTVSPost2010Prop42
 90
       50
102
RTVSPost2010PropOp42
 70
     1
102
RTVSPost2010Prop43
 90
        3
102
RTVSPost2010PropOp43
 70
     1
102
RTVSPost2010Prop44ColorIndex
 90
        5
102
RTVSPost2010Prop44ColorRGB
 90
      255
102
RTVSPost2010PropOp44
 70
     1
102
RTVSPost2010Prop45
280
     0
102
RTVSPost2010PropOp45
 70
     1
102
RTVSPost2010Prop46
 90
       50
102
RTVSPost2010PropOp46
 70
     1
102
RTVSPost2010Prop47
 90
       50
102
RTVSPost2010PropOp47
 70
     1
102
RTVSPost2010Prop48
 90
       50
102
RTVSPost2010PropOp48
 70
     1
102
RTVSPost2010Prop49
280
     0
102
RTVSPost2010PropOp49
 70
     1
102
RTVSPost2010Prop50
 90
       50
102
RTVSPost2010PropOp50
 70
     1
102
RTVSPost2010Prop51ColorIndex
 90
      256
102
RTVSPost2010Prop51ColorRGB
 90
-16777216
102
RTVSPost2010PropOp51
 70
     0
102
RTVSPost2010Prop52
140
1.0
102
RTVSPost2010PropOp52
 70
     0
102
RTVSPost2010Prop53
 90
        2
102
RTVSPost2010PropOp53
 70
     1
102
RTVSPost2010Prop54
  1
strokes_ogs.tif
102
RTVSPost2010PropOp54
 70
     1
102
RTVSPost2010Prop55
280
     0
102
RTVSPost2010PropOp55
 70
     1
102
RTVSPost2010Prop56
140
1.0
102
RTVSPost2010PropOp56
 70
     1
102
RTVSPost2010Prop57
140
1.0
102
RTVSPost2010PropOp57
 70
     1
  0
XRECORD
  5
290
102
{ACAD_REACTORS
330
28F
102
}
330
28F
100
AcDbXrecord
280
     1
102
RTVSPost2010Prop28
280
     0
102
RTVSPost2010PropOp28
 70
     1
102
RTVSPost2010Prop29
280
     1
102
RTVSPost2010PropOp29
 70
     1
102
RTVSPost2010Prop30
280
     1
102
RTVSPost2010PropOp30
 70
     1
102
RTVSPost2010Prop31
280
     0
102
RTVSPost2010PropOp31
 70
     1
102
RTVSPost2010Prop32
280
     0
102
RTVSPost2010PropOp32
 70
     1
102
RTVSPost2010Prop33
280
     0
102
RTVSPost2010PropOp33
 70
     1
102
RTVSPost2010Prop34
280
     0
102
RTVSPost2010PropOp34
 70
     1
102
RTVSPost2010Prop35
280
     0
102
RTVSPost2010PropOp35
 70
     1
102
RTVSPost2010Prop36
280
     0
102
RTVSPost2010PropOp36
 70
     1
102
RTVSPost2010Prop37
 90
       50
102
RTVSPost2010PropOp37
 70
     1
102
RTVSPost2010Prop38
140
0.0
102
RTVSPost2010PropOp38
 70
     1
102
RTVSPost2010Prop39
140
1.0
102
RTVSPost2010PropOp39
 70
     1
102
RTVSPost2010Prop40
 90
        0
102
RTVSPost2010PropOp40
 70
     1
102
RTVSPost2010Prop41ColorIndex
 90
       18
102
RTVSPost2010Prop41ColorRGB
 90
        0
102
RTVSPost2010PropOp41
 70
     1
102
RTVSPost2010Prop42
 90
       50
102
RTVSPost2010PropOp42
 70
     1
102
RTVSPost2010Prop43
 90
        3
102
RTVSPost2010PropOp43
 70
     1
102
RTVSPost2010Prop44ColorIndex
 90
        5
102
RTVSPost2010Prop44ColorRGB
 90
      255
102
RTVSPost2010PropOp44
 70
     1
102
RTVSPost2010Prop45
280
     0
102
RTVSPost2010PropOp45
 70
     1
102
RTVSPost2010Prop46
 90
       50
102
RTVSPost2010PropOp46
 70
     1
102
RTVSPost2010Prop47
 90
       50
102
RTVSPost2010PropOp47
 70
     1
102
RTVSPost2010Prop48
 90
       50
102
RTVSPost2010PropOp48
 70
     1
102
RTVSPost2010Prop49
280
     0
102
RTVSPost2010PropOp49
 70
     1
102
RTVSPost2010Prop50
 90
       50
102
RTVSPost2010PropOp50
 70
     1
102
RTVSPost2010Prop51ColorIndex
 90
      256
102
RTVSPost2010Prop51ColorRGB
 90
-16777216
102
RTVSPost2010PropOp51
 70
     0
102
RTVSPost2010Prop52
140
1.0
102
RTVSPost2010PropOp52
 70
     0
102
RTVSPost2010Prop53
 90
        2
102
RTVSPost2010PropOp53
 70
     1
102
RTVSPost2010Prop54
  1
strokes_ogs.tif
102
RTVSPost2010PropOp54
 70
     1
102
RTVSPost2010Prop55
280
     0
102
RTVSPost2010PropOp55
 70
     1
102
RTVSPost2010Prop56
140
1.0
102
RTVSPost2010PropOp56
 70
     1
102
RTVSPost2010Prop57
140
1.0
102
RTVSPost2010PropOp57
 70
     1
  0
XRECORD
  5
282
102
{ACAD_REACTORS
330
281
102
}
330
281
100
AcDbXrecord
280
     1
102
RTVSPost2010Prop28
280
     0
102
RTVSPost2010PropOp28
 70
     1
102
RTVSPost2010Prop29
280
     1
102
RTVSPost2010PropOp29
 70
     1
102
RTVSPost2010Prop30
280
     1
102
RTVSPost2010PropOp30
 70
     1
102
RTVSPost2010Prop31
280
     0
102
RTVSPost2010PropOp31
 70
     1
102
RTVSPost2010Prop32
280
     0
102
RTVSPost2010PropOp32
 70
     1
102
RTVSPost2010Prop33
280
     0
102
RTVSPost2010PropOp33
 70
     1
102
RTVSPost2010Prop34
280
     0
102
RTVSPost2010PropOp34
 70
     1
102
RTVSPost2010Prop35
280
     0
102
RTVSPost2010PropOp35
 70
     1
102
RTVSPost2010Prop36
280
     0
102
RTVSPost2010PropOp36
 70
     1
102
RTVSPost2010Prop37
 90
       50
102
RTVSPost2010PropOp37
 70
     1
102
RTVSPost2010Prop38
140
0.0
102
RTVSPost2010PropOp38
 70
     1
102
RTVSPost2010Prop39
140
1.0
102
RTVSPost2010PropOp39
 70
     1
102
RTVSPost2010Prop40
 90
        0
102
RTVSPost2010PropOp40
 70
     1
102
RTVSPost2010Prop41ColorIndex
 90
       18
102
RTVSPost2010Prop41ColorRGB
 90
        0
102
RTVSPost2010PropOp41
 70
     1
102
RTVSPost2010Prop42
 90
       50
102
RTVSPost2010PropOp42
 70
     1
102
RTVSPost2010Prop43
 90
        3
102
RTVSPost2010PropOp43
 70
     1
102
RTVSPost2010Prop44ColorIndex
 90
        5
102
RTVSPost2010Prop44ColorRGB
 90
      255
102
RTVSPost2010PropOp44
 70
     1
102
RTVSPost2010Prop45
280
     0
102
RTVSPost2010PropOp45
 70
     1
102
RTVSPost2010Prop46
 90
       50
102
RTVSPost2010PropOp46
 70
     1
102
RTVSPost2010Prop47
 90
       50
102
RTVSPost2010PropOp47
 70
     1
102
RTVSPost2010Prop48
 90
       50
102
RTVSPost2010PropOp48
 70
     1
102
RTVSPost2010Prop49
280
     0
102
RTVSPost2010PropOp49
 70
     1
102
RTVSPost2010Prop50
 90
       50
102
RTVSPost2010PropOp50
 70
     1
102
RTVSPost2010Prop51ColorIndex
 90
      256
102
RTVSPost2010Prop51ColorRGB
 90
-16777216
102
RTVSPost2010PropOp51
 70
     0
102
RTVSPost2010Prop52
140
1.0
102
RTVSPost2010PropOp52
 70
     0
102
RTVSPost2010Prop53
 90
        2
102
RTVSPost2010PropOp53
 70
     1
102
RTVSPost2010Prop54
  1
strokes_ogs.tif
102
RTVSPost2010PropOp54
 70
     1
102
RTVSPost2010Prop55
280
     0
102
RTVSPost2010PropOp55
 70
     1
102
RTVSPost2010Prop56
140
1.0
102
RTVSPost2010PropOp56
 70
     1
102
RTVSPost2010Prop57
140
1.0
102
RTVSPost2010PropOp57
 70
     1
  0
XRECORD
  5
286
102
{ACAD_REACTORS
330
285
102
}
330
285
100
AcDbXrecord
280
     1
102
RTVSPost2010Prop28
280
     0
102
RTVSPost2010PropOp28
 70
     1
102
RTVSPost2010Prop29
280
     1
102
RTVSPost2010PropOp29
 70
     1
102
RTVSPost2010Prop30
280
     1
102
RTVSPost2010PropOp30
 70
     1
102
RTVSPost2010Prop31
280
     0
102
RTVSPost2010PropOp31
 70
     1
102
RTVSPost2010Prop32
280
     0
102
RTVSPost2010PropOp32
 70
     1
102
RTVSPost2010Prop33
280
     0
102
RTVSPost2010PropOp33
 70
     1
102
RTVSPost2010Prop34
280
     0
102
RTVSPost2010PropOp34
 70
     1
102
RTVSPost2010Prop35
280
     0
102
RTVSPost2010PropOp35
 70
     1
102
RTVSPost2010Prop36
280
     0
102
RTVSPost2010PropOp36
 70
     1
102
RTVSPost2010Prop37
 90
       50
102
RTVSPost2010PropOp37
 70
     1
102
RTVSPost2010Prop38
140
0.0
102
RTVSPost2010PropOp38
 70
     1
102
RTVSPost2010Prop39
140
1.0
102
RTVSPost2010PropOp39
 70
     1
102
RTVSPost2010Prop40
 90
        0
102
RTVSPost2010PropOp40
 70
     1
102
RTVSPost2010Prop41ColorIndex
 90
       18
102
RTVSPost2010Prop41ColorRGB
 90
        0
102
RTVSPost2010PropOp41
 70
     1
102
RTVSPost2010Prop42
 90
       50
102
RTVSPost2010PropOp42
 70
     1
102
RTVSPost2010Prop43
 90
        3
102
RTVSPost2010PropOp43
 70
     1
102
RTVSPost2010Prop44ColorIndex
 90
        5
102
RTVSPost2010Prop44ColorRGB
 90
      255
102
RTVSPost2010PropOp44
 70
     1
102
RTVSPost2010Prop45
280
     0
102
RTVSPost2010PropOp45
 70
     1
102
RTVSPost2010Prop46
 90
       50
102
RTVSPost2010PropOp46
 70
     1
102
RTVSPost2010Prop47
 90
       50
102
RTVSPost2010PropOp47
 70
     1
102
RTVSPost2010Prop48
 90
       50
102
RTVSPost2010PropOp48
 70
     1
102
RTVSPost2010Prop49
280
     0
102
RTVSPost2010PropOp49
 70
     1
102
RTVSPost2010Prop50
 90
       50
102
RTVSPost2010PropOp50
 70
     1
102
RTVSPost2010Prop51ColorIndex
 90
      256
102
RTVSPost2010Prop51ColorRGB
 90
-16777216
102
RTVSPost2010PropOp51
 70
     0
102
RTVSPost2010Prop52
140
1.0
102
RTVSPost2010PropOp52
 70
     0
102
RTVSPost2010Prop53
 90
        2
102
RTVSPost2010PropOp53
 70
     1
102
RTVSPost2010Prop54
  1
strokes_ogs.tif
102
RTVSPost2010PropOp54
 70
     1
102
RTVSPost2010Prop55
280
     0
102
RTVSPost2010PropOp55
 70
     1
102
RTVSPost2010Prop56
140
1.0
102
RTVSPost2010PropOp56
 70
     1
102
RTVSPost2010Prop57
140
1.0
102
RTVSPost2010PropOp57
 70
     1
  0
XRECORD
  5
2A0
102
{ACAD_REACTORS
330
29F
102
}
330
29F
100
AcDbXrecord
280
     1
102
RTVSPost2010Prop28
280
     0
102
RTVSPost2010PropOp28
 70
     1
102
RTVSPost2010Prop29
280
     1
102
RTVSPost2010PropOp29
 70
     1
102
RTVSPost2010Prop30
280
     1
102
RTVSPost2010PropOp30
 70
     1
102
RTVSPost2010Prop31
280
     0
102
RTVSPost2010PropOp31
 70
     1
102
RTVSPost2010Prop32
280
     0
102
RTVSPost2010PropOp32
 70
     1
102
RTVSPost2010Prop33
280
     0
102
RTVSPost2010PropOp33
 70
     1
102
RTVSPost2010Prop34
280
     0
102
RTVSPost2010PropOp34
 70
     1
102
RTVSPost2010Prop35
280
     0
102
RTVSPost2010PropOp35
 70
     1
102
RTVSPost2010Prop36
280
     0
102
RTVSPost2010PropOp36
 70
     1
102
RTVSPost2010Prop37
 90
       50
102
RTVSPost2010PropOp37
 70
     0
102
RTVSPost2010Prop38
140
0.0
102
RTVSPost2010PropOp38
 70
     0
102
RTVSPost2010Prop39
140
1.0
102
RTVSPost2010PropOp39
 70
     0
102
RTVSPost2010Prop40
 90
        0
102
RTVSPost2010PropOp40
 70
     0
102
RTVSPost2010Prop41ColorIndex
 90
       18
102
RTVSPost2010Prop41ColorRGB
 90
        0
102
RTVSPost2010PropOp41
 70
     0
102
RTVSPost2010Prop42
 90
       50
102
RTVSPost2010PropOp42
 70
     0
102
RTVSPost2010Prop43
 90
        3
102
RTVSPost2010PropOp43
 70
     0
102
RTVSPost2010Prop44ColorIndex
 90
        5
102
RTVSPost2010Prop44ColorRGB
 90
      255
102
RTVSPost2010PropOp44
 70
     0
102
RTVSPost2010Prop45
280
     0
102
RTVSPost2010PropOp45
 70
     1
102
RTVSPost2010Prop46
 90
       50
102
RTVSPost2010PropOp46
 70
     0
102
RTVSPost2010Prop47
 90
       50
102
RTVSPost2010PropOp47
 70
     0
102
RTVSPost2010Prop48
 90
       50
102
RTVSPost2010PropOp48
 70
     0
102
RTVSPost2010Prop49
280
     0
102
RTVSPost2010PropOp49
 70
     1
102
RTVSPost2010Prop50
 90
       50
102
RTVSPost2010PropOp50
 70
     0
102
RTVSPost2010Prop51ColorIndex
 90
      256
102
RTVSPost2010Prop51ColorRGB
 90
-16777216
102
RTVSPost2010PropOp51
 70
     0
102
RTVSPost2010Prop52
140
1.0
102
RTVSPost2010PropOp52
 70
     0
102
RTVSPost2010Prop53
 90
        2
102
RTVSPost2010PropOp53
 70
     0
102
RTVSPost2010Prop54
  1
strokes_ogs.tif
102
RTVSPost2010PropOp54
 70
     0
102
RTVSPost2010Prop55
280
     0
102
RTVSPost2010PropOp55
 70
     1
102
RTVSPost2010Prop56
140
1.0
102
RTVSPost2010PropOp56
 70
     0
102
RTVSPost2010Prop57
140
1.0
102
RTVSPost2010PropOp57
 70
     0
  0
XRECORD
  5
28E
102
{ACAD_REACTORS
330
28D
102
}
330
28D
100
AcDbXrecord
280
     1
102
RTVSPost2010Prop28
280
     0
102
RTVSPost2010PropOp28
 70
     1
102
RTVSPost2010Prop29
280
     1
102
RTVSPost2010PropOp29
 70
     1
102
RTVSPost2010Prop30
280
     1
102
RTVSPost2010PropOp30
 70
     1
102
RTVSPost2010Prop31
280
     0
102
RTVSPost2010PropOp31
 70
     1
102
RTVSPost2010Prop32
280
     0
102
RTVSPost2010PropOp32
 70
     1
102
RTVSPost2010Prop33
280
     0
102
RTVSPost2010PropOp33
 70
     1
102
RTVSPost2010Prop34
280
     0
102
RTVSPost2010PropOp34
 70
     1
102
RTVSPost2010Prop35
280
     0
102
RTVSPost2010PropOp35
 70
     1
102
RTVSPost2010Prop36
280
     0
102
RTVSPost2010PropOp36
 70
     1
102
RTVSPost2010Prop37
 90
       50
102
RTVSPost2010PropOp37
 70
     1
102
RTVSPost2010Prop38
140
0.0
102
RTVSPost2010PropOp38
 70
     1
102
RTVSPost2010Prop39
140
1.0
102
RTVSPost2010PropOp39
 70
     1
102
RTVSPost2010Prop40
 90
        0
102
RTVSPost2010PropOp40
 70
     1
102
RTVSPost2010Prop41ColorIndex
 90
       18
102
RTVSPost2010Prop41ColorRGB
 90
        0
102
RTVSPost2010PropOp41
 70
     1
102
RTVSPost2010Prop42
 90
       50
102
RTVSPost2010PropOp42
 70
     1
102
RTVSPost2010Prop43
 90
        3
102
RTVSPost2010PropOp43
 70
     1
102
RTVSPost2010Prop44ColorIndex
 90
        5
102
RTVSPost2010Prop44ColorRGB
 90
      255
102
RTVSPost2010PropOp44
 70
     1
102
RTVSPost2010Prop45
280
     0
102
RTVSPost2010PropOp45
 70
     1
102
RTVSPost2010Prop46
 90
       50
102
RTVSPost2010PropOp46
 70
     1
102
RTVSPost2010Prop47
 90
       50
102
RTVSPost2010PropOp47
 70
     1
102
RTVSPost2010Prop48
 90
       50
102
RTVSPost2010PropOp48
 70
     1
102
RTVSPost2010Prop49
280
     0
102
RTVSPost2010PropOp49
 70
     1
102
RTVSPost2010Prop50
 90
       50
102
RTVSPost2010PropOp50
 70
     1
102
RTVSPost2010Prop51ColorIndex
 90
      256
102
RTVSPost2010Prop51ColorRGB
 90
-16777216
102
RTVSPost2010PropOp51
 70
     0
102
RTVSPost2010Prop52
140
1.0
102
RTVSPost2010PropOp52
 70
     0
102
RTVSPost2010Prop53
 90
        2
102
RTVSPost2010PropOp53
 70
     1
102
RTVSPost2010Prop54
  1
strokes_ogs.tif
102
RTVSPost2010PropOp54
 70
     1
102
RTVSPost2010Prop55
280
     0
102
RTVSPost2010PropOp55
 70
     1
102
RTVSPost2010Prop56
140
1.0
102
RTVSPost2010PropOp56
 70
     1
102
RTVSPost2010Prop57
140
1.0
102
RTVSPost2010PropOp57
 70
     1
  0
XRECORD
  5
272
102
{ACAD_REACTORS
330
271
102
}
330
271
100
AcDbXrecord
280
     1
102
RTVSPost2010Prop28
280
     0
102
RTVSPost2010PropOp28
 70
     1
102
RTVSPost2010Prop29
280
     1
102
RTVSPost2010PropOp29
 70
     1
102
RTVSPost2010Prop30
280
     1
102
RTVSPost2010PropOp30
 70
     1
102
RTVSPost2010Prop31
280
     0
102
RTVSPost2010PropOp31
 70
     1
102
RTVSPost2010Prop32
280
     0
102
RTVSPost2010PropOp32
 70
     1
102
RTVSPost2010Prop33
280
     0
102
RTVSPost2010PropOp33
 70
     1
102
RTVSPost2010Prop34
280
     0
102
RTVSPost2010PropOp34
 70
     1
102
RTVSPost2010Prop35
280
     0
102
RTVSPost2010PropOp35
 70
     1
102
RTVSPost2010Prop36
280
     0
102
RTVSPost2010PropOp36
 70
     1
102
RTVSPost2010Prop37
 90
       50
102
RTVSPost2010PropOp37
 70
     1
102
RTVSPost2010Prop38
140
0.0
102
RTVSPost2010PropOp38
 70
     1
102
RTVSPost2010Prop39
140
1.0
102
RTVSPost2010PropOp39
 70
     1
102
RTVSPost2010Prop40
 90
        0
102
RTVSPost2010PropOp40
 70
     1
102
RTVSPost2010Prop41ColorIndex
 90
       18
102
RTVSPost2010Prop41ColorRGB
 90
        0
102
RTVSPost2010PropOp41
 70
     1
102
RTVSPost2010Prop42
 90
       50
102
RTVSPost2010PropOp42
 70
     1
102
RTVSPost2010Prop43
 90
        3
102
RTVSPost2010PropOp43
 70
     1
102
RTVSPost2010Prop44ColorIndex
 90
        5
102
RTVSPost2010Prop44ColorRGB
 90
      255
102
RTVSPost2010PropOp44
 70
     1
102
RTVSPost2010Prop45
280
     0
102
RTVSPost2010PropOp45
 70
     1
102
RTVSPost2010Prop46
 90
       50
102
RTVSPost2010PropOp46
 70
     1
102
RTVSPost2010Prop47
 90
       50
102
RTVSPost2010PropOp47
 70
     1
102
RTVSPost2010Prop48
 90
       50
102
RTVSPost2010PropOp48
 70
     1
102
RTVSPost2010Prop49
280
     0
102
RTVSPost2010PropOp49
 70
     1
102
RTVSPost2010Prop50
 90
       50
102
RTVSPost2010PropOp50
 70
     1
102
RTVSPost2010Prop51ColorIndex
 90
      256
102
RTVSPost2010Prop51ColorRGB
 90
-16777216
102
RTVSPost2010PropOp51
 70
     0
102
RTVSPost2010Prop52
140
1.0
102
RTVSPost2010PropOp52
 70
     0
102
RTVSPost2010Prop53
 90
        2
102
RTVSPost2010PropOp53
 70
     1
102
RTVSPost2010Prop54
  1
strokes_ogs.tif
102
RTVSPost2010PropOp54
 70
     1
102
RTVSPost2010Prop55
280
     0
102
RTVSPost2010PropOp55
 70
     1
102
RTVSPost2010Prop56
140
1.0
102
RTVSPost2010PropOp56
 70
     1
102
RTVSPost2010Prop57
140
1.0
102
RTVSPost2010PropOp57
 70
     1
  0
XRECORD
  5
274
102
{ACAD_REACTORS
330
273
102
}
330
273
100
AcDbXrecord
280
     1
102
RTVSPost2010Prop28
280
     0
102
RTVSPost2010PropOp28
 70
     1
102
RTVSPost2010Prop29
280
     1
102
RTVSPost2010PropOp29
 70
     1
102
RTVSPost2010Prop30
280
     1
102
RTVSPost2010PropOp30
 70
     1
102
RTVSPost2010Prop31
280
     0
102
RTVSPost2010PropOp31
 70
     1
102
RTVSPost2010Prop32
280
     0
102
RTVSPost2010PropOp32
 70
     1
102
RTVSPost2010Prop33
280
     0
102
RTVSPost2010PropOp33
 70
     1
102
RTVSPost2010Prop34
280
     0
102
RTVSPost2010PropOp34
 70
     1
102
RTVSPost2010Prop35
280
     0
102
RTVSPost2010PropOp35
 70
     1
102
RTVSPost2010Prop36
280
     0
102
RTVSPost2010PropOp36
 70
     1
102
RTVSPost2010Prop37
 90
       50
102
RTVSPost2010PropOp37
 70
     1
102
RTVSPost2010Prop38
140
0.0
102
RTVSPost2010PropOp38
 70
     1
102
RTVSPost2010Prop39
140
1.0
102
RTVSPost2010PropOp39
 70
     1
102
RTVSPost2010Prop40
 90
        0
102
RTVSPost2010PropOp40
 70
     1
102
RTVSPost2010Prop41ColorIndex
 90
       18
102
RTVSPost2010Prop41ColorRGB
 90
        0
102
RTVSPost2010PropOp41
 70
     1
102
RTVSPost2010Prop42
 90
       50
102
RTVSPost2010PropOp42
 70
     1
102
RTVSPost2010Prop43
 90
        3
102
RTVSPost2010PropOp43
 70
     1
102
RTVSPost2010Prop44ColorIndex
 90
        5
102
RTVSPost2010Prop44ColorRGB
 90
      255
102
RTVSPost2010PropOp44
 70
     1
102
RTVSPost2010Prop45
280
     0
102
RTVSPost2010PropOp45
 70
     1
102
RTVSPost2010Prop46
 90
       50
102
RTVSPost2010PropOp46
 70
     1
102
RTVSPost2010Prop47
 90
       50
102
RTVSPost2010PropOp47
 70
     1
102
RTVSPost2010Prop48
 90
       50
102
RTVSPost2010PropOp48
 70
     1
102
RTVSPost2010Prop49
280
     0
102
RTVSPost2010PropOp49
 70
     1
102
RTVSPost2010Prop50
 90
       50
102
RTVSPost2010PropOp50
 70
     1
102
RTVSPost2010Prop51ColorIndex
 90
      256
102
RTVSPost2010Prop51ColorRGB
 90
-16777216
102
RTVSPost2010PropOp51
 70
     0
102
RTVSPost2010Prop52
140
1.0
102
RTVSPost2010PropOp52
 70
     0
102
RTVSPost2010Prop53
 90
        2
102
RTVSPost2010PropOp53
 70
     1
102
RTVSPost2010Prop54
  1
strokes_ogs.tif
102
RTVSPost2010PropOp54
 70
     1
102
RTVSPost2010Prop55
280
     0
102
RTVSPost2010PropOp55
 70
     1
102
RTVSPost2010Prop56
140
1.0
102
RTVSPost2010PropOp56
 70
     1
102
RTVSPost2010Prop57
140
1.0
102
RTVSPost2010PropOp57
 70
     1
  0
XRECORD
  5
276
102
{ACAD_REACTORS
330
275
102
}
330
275
100
AcDbXrecord
280
     1
102
RTVSPost2010Prop28
280
     0
102
RTVSPost2010PropOp28
 70
     1
102
RTVSPost2010Prop29
280
     1
102
RTVSPost2010PropOp29
 70
     1
102
RTVSPost2010Prop30
280
     1
102
RTVSPost2010PropOp30
 70
     1
102
RTVSPost2010Prop31
280
     0
102
RTVSPost2010PropOp31
 70
     1
102
RTVSPost2010Prop32
280
     0
102
RTVSPost2010PropOp32
 70
     1
102
RTVSPost2010Prop33
280
     0
102
RTVSPost2010PropOp33
 70
     1
102
RTVSPost2010Prop34
280
     0
102
RTVSPost2010PropOp34
 70
     1
102
RTVSPost2010Prop35
280
     0
102
RTVSPost2010PropOp35
 70
     1
102
RTVSPost2010Prop36
280
     0
102
RTVSPost2010PropOp36
 70
     1
102
RTVSPost2010Prop37
 90
       50
102
RTVSPost2010PropOp37
 70
     1
102
RTVSPost2010Prop38
140
0.0
102
RTVSPost2010PropOp38
 70
     1
102
RTVSPost2010Prop39
140
1.0
102
RTVSPost2010PropOp39
 70
     1
102
RTVSPost2010Prop40
 90
        0
102
RTVSPost2010PropOp40
 70
     1
102
RTVSPost2010Prop41ColorIndex
 90
       18
102
RTVSPost2010Prop41ColorRGB
 90
        0
102
RTVSPost2010PropOp41
 70
     1
102
RTVSPost2010Prop42
 90
       50
102
RTVSPost2010PropOp42
 70
     1
102
RTVSPost2010Prop43
 90
        3
102
RTVSPost2010PropOp43
 70
     1
102
RTVSPost2010Prop44ColorIndex
 90
        5
102
RTVSPost2010Prop44ColorRGB
 90
      255
102
RTVSPost2010PropOp44
 70
     1
102
RTVSPost2010Prop45
280
     0
102
RTVSPost2010PropOp45
 70
     1
102
RTVSPost2010Prop46
 90
       50
102
RTVSPost2010PropOp46
 70
     1
102
RTVSPost2010Prop47
 90
       50
102
RTVSPost2010PropOp47
 70
     1
102
RTVSPost2010Prop48
 90
       50
102
RTVSPost2010PropOp48
 70
     1
102
RTVSPost2010Prop49
280
     0
102
RTVSPost2010PropOp49
 70
     1
102
RTVSPost2010Prop50
 90
       50
102
RTVSPost2010PropOp50
 70
     1
102
RTVSPost2010Prop51ColorIndex
 90
      256
102
RTVSPost2010Prop51ColorRGB
 90
-16777216
102
RTVSPost2010PropOp51
 70
     0
102
RTVSPost2010Prop52
140
1.0
102
RTVSPost2010PropOp52
 70
     0
102
RTVSPost2010Prop53
 90
        2
102
RTVSPost2010PropOp53
 70
     1
102
RTVSPost2010Prop54
  1
strokes_ogs.tif
102
RTVSPost2010PropOp54
 70
     1
102
RTVSPost2010Prop55
280
     0
102
RTVSPost2010PropOp55
 70
     1
102
RTVSPost2010Prop56
140
1.0
102
RTVSPost2010PropOp56
 70
     1
102
RTVSPost2010Prop57
140
1.0
102
RTVSPost2010PropOp57
 70
     1
  0
XRECORD
  5
278
102
{ACAD_REACTORS
330
277
102
}
330
277
100
AcDbXrecord
280
     1
102
RTVSPost2010Prop28
280
     0
102
RTVSPost2010PropOp28
 70
     1
102
RTVSPost2010Prop29
280
     1
102
RTVSPost2010PropOp29
 70
     1
102
RTVSPost2010Prop30
280
     1
102
RTVSPost2010PropOp30
 70
     1
102
RTVSPost2010Prop31
280
     0
102
RTVSPost2010PropOp31
 70
     1
102
RTVSPost2010Prop32
280
     0
102
RTVSPost2010PropOp32
 70
     1
102
RTVSPost2010Prop33
280
     0
102
RTVSPost2010PropOp33
 70
     1
102
RTVSPost2010Prop34
280
     0
102
RTVSPost2010PropOp34
 70
     1
102
RTVSPost2010Prop35
280
     0
102
RTVSPost2010PropOp35
 70
     1
102
RTVSPost2010Prop36
280
     0
102
RTVSPost2010PropOp36
 70
     1
102
RTVSPost2010Prop37
 90
       50
102
RTVSPost2010PropOp37
 70
     1
102
RTVSPost2010Prop38
140
0.0
102
RTVSPost2010PropOp38
 70
     1
102
RTVSPost2010Prop39
140
1.0
102
RTVSPost2010PropOp39
 70
     1
102
RTVSPost2010Prop40
 90
        0
102
RTVSPost2010PropOp40
 70
     1
102
RTVSPost2010Prop41ColorIndex
 90
       18
102
RTVSPost2010Prop41ColorRGB
 90
        0
102
RTVSPost2010PropOp41
 70
     1
102
RTVSPost2010Prop42
 90
       50
102
RTVSPost2010PropOp42
 70
     1
102
RTVSPost2010Prop43
 90
        3
102
RTVSPost2010PropOp43
 70
     1
102
RTVSPost2010Prop44ColorIndex
 90
        5
102
RTVSPost2010Prop44ColorRGB
 90
      255
102
RTVSPost2010PropOp44
 70
     1
102
RTVSPost2010Prop45
280
     0
102
RTVSPost2010PropOp45
 70
     1
102
RTVSPost2010Prop46
 90
       50
102
RTVSPost2010PropOp46
 70
     1
102
RTVSPost2010Prop47
 90
       50
102
RTVSPost2010PropOp47
 70
     1
102
RTVSPost2010Prop48
 90
       50
102
RTVSPost2010PropOp48
 70
     1
102
RTVSPost2010Prop49
280
     0
102
RTVSPost2010PropOp49
 70
     1
102
RTVSPost2010Prop50
 90
       50
102
RTVSPost2010PropOp50
 70
     1
102
RTVSPost2010Prop51ColorIndex
 90
      256
102
RTVSPost2010Prop51ColorRGB
 90
-16777216
102
RTVSPost2010PropOp51
 70
     0
102
RTVSPost2010Prop52
140
1.0
102
RTVSPost2010PropOp52
 70
     0
102
RTVSPost2010Prop53
 90
        2
102
RTVSPost2010PropOp53
 70
     1
102
RTVSPost2010Prop54
  1
strokes_ogs.tif
102
RTVSPost2010PropOp54
 70
     1
102
RTVSPost2010Prop55
280
     0
102
RTVSPost2010PropOp55
 70
     1
102
RTVSPost2010Prop56
140
1.0
102
RTVSPost2010PropOp56
 70
     1
102
RTVSPost2010Prop57
140
1.0
102
RTVSPost2010PropOp57
 70
     1
  0
XRECORD
  5
280
102
{ACAD_REACTORS
330
27F
102
}
330
27F
100
AcDbXrecord
280
     1
102
RTVSPost2010Prop28
280
     0
102
RTVSPost2010PropOp28
 70
     1
102
RTVSPost2010Prop29
280
     1
102
RTVSPost2010PropOp29
 70
     1
102
RTVSPost2010Prop30
280
     1
102
RTVSPost2010PropOp30
 70
     1
102
RTVSPost2010Prop31
280
     0
102
RTVSPost2010PropOp31
 70
     1
102
RTVSPost2010Prop32
280
     0
102
RTVSPost2010PropOp32
 70
     1
102
RTVSPost2010Prop33
280
     0
102
RTVSPost2010PropOp33
 70
     1
102
RTVSPost2010Prop34
280
     0
102
RTVSPost2010PropOp34
 70
     1
102
RTVSPost2010Prop35
280
     0
102
RTVSPost2010PropOp35
 70
     1
102
RTVSPost2010Prop36
280
     0
102
RTVSPost2010PropOp36
 70
     1
102
RTVSPost2010Prop37
 90
       50
102
RTVSPost2010PropOp37
 70
     1
102
RTVSPost2010Prop38
140
0.0
102
RTVSPost2010PropOp38
 70
     1
102
RTVSPost2010Prop39
140
1.0
102
RTVSPost2010PropOp39
 70
     1
102
RTVSPost2010Prop40
 90
        0
102
RTVSPost2010PropOp40
 70
     1
102
RTVSPost2010Prop41ColorIndex
 90
       18
102
RTVSPost2010Prop41ColorRGB
 90
        0
102
RTVSPost2010PropOp41
 70
     1
102
RTVSPost2010Prop42
 90
       50
102
RTVSPost2010PropOp42
 70
     1
102
RTVSPost2010Prop43
 90
        3
102
RTVSPost2010PropOp43
 70
     1
102
RTVSPost2010Prop44ColorIndex
 90
        5
102
RTVSPost2010Prop44ColorRGB
 90
      255
102
RTVSPost2010PropOp44
 70
     1
102
RTVSPost2010Prop45
280
     0
102
RTVSPost2010PropOp45
 70
     1
102
RTVSPost2010Prop46
 90
       50
102
RTVSPost2010PropOp46
 70
     1
102
RTVSPost2010Prop47
 90
       50
102
RTVSPost2010PropOp47
 70
     1
102
RTVSPost2010Prop48
 90
       50
102
RTVSPost2010PropOp48
 70
     1
102
RTVSPost2010Prop49
280
     0
102
RTVSPost2010PropOp49
 70
     1
102
RTVSPost2010Prop50
 90
       50
102
RTVSPost2010PropOp50
 70
     1
102
RTVSPost2010Prop51ColorIndex
 90
      256
102
RTVSPost2010Prop51ColorRGB
 90
-16777216
102
RTVSPost2010PropOp51
 70
     0
102
RTVSPost2010Prop52
140
1.0
102
RTVSPost2010PropOp52
 70
     0
102
RTVSPost2010Prop53
 90
        2
102
RTVSPost2010PropOp53
 70
     1
102
RTVSPost2010Prop54
  1
strokes_ogs.tif
102
RTVSPost2010PropOp54
 70
     1
102
RTVSPost2010Prop55
280
     0
102
RTVSPost2010PropOp55
 70
     1
102
RTVSPost2010Prop56
140
1.0
102
RTVSPost2010PropOp56
 70
     1
102
RTVSPost2010Prop57
140
1.0
102
RTVSPost2010PropOp57
 70
     1
  0
XRECORD
  5
29C
102
{ACAD_REACTORS
330
29B
102
}
330
29B
100
AcDbXrecord
280
     1
102
RTVSPost2010Prop28
280
     0
102
RTVSPost2010PropOp28
 70
     1
102
RTVSPost2010Prop29
280
     1
102
RTVSPost2010PropOp29
 70
     1
102
RTVSPost2010Prop30
280
     1
102
RTVSPost2010PropOp30
 70
     1
102
RTVSPost2010Prop31
280
     0
102
RTVSPost2010PropOp31
 70
     1
102
RTVSPost2010Prop32
280
     0
102
RTVSPost2010PropOp32
 70
     1
102
RTVSPost2010Prop33
280
     0
102
RTVSPost2010PropOp33
 70
     1
102
RTVSPost2010Prop34
280
     0
102
RTVSPost2010PropOp34
 70
     1
102
RTVSPost2010Prop35
280
     0
102
RTVSPost2010PropOp35
 70
     1
102
RTVSPost2010Prop36
280
     0
102
RTVSPost2010PropOp36
 70
     1
102
RTVSPost2010Prop37
 90
       50
102
RTVSPost2010PropOp37
 70
     0
102
RTVSPost2010Prop38
140
0.0
102
RTVSPost2010PropOp38
 70
     0
102
RTVSPost2010Prop39
140
1.0
102
RTVSPost2010PropOp39
 70
     0
102
RTVSPost2010Prop40
 90
        0
102
RTVSPost2010PropOp40
 70
     0
102
RTVSPost2010Prop41ColorIndex
 90
       18
102
RTVSPost2010Prop41ColorRGB
 90
        0
102
RTVSPost2010PropOp41
 70
     0
102
RTVSPost2010Prop42
 90
       50
102
RTVSPost2010PropOp42
 70
     0
102
RTVSPost2010Prop43
 90
        3
102
RTVSPost2010PropOp43
 70
     0
102
RTVSPost2010Prop44ColorIndex
 90
        5
102
RTVSPost2010Prop44ColorRGB
 90
      255
102
RTVSPost2010PropOp44
 70
     0
102
RTVSPost2010Prop45
280
     0
102
RTVSPost2010PropOp45
 70
     1
102
RTVSPost2010Prop46
 90
       50
102
RTVSPost2010PropOp46
 70
     0
102
RTVSPost2010Prop47
 90
       50
102
RTVSPost2010PropOp47
 70
     0
102
RTVSPost2010Prop48
 90
       50
102
RTVSPost2010PropOp48
 70
     0
102
RTVSPost2010Prop49
280
     0
102
RTVSPost2010PropOp49
 70
     1
102
RTVSPost2010Prop50
 90
       50
102
RTVSPost2010PropOp50
 70
     0
102
RTVSPost2010Prop51ColorIndex
 90
      256
102
RTVSPost2010Prop51ColorRGB
 90
-16777216
102
RTVSPost2010PropOp51
 70
     0
102
RTVSPost2010Prop52
140
1.0
102
RTVSPost2010PropOp52
 70
     0
102
RTVSPost2010Prop53
 90
        2
102
RTVSPost2010PropOp53
 70
     0
102
RTVSPost2010Prop54
  1
strokes_ogs.tif
102
RTVSPost2010PropOp54
 70
     0
102
RTVSPost2010Prop55
280
     0
102
RTVSPost2010PropOp55
 70
     1
102
RTVSPost2010Prop56
140
1.0
102
RTVSPost2010PropOp56
 70
     0
102
RTVSPost2010Prop57
140
1.0
102
RTVSPost2010PropOp57
 70
     0
  0
XRECORD
  5
28C
102
{ACAD_REACTORS
330
28B
102
}
330
28B
100
AcDbXrecord
280
     1
102
RTVSPost2010Prop28
280
     0
102
RTVSPost2010PropOp28
 70
     1
102
RTVSPost2010Prop29
280
     1
102
RTVSPost2010PropOp29
 70
     1
102
RTVSPost2010Prop30
280
     1
102
RTVSPost2010PropOp30
 70
     1
102
RTVSPost2010Prop31
280
     0
102
RTVSPost2010PropOp31
 70
     1
102
RTVSPost2010Prop32
280
     0
102
RTVSPost2010PropOp32
 70
     1
102
RTVSPost2010Prop33
280
     0
102
RTVSPost2010PropOp33
 70
     1
102
RTVSPost2010Prop34
280
     0
102
RTVSPost2010PropOp34
 70
     1
102
RTVSPost2010Prop35
280
     0
102
RTVSPost2010PropOp35
 70
     1
102
RTVSPost2010Prop36
280
     0
102
RTVSPost2010PropOp36
 70
     1
102
RTVSPost2010Prop37
 90
       50
102
RTVSPost2010PropOp37
 70
     1
102
RTVSPost2010Prop38
140
0.0
102
RTVSPost2010PropOp38
 70
     1
102
RTVSPost2010Prop39
140
1.0
102
RTVSPost2010PropOp39
 70
     1
102
RTVSPost2010Prop40
 90
        0
102
RTVSPost2010PropOp40
 70
     1
102
RTVSPost2010Prop41ColorIndex
 90
       18
102
RTVSPost2010Prop41ColorRGB
 90
        0
102
RTVSPost2010PropOp41
 70
     1
102
RTVSPost2010Prop42
 90
       50
102
RTVSPost2010PropOp42
 70
     1
102
RTVSPost2010Prop43
 90
        3
102
RTVSPost2010PropOp43
 70
     1
102
RTVSPost2010Prop44ColorIndex
 90
        5
102
RTVSPost2010Prop44ColorRGB
 90
      255
102
RTVSPost2010PropOp44
 70
     1
102
RTVSPost2010Prop45
280
     0
102
RTVSPost2010PropOp45
 70
     1
102
RTVSPost2010Prop46
 90
       50
102
RTVSPost2010PropOp46
 70
     1
102
RTVSPost2010Prop47
 90
       50
102
RTVSPost2010PropOp47
 70
     1
102
RTVSPost2010Prop48
 90
       50
102
RTVSPost2010PropOp48
 70
     1
102
RTVSPost2010Prop49
280
     0
102
RTVSPost2010PropOp49
 70
     1
102
RTVSPost2010Prop50
 90
       50
102
RTVSPost2010PropOp50
 70
     1
102
RTVSPost2010Prop51ColorIndex
 90
      256
102
RTVSPost2010Prop51ColorRGB
 90
-16777216
102
RTVSPost2010PropOp51
 70
     0
102
RTVSPost2010Prop52
140
1.0
102
RTVSPost2010PropOp52
 70
     0
102
RTVSPost2010Prop53
 90
        2
102
RTVSPost2010PropOp53
 70
     1
102
RTVSPost2010Prop54
  1
strokes_ogs.tif
102
RTVSPost2010PropOp54
 70
     1
102
RTVSPost2010Prop55
280
     0
102
RTVSPost2010PropOp55
 70
     1
102
RTVSPost2010Prop56
140
1.0
102
RTVSPost2010PropOp56
 70
     1
102
RTVSPost2010Prop57
140
1.0
102
RTVSPost2010PropOp57
 70
     1
  0
XRECORD
  5
29E
102
{ACAD_REACTORS
330
29D
102
}
330
29D
100
AcDbXrecord
280
     1
102
RTVSPost2010Prop28
280
     0
102
RTVSPost2010PropOp28
 70
     1
102
RTVSPost2010Prop29
280
     1
102
RTVSPost2010PropOp29
 70
     1
102
RTVSPost2010Prop30
280
     1
102
RTVSPost2010PropOp30
 70
     1
102
RTVSPost2010Prop31
280
     0
102
RTVSPost2010PropOp31
 70
     1
102
RTVSPost2010Prop32
280
     0
102
RTVSPost2010PropOp32
 70
     1
102
RTVSPost2010Prop33
280
     0
102
RTVSPost2010PropOp33
 70
     1
102
RTVSPost2010Prop34
280
     0
102
RTVSPost2010PropOp34
 70
     1
102
RTVSPost2010Prop35
280
     0
102
RTVSPost2010PropOp35
 70
     1
102
RTVSPost2010Prop36
280
     0
102
RTVSPost2010PropOp36
 70
     1
102
RTVSPost2010Prop37
 90
       50
102
RTVSPost2010PropOp37
 70
     0
102
RTVSPost2010Prop38
140
0.0
102
RTVSPost2010PropOp38
 70
     0
102
RTVSPost2010Prop39
140
1.0
102
RTVSPost2010PropOp39
 70
     0
102
RTVSPost2010Prop40
 90
        0
102
RTVSPost2010PropOp40
 70
     0
102
RTVSPost2010Prop41ColorIndex
 90
       18
102
RTVSPost2010Prop41ColorRGB
 90
        0
102
RTVSPost2010PropOp41
 70
     0
102
RTVSPost2010Prop42
 90
       50
102
RTVSPost2010PropOp42
 70
     0
102
RTVSPost2010Prop43
 90
        3
102
RTVSPost2010PropOp43
 70
     0
102
RTVSPost2010Prop44ColorIndex
 90
        5
102
RTVSPost2010Prop44ColorRGB
 90
      255
102
RTVSPost2010PropOp44
 70
     0
102
RTVSPost2010Prop45
280
     0
102
RTVSPost2010PropOp45
 70
     1
102
RTVSPost2010Prop46
 90
       50
102
RTVSPost2010PropOp46
 70
     0
102
RTVSPost2010Prop47
 90
       50
102
RTVSPost2010PropOp47
 70
     0
102
RTVSPost2010Prop48
 90
       50
102
RTVSPost2010PropOp48
 70
     0
102
RTVSPost2010Prop49
280
     0
102
RTVSPost2010PropOp49
 70
     1
102
RTVSPost2010Prop50
 90
       50
102
RTVSPost2010PropOp50
 70
     0
102
RTVSPost2010Prop51ColorIndex
 90
      256
102
RTVSPost2010Prop51ColorRGB
 90
-16777216
102
RTVSPost2010PropOp51
 70
     0
102
RTVSPost2010Prop52
140
1.0
102
RTVSPost2010PropOp52
 70
     0
102
RTVSPost2010Prop53
 90
        2
102
RTVSPost2010PropOp53
 70
     0
102
RTVSPost2010Prop54
  1
strokes_ogs.tif
102
RTVSPost2010PropOp54
 70
     0
102
RTVSPost2010Prop55
280
     0
102
RTVSPost2010PropOp55
 70
     1
102
RTVSPost2010Prop56
140
1.0
102
RTVSPost2010PropOp56
 70
     0
102
RTVSPost2010Prop57
140
1.0
102
RTVSPost2010PropOp57
 70
     0
  0
XRECORD
  5
284
102
{ACAD_REACTORS
330
283
102
}
330
283
100
AcDbXrecord
280
     1
102
RTVSPost2010Prop28
280
     0
102
RTVSPost2010PropOp28
 70
     1
102
RTVSPost2010Prop29
280
     1
102
RTVSPost2010PropOp29
 70
     1
102
RTVSPost2010Prop30
280
     1
102
RTVSPost2010PropOp30
 70
     1
102
RTVSPost2010Prop31
280
     0
102
RTVSPost2010PropOp31
 70
     1
102
RTVSPost2010Prop32
280
     0
102
RTVSPost2010PropOp32
 70
     1
102
RTVSPost2010Prop33
280
     0
102
RTVSPost2010PropOp33
 70
     1
102
RTVSPost2010Prop34
280
     0
102
RTVSPost2010PropOp34
 70
     1
102
RTVSPost2010Prop35
280
     0
102
RTVSPost2010PropOp35
 70
     1
102
RTVSPost2010Prop36
280
     0
102
RTVSPost2010PropOp36
 70
     1
102
RTVSPost2010Prop37
 90
       50
102
RTVSPost2010PropOp37
 70
     1
102
RTVSPost2010Prop38
140
0.0
102
RTVSPost2010PropOp38
 70
     1
102
RTVSPost2010Prop39
140
1.0
102
RTVSPost2010PropOp39
 70
     1
102
RTVSPost2010Prop40
 90
        0
102
RTVSPost2010PropOp40
 70
     1
102
RTVSPost2010Prop41ColorIndex
 90
       18
102
RTVSPost2010Prop41ColorRGB
 90
        0
102
RTVSPost2010PropOp41
 70
     1
102
RTVSPost2010Prop42
 90
       50
102
RTVSPost2010PropOp42
 70
     1
102
RTVSPost2010Prop43
 90
        3
102
RTVSPost2010PropOp43
 70
     1
102
RTVSPost2010Prop44ColorIndex
 90
        5
102
RTVSPost2010Prop44ColorRGB
 90
      255
102
RTVSPost2010PropOp44
 70
     1
102
RTVSPost2010Prop45
280
     0
102
RTVSPost2010PropOp45
 70
     1
102
RTVSPost2010Prop46
 90
       50
102
RTVSPost2010PropOp46
 70
     1
102
RTVSPost2010Prop47
 90
       50
102
RTVSPost2010PropOp47
 70
     1
102
RTVSPost2010Prop48
 90
       50
102
RTVSPost2010PropOp48
 70
     1
102
RTVSPost2010Prop49
280
     0
102
RTVSPost2010PropOp49
 70
     1
102
RTVSPost2010Prop50
 90
       50
102
RTVSPost2010PropOp50
 70
     1
102
RTVSPost2010Prop51ColorIndex
 90
      256
102
RTVSPost2010Prop51ColorRGB
 90
-16777216
102
RTVSPost2010PropOp51
 70
     0
102
RTVSPost2010Prop52
140
1.0
102
RTVSPost2010PropOp52
 70
     0
102
RTVSPost2010Prop53
 90
        2
102
RTVSPost2010PropOp53
 70
     1
102
RTVSPost2010Prop54
  1
strokes_ogs.tif
102
RTVSPost2010PropOp54
 70
     1
102
RTVSPost2010Prop55
280
     0
102
RTVSPost2010PropOp55
 70
     1
102
RTVSPost2010Prop56
140
1.0
102
RTVSPost2010PropOp56
 70
     1
102
RTVSPost2010Prop57
140
1.0
102
RTVSPost2010PropOp57
 70
     1
  0
XRECORD
  5
29A
102
{ACAD_REACTORS
330
299
102
}
330
299
100
AcDbXrecord
280
     1
102
RTVSPost2010Prop28
280
     0
102
RTVSPost2010PropOp28
 70
     1
102
RTVSPost2010Prop29
280
     1
102
RTVSPost2010PropOp29
 70
     1
102
RTVSPost2010Prop30
280
     1
102
RTVSPost2010PropOp30
 70
     1
102
RTVSPost2010Prop31
280
     0
102
RTVSPost2010PropOp31
 70
     1
102
RTVSPost2010Prop32
280
     0
102
RTVSPost2010PropOp32
 70
     1
102
RTVSPost2010Prop33
280
     0
102
RTVSPost2010PropOp33
 70
     1
102
RTVSPost2010Prop34
280
     0
102
RTVSPost2010PropOp34
 70
     1
102
RTVSPost2010Prop35
280
     0
102
RTVSPost2010PropOp35
 70
     1
102
RTVSPost2010Prop36
280
     0
102
RTVSPost2010PropOp36
 70
     1
102
RTVSPost2010Prop37
 90
       50
102
RTVSPost2010PropOp37
 70
     1
102
RTVSPost2010Prop38
140
0.0
102
RTVSPost2010PropOp38
 70
     1
102
RTVSPost2010Prop39
140
1.0
102
RTVSPost2010PropOp39
 70
     1
102
RTVSPost2010Prop40
 90
        0
102
RTVSPost2010PropOp40
 70
     1
102
RTVSPost2010Prop41ColorIndex
 90
       18
102
RTVSPost2010Prop41ColorRGB
 90
        0
102
RTVSPost2010PropOp41
 70
     1
102
RTVSPost2010Prop42
 90
       50
102
RTVSPost2010PropOp42
 70
     1
102
RTVSPost2010Prop43
 90
        3
102
RTVSPost2010PropOp43
 70
     1
102
RTVSPost2010Prop44ColorIndex
 90
        5
102
RTVSPost2010Prop44ColorRGB
 90
      255
102
RTVSPost2010PropOp44
 70
     1
102
RTVSPost2010Prop45
280
     0
102
RTVSPost2010PropOp45
 70
     1
102
RTVSPost2010Prop46
 90
       50
102
RTVSPost2010PropOp46
 70
     1
102
RTVSPost2010Prop47
 90
       50
102
RTVSPost2010PropOp47
 70
     1
102
RTVSPost2010Prop48
 90
       50
102
RTVSPost2010PropOp48
 70
     1
102
RTVSPost2010Prop49
280
     0
102
RTVSPost2010PropOp49
 70
     1
102
RTVSPost2010Prop50
 90
       50
102
RTVSPost2010PropOp50
 70
     1
102
RTVSPost2010Prop51ColorIndex
 90
      256
102
RTVSPost2010Prop51ColorRGB
 90
-16777216
102
RTVSPost2010PropOp51
 70
     0
102
RTVSPost2010Prop52
140
1.0
102
RTVSPost2010PropOp52
 70
     0
102
RTVSPost2010Prop53
 90
        2
102
RTVSPost2010PropOp53
 70
     1
102
RTVSPost2010Prop54
  1
strokes_ogs.tif
102
RTVSPost2010PropOp54
 70
     1
102
RTVSPost2010Prop55
280
     0
102
RTVSPost2010PropOp55
 70
     1
102
RTVSPost2010Prop56
140
1.0
102
RTVSPost2010PropOp56
 70
     1
102
RTVSPost2010Prop57
140
1.0
102
RTVSPost2010PropOp57
 70
     1
  0
XRECORD
  5
298
102
{ACAD_REACTORS
330
297
102
}
330
297
100
AcDbXrecord
280
     1
102
RTVSPost2010Prop28
280
     0
102
RTVSPost2010PropOp28
 70
     1
102
RTVSPost2010Prop29
280
     1
102
RTVSPost2010PropOp29
 70
     1
102
RTVSPost2010Prop30
280
     1
102
RTVSPost2010PropOp30
 70
     1
102
RTVSPost2010Prop31
280
     0
102
RTVSPost2010PropOp31
 70
     1
102
RTVSPost2010Prop32
280
     0
102
RTVSPost2010PropOp32
 70
     1
102
RTVSPost2010Prop33
280
     0
102
RTVSPost2010PropOp33
 70
     1
102
RTVSPost2010Prop34
280
     0
102
RTVSPost2010PropOp34
 70
     1
102
RTVSPost2010Prop35
280
     0
102
RTVSPost2010PropOp35
 70
     1
102
RTVSPost2010Prop36
280
     0
102
RTVSPost2010PropOp36
 70
     1
102
RTVSPost2010Prop37
 90
       50
102
RTVSPost2010PropOp37
 70
     1
102
RTVSPost2010Prop38
140
0.0
102
RTVSPost2010PropOp38
 70
     1
102
RTVSPost2010Prop39
140
1.0
102
RTVSPost2010PropOp39
 70
     1
102
RTVSPost2010Prop40
 90
        0
102
RTVSPost2010PropOp40
 70
     1
102
RTVSPost2010Prop41ColorIndex
 90
       18
102
RTVSPost2010Prop41ColorRGB
 90
        0
102
RTVSPost2010PropOp41
 70
     1
102
RTVSPost2010Prop42
 90
       50
102
RTVSPost2010PropOp42
 70
     1
102
RTVSPost2010Prop43
 90
        3
102
RTVSPost2010PropOp43
 70
     1
102
RTVSPost2010Prop44ColorIndex
 90
        5
102
RTVSPost2010Prop44ColorRGB
 90
      255
102
RTVSPost2010PropOp44
 70
     1
102
RTVSPost2010Prop45
280
     0
102
RTVSPost2010PropOp45
 70
     1
102
RTVSPost2010Prop46
 90
       50
102
RTVSPost2010PropOp46
 70
     1
102
RTVSPost2010Prop47
 90
       50
102
RTVSPost2010PropOp47
 70
     1
102
RTVSPost2010Prop48
 90
       50
102
RTVSPost2010PropOp48
 70
     1
102
RTVSPost2010Prop49
280
     0
102
RTVSPost2010PropOp49
 70
     1
102
RTVSPost2010Prop50
 90
       50
102
RTVSPost2010PropOp50
 70
     1
102
RTVSPost2010Prop51ColorIndex
 90
      256
102
RTVSPost2010Prop51ColorRGB
 90
-16777216
102
RTVSPost2010PropOp51
 70
     0
102
RTVSPost2010Prop52
140
1.0
102
RTVSPost2010PropOp52
 70
     0
102
RTVSPost2010Prop53
 90
        2
102
RTVSPost2010PropOp53
 70
     1
102
RTVSPost2010Prop54
  1
strokes_ogs.tif
102
RTVSPost2010PropOp54
 70
     1
102
RTVSPost2010Prop55
280
     0
102
RTVSPost2010PropOp55
 70
     1
102
RTVSPost2010Prop56
140
1.0
102
RTVSPost2010PropOp56
 70
     1
102
RTVSPost2010Prop57
140
1.0
102
RTVSPost2010PropOp57
 70
     1
  0
XRECORD
  5
292
102
{ACAD_REACTORS
330
291
102
}
330
291
100
AcDbXrecord
280
     1
102
RTVSPost2010Prop28
280
     0
102
RTVSPost2010PropOp28
 70
     1
102
RTVSPost2010Prop29
280
     1
102
RTVSPost2010PropOp29
 70
     1
102
RTVSPost2010Prop30
280
     1
102
RTVSPost2010PropOp30
 70
     1
102
RTVSPost2010Prop31
280
     0
102
RTVSPost2010PropOp31
 70
     1
102
RTVSPost2010Prop32
280
     0
102
RTVSPost2010PropOp32
 70
     1
102
RTVSPost2010Prop33
280
     0
102
RTVSPost2010PropOp33
 70
     1
102
RTVSPost2010Prop34
280
     0
102
RTVSPost2010PropOp34
 70
     1
102
RTVSPost2010Prop35
280
     0
102
RTVSPost2010PropOp35
 70
     1
102
RTVSPost2010Prop36
280
     0
102
RTVSPost2010PropOp36
 70
     1
102
RTVSPost2010Prop37
 90
       50
102
RTVSPost2010PropOp37
 70
     1
102
RTVSPost2010Prop38
140
0.0
102
RTVSPost2010PropOp38
 70
     1
102
RTVSPost2010Prop39
140
1.0
102
RTVSPost2010PropOp39
 70
     1
102
RTVSPost2010Prop40
 90
        0
102
RTVSPost2010PropOp40
 70
     1
102
RTVSPost2010Prop41ColorIndex
 90
       18
102
RTVSPost2010Prop41ColorRGB
 90
        0
102
RTVSPost2010PropOp41
 70
     1
102
RTVSPost2010Prop42
 90
       50
102
RTVSPost2010PropOp42
 70
     1
102
RTVSPost2010Prop43
 90
        3
102
RTVSPost2010PropOp43
 70
     1
102
RTVSPost2010Prop44ColorIndex
 90
        5
102
RTVSPost2010Prop44ColorRGB
 90
      255
102
RTVSPost2010PropOp44
 70
     1
102
RTVSPost2010Prop45
280
     0
102
RTVSPost2010PropOp45
 70
     1
102
RTVSPost2010Prop46
 90
       50
102
RTVSPost2010PropOp46
 70
     1
102
RTVSPost2010Prop47
 90
       50
102
RTVSPost2010PropOp47
 70
     1
102
RTVSPost2010Prop48
 90
       50
102
RTVSPost2010PropOp48
 70
     1
102
RTVSPost2010Prop49
280
     0
102
RTVSPost2010PropOp49
 70
     1
102
RTVSPost2010Prop50
 90
       50
102
RTVSPost2010PropOp50
 70
     1
102
RTVSPost2010Prop51ColorIndex
 90
      256
102
RTVSPost2010Prop51ColorRGB
 90
-16777216
102
RTVSPost2010PropOp51
 70
     0
102
RTVSPost2010Prop52
140
1.0
102
RTVSPost2010PropOp52
 70
     0
102
RTVSPost2010Prop53
 90
        2
102
RTVSPost2010PropOp53
 70
     1
102
RTVSPost2010Prop54
  1
strokes_ogs.tif
102
RTVSPost2010PropOp54
 70
     1
102
RTVSPost2010Prop55
280
     0
102
RTVSPost2010PropOp55
 70
     1
102
RTVSPost2010Prop56
140
1.0
102
RTVSPost2010PropOp56
 70
     1
102
RTVSPost2010Prop57
140
1.0
102
RTVSPost2010PropOp57
 70
     1
  0
XRECORD
  5
294
102
{ACAD_REACTORS
330
293
102
}
330
293
100
AcDbXrecord
280
     1
102
RTVSPost2010Prop28
280
     0
102
RTVSPost2010PropOp28
 70
     1
102
RTVSPost2010Prop29
280
     1
102
RTVSPost2010PropOp29
 70
     1
102
RTVSPost2010Prop30
280
     1
102
RTVSPost2010PropOp30
 70
     1
102
RTVSPost2010Prop31
280
     0
102
RTVSPost2010PropOp31
 70
     1
102
RTVSPost2010Prop32
280
     0
102
RTVSPost2010PropOp32
 70
     1
102
RTVSPost2010Prop33
280
     0
102
RTVSPost2010PropOp33
 70
     1
102
RTVSPost2010Prop34
280
     0
102
RTVSPost2010PropOp34
 70
     1
102
RTVSPost2010Prop35
280
     0
102
RTVSPost2010PropOp35
 70
     1
102
RTVSPost2010Prop36
280
     0
102
RTVSPost2010PropOp36
 70
     1
102
RTVSPost2010Prop37
 90
       50
102
RTVSPost2010PropOp37
 70
     1
102
RTVSPost2010Prop38
140
0.0
102
RTVSPost2010PropOp38
 70
     1
102
RTVSPost2010Prop39
140
1.0
102
RTVSPost2010PropOp39
 70
     1
102
RTVSPost2010Prop40
 90
        0
102
RTVSPost2010PropOp40
 70
     1
102
RTVSPost2010Prop41ColorIndex
 90
       18
102
RTVSPost2010Prop41ColorRGB
 90
        0
102
RTVSPost2010PropOp41
 70
     1
102
RTVSPost2010Prop42
 90
       50
102
RTVSPost2010PropOp42
 70
     1
102
RTVSPost2010Prop43
 90
        3
102
RTVSPost2010PropOp43
 70
     1
102
RTVSPost2010Prop44ColorIndex
 90
        5
102
RTVSPost2010Prop44ColorRGB
 90
      255
102
RTVSPost2010PropOp44
 70
     1
102
RTVSPost2010Prop45
280
     0
102
RTVSPost2010PropOp45
 70
     1
102
RTVSPost2010Prop46
 90
       50
102
RTVSPost2010PropOp46
 70
     1
102
RTVSPost2010Prop47
 90
       50
102
RTVSPost2010PropOp47
 70
     1
102
RTVSPost2010Prop48
 90
       50
102
RTVSPost2010PropOp48
 70
     1
102
RTVSPost2010Prop49
280
     0
102
RTVSPost2010PropOp49
 70
     1
102
RTVSPost2010Prop50
 90
       50
102
RTVSPost2010PropOp50
 70
     1
102
RTVSPost2010Prop51ColorIndex
 90
      256
102
RTVSPost2010Prop51ColorRGB
 90
-16777216
102
RTVSPost2010PropOp51
 70
     0
102
RTVSPost2010Prop52
140
1.0
102
RTVSPost2010PropOp52
 70
     0
102
RTVSPost2010Prop53
 90
        2
102
RTVSPost2010PropOp53
 70
     1
102
RTVSPost2010Prop54
  1
strokes_ogs.tif
102
RTVSPost2010PropOp54
 70
     1
102
RTVSPost2010Prop55
280
     0
102
RTVSPost2010PropOp55
 70
     1
102
RTVSPost2010Prop56
140
1.0
102
RTVSPost2010PropOp56
 70
     1
102
RTVSPost2010Prop57
140
1.0
102
RTVSPost2010PropOp57
 70
     1
  0
XRECORD
  5
28A
102
{ACAD_REACTORS
330
289
102
}
330
289
100
AcDbXrecord
280
     1
102
RTVSPost2010Prop28
280
     0
102
RTVSPost2010PropOp28
 70
     1
102
RTVSPost2010Prop29
280
     1
102
RTVSPost2010PropOp29
 70
     1
102
RTVSPost2010Prop30
280
     1
102
RTVSPost2010PropOp30
 70
     1
102
RTVSPost2010Prop31
280
     0
102
RTVSPost2010PropOp31
 70
     1
102
RTVSPost2010Prop32
280
     0
102
RTVSPost2010PropOp32
 70
     1
102
RTVSPost2010Prop33
280
     0
102
RTVSPost2010PropOp33
 70
     1
102
RTVSPost2010Prop34
280
     0
102
RTVSPost2010PropOp34
 70
     1
102
RTVSPost2010Prop35
280
     0
102
RTVSPost2010PropOp35
 70
     1
102
RTVSPost2010Prop36
280
     0
102
RTVSPost2010PropOp36
 70
     1
102
RTVSPost2010Prop37
 90
       50
102
RTVSPost2010PropOp37
 70
     1
102
RTVSPost2010Prop38
140
0.0
102
RTVSPost2010PropOp38
 70
     1
102
RTVSPost2010Prop39
140
1.0
102
RTVSPost2010PropOp39
 70
     1
102
RTVSPost2010Prop40
 90
        0
102
RTVSPost2010PropOp40
 70
     1
102
RTVSPost2010Prop41ColorIndex
 90
       18
102
RTVSPost2010Prop41ColorRGB
 90
        0
102
RTVSPost2010PropOp41
 70
     1
102
RTVSPost2010Prop42
 90
       50
102
RTVSPost2010PropOp42
 70
     1
102
RTVSPost2010Prop43
 90
        3
102
RTVSPost2010PropOp43
 70
     1
102
RTVSPost2010Prop44ColorIndex
 90
        5
102
RTVSPost2010Prop44ColorRGB
 90
      255
102
RTVSPost2010PropOp44
 70
     1
102
RTVSPost2010Prop45
280
     0
102
RTVSPost2010PropOp45
 70
     1
102
RTVSPost2010Prop46
 90
       50
102
RTVSPost2010PropOp46
 70
     1
102
RTVSPost2010Prop47
 90
       50
102
RTVSPost2010PropOp47
 70
     1
102
RTVSPost2010Prop48
 90
       50
102
RTVSPost2010PropOp48
 70
     1
102
RTVSPost2010Prop49
280
     0
102
RTVSPost2010PropOp49
 70
     1
102
RTVSPost2010Prop50
 90
       50
102
RTVSPost2010PropOp50
 70
     1
102
RTVSPost2010Prop51ColorIndex
 90
      256
102
RTVSPost2010Prop51ColorRGB
 90
-16777216
102
RTVSPost2010PropOp51
 70
     0
102
RTVSPost2010Prop52
140
1.0
102
RTVSPost2010PropOp52
 70
     0
102
RTVSPost2010Prop53
 90
        2
102
RTVSPost2010PropOp53
 70
     1
102
RTVSPost2010Prop54
  1
strokes_ogs.tif
102
RTVSPost2010PropOp54
 70
     1
102
RTVSPost2010Prop55
280
     0
102
RTVSPost2010PropOp55
 70
     1
102
RTVSPost2010Prop56
140
1.0
102
RTVSPost2010PropOp56
 70
     1
102
RTVSPost2010Prop57
140
1.0
102
RTVSPost2010PropOp57
 70
     1
  0
XRECORD
  5
27E
102
{ACAD_REACTORS
330
27D
102
}
330
27D
100
AcDbXrecord
280
     1
102
RTVSPost2010Prop28
280
     0
102
RTVSPost2010PropOp28
 70
     1
102
RTVSPost2010Prop29
280
     1
102
RTVSPost2010PropOp29
 70
     1
102
RTVSPost2010Prop30
280
     1
102
RTVSPost2010PropOp30
 70
     1
102
RTVSPost2010Prop31
280
     0
102
RTVSPost2010PropOp31
 70
     1
102
RTVSPost2010Prop32
280
     0
102
RTVSPost2010PropOp32
 70
     1
102
RTVSPost2010Prop33
280
     0
102
RTVSPost2010PropOp33
 70
     1
102
RTVSPost2010Prop34
280
     0
102
RTVSPost2010PropOp34
 70
     1
102
RTVSPost2010Prop35
280
     0
102
RTVSPost2010PropOp35
 70
     1
102
RTVSPost2010Prop36
280
     0
102
RTVSPost2010PropOp36
 70
     1
102
RTVSPost2010Prop37
 90
       50
102
RTVSPost2010PropOp37
 70
     1
102
RTVSPost2010Prop38
140
0.0
102
RTVSPost2010PropOp38
 70
     1
102
RTVSPost2010Prop39
140
1.0
102
RTVSPost2010PropOp39
 70
     1
102
RTVSPost2010Prop40
 90
        0
102
RTVSPost2010PropOp40
 70
     1
102
RTVSPost2010Prop41ColorIndex
 90
       18
102
RTVSPost2010Prop41ColorRGB
 90
        0
102
RTVSPost2010PropOp41
 70
     1
102
RTVSPost2010Prop42
 90
       50
102
RTVSPost2010PropOp42
 70
     1
102
RTVSPost2010Prop43
 90
        3
102
RTVSPost2010PropOp43
 70
     1
102
RTVSPost2010Prop44ColorIndex
 90
        5
102
RTVSPost2010Prop44ColorRGB
 90
      255
102
RTVSPost2010PropOp44
 70
     1
102
RTVSPost2010Prop45
280
     0
102
RTVSPost2010PropOp45
 70
     1
102
RTVSPost2010Prop46
 90
       50
102
RTVSPost2010PropOp46
 70
     1
102
RTVSPost2010Prop47
 90
       50
102
RTVSPost2010PropOp47
 70
     1
102
RTVSPost2010Prop48
 90
       50
102
RTVSPost2010PropOp48
 70
     1
102
RTVSPost2010Prop49
280
     0
102
RTVSPost2010PropOp49
 70
     1
102
RTVSPost2010Prop50
 90
       50
102
RTVSPost2010PropOp50
 70
     1
102
RTVSPost2010Prop51ColorIndex
 90
      256
102
RTVSPost2010Prop51ColorRGB
 90
-16777216
102
RTVSPost2010PropOp51
 70
     0
102
RTVSPost2010Prop52
140
1.0
102
RTVSPost2010PropOp52
 70
     0
102
RTVSPost2010Prop53
 90
        2
102
RTVSPost2010PropOp53
 70
     1
102
RTVSPost2010Prop54
  1
strokes_ogs.tif
102
RTVSPost2010PropOp54
 70
     1
102
RTVSPost2010Prop55
280
     0
102
RTVSPost2010PropOp55
 70
     1
102
RTVSPost2010Prop56
140
1.0
102
RTVSPost2010PropOp56
 70
     1
102
RTVSPost2010Prop57
140
1.0
102
RTVSPost2010PropOp57
 70
     1
  0
XRECORD
  5
296
102
{ACAD_REACTORS
330
295
102
}
330
295
100
AcDbXrecord
280
     1
102
RTVSPost2010Prop28
280
     0
102
RTVSPost2010PropOp28
 70
     1
102
RTVSPost2010Prop29
280
     1
102
RTVSPost2010PropOp29
 70
     1
102
RTVSPost2010Prop30
280
     1
102
RTVSPost2010PropOp30
 70
     1
102
RTVSPost2010Prop31
280
     0
102
RTVSPost2010PropOp31
 70
     1
102
RTVSPost2010Prop32
280
     0
102
RTVSPost2010PropOp32
 70
     1
102
RTVSPost2010Prop33
280
     0
102
RTVSPost2010PropOp33
 70
     1
102
RTVSPost2010Prop34
280
     0
102
RTVSPost2010PropOp34
 70
     1
102
RTVSPost2010Prop35
280
     0
102
RTVSPost2010PropOp35
 70
     1
102
RTVSPost2010Prop36
280
     0
102
RTVSPost2010PropOp36
 70
     1
102
RTVSPost2010Prop37
 90
       50
102
RTVSPost2010PropOp37
 70
     1
102
RTVSPost2010Prop38
140
0.0
102
RTVSPost2010PropOp38
 70
     1
102
RTVSPost2010Prop39
140
1.0
102
RTVSPost2010PropOp39
 70
     1
102
RTVSPost2010Prop40
 90
        0
102
RTVSPost2010PropOp40
 70
     1
102
RTVSPost2010Prop41ColorIndex
 90
       18
102
RTVSPost2010Prop41ColorRGB
 90
        0
102
RTVSPost2010PropOp41
 70
     1
102
RTVSPost2010Prop42
 90
       50
102
RTVSPost2010PropOp42
 70
     1
102
RTVSPost2010Prop43
 90
        3
102
RTVSPost2010PropOp43
 70
     1
102
RTVSPost2010Prop44ColorIndex
 90
        5
102
RTVSPost2010Prop44ColorRGB
 90
      255
102
RTVSPost2010PropOp44
 70
     1
102
RTVSPost2010Prop45
280
     0
102
RTVSPost2010PropOp45
 70
     1
102
RTVSPost2010Prop46
 90
       50
102
RTVSPost2010PropOp46
 70
     1
102
RTVSPost2010Prop47
 90
       50
102
RTVSPost2010PropOp47
 70
     1
102
RTVSPost2010Prop48
 90
       50
102
RTVSPost2010PropOp48
 70
     1
102
RTVSPost2010Prop49
280
     0
102
RTVSPost2010PropOp49
 70
     1
102
RTVSPost2010Prop50
 90
       50
102
RTVSPost2010PropOp50
 70
     1
102
RTVSPost2010Prop51ColorIndex
 90
      256
102
RTVSPost2010Prop51ColorRGB
 90
-16777216
102
RTVSPost2010PropOp51
 70
     0
102
RTVSPost2010Prop52
140
1.0
102
RTVSPost2010PropOp52
 70
     0
102
RTVSPost2010Prop53
 90
        2
102
RTVSPost2010PropOp53
 70
     1
102
RTVSPost2010Prop54
  1
strokes_ogs.tif
102
RTVSPost2010PropOp54
 70
     1
102
RTVSPost2010Prop55
280
     0
102
RTVSPost2010PropOp55
 70
     1
102
RTVSPost2010Prop56
140
1.0
102
RTVSPost2010PropOp56
 70
     1
102
RTVSPost2010Prop57
140
1.0
102
RTVSPost2010PropOp57
 70
     1
  0
ENDSEC
  0
EOF
