  0
SECTION
  2
HEADER
  9
$ACADVER
  1
AC1015
  9
$ACADMAINTVER
 70
     6
  9
$DWGCODEPAGE
  3
ANSI_1252
  9
$INSBASE
 10
0.0
 20
0.0
 30
0.0
  9
$EXTMIN
 10
0.0
 20
0.0
 30
0.0
  9
$EXTMAX
 10
44.0
 20
34.0
 30
0.0
  9
$LIMMIN
 10
0.0
 20
0.0
  9
$LIMMAX
 10
44.0
 20
34.0
  9
$ORTHOMODE
 70
     0
  9
$REGENMODE
 70
     1
  9
$FILLMODE
 70
     1
  9
$QTEXTMODE
 70
     0
  9
$MIRRTEXT
 70
     1
  9
$LTSCALE
 40
1.0
  9
$ATTMODE
 70
     1
  9
$TEXTSIZE
 40
0.2777777778
  9
$TRACEWID
 40
0.05
  9
$TEXTSTYLE
  7
Standard
  9
$CLAYER
  8
0
  9
$CELTYPE
  6
ByLayer
  9
$CECOLOR
 62
   256
  9
$CELTSCALE
 40
1.0
  9
$DISPSILH
 70
     0
  9
$DIMSCALE
 40
1.0
  9
$DIMASZ
 40
0.262898763
  9
$DIMEXO
 40
0.05
  9
$DIMDLI
 40
0.38
  9
$DIMRND
 40
0.0
  9
$DIMDLE
 40
0.0
  9
$DIMEXE
 40
0.125
  9
$DIMTP
 40
0.0
  9
$DIMTM
 40
0.0
  9
$DIMTXT
 40
0.3611111111
  9
$DIMCEN
 40
0.09
  9
$DIMTSZ
 40
0.0
  9
$DIMTOL
 70
     0
  9
$DIMLIM
 70
     0
  9
$DIMTIH
 70
     1
  9
$DIMTOH
 70
     1
  9
$DIMSE1
 70
     0
  9
$DIMSE2
 70
     0
  9
$DIMTAD
 70
     0
  9
$DIMZIN
 70
     0
  9
$DIMBLK
  1

  9
$DIMASO
 70
     1
  9
$DIMSHO
 70
     1
  9
$DIMPOST
  1

  9
$DIMAPOST
  1

  9
$DIMALT
 70
     0
  9
$DIMALTD
 70
     2
  9
$DIMALTF
 40
25.4
  9
$DIMLFAC
 40
1.0
  9
$DIMTOFL
 70
     0
  9
$DIMTVP
 40
0.0
  9
$DIMTIX
 70
     0
  9
$DIMSOXD
 70
     0
  9
$DIMSAH
 70
     0
  9
$DIMBLK1
  1

  9
$DIMBLK2
  1

  9
$DIMSTYLE
  2
Standard
  9
$DIMCLRD
 70
     0
  9
$DIMCLRE
 70
     0
  9
$DIMCLRT
 70
     0
  9
$DIMTFAC
 40
1.0
  9
$DIMGAP
 40
0.06
  9
$DIMJUST
 70
     0
  9
$DIMSD1
 70
     0
  9
$DIMSD2
 70
     0
  9
$DIMTOLJ
 70
     1
  9
$DIMTZIN
 70
     0
  9
$DIMALTZ
 70
     0
  9
$DIMALTTZ
 70
     0
  9
$DIMUPT
 70
     0
  9
$DIMDEC
 70
     3
  9
$DIMTDEC
 70
     3
  9
$DIMALTU
 70
     2
  9
$DIMALTTD
 70
     2
  9
$DIMTXSTY
  7
Standard
  9
$DIMAUNIT
 70
     0
  9
$DIMADEC
 70
     1
  9
$DIMALTRND
 40
0.0
  9
$DIMAZIN
 70
     0
  9
$DIMDSEP
 70
    46
  9
$DIMATFIT
 70
     3
  9
$DIMFRAC
 70
     0
  9
$DIMLDRBLK
  1

  9
$DIMLUNIT
 70
     2
  9
$DIMLWD
 70
    -2
  9
$DIMLWE
 70
    -2
  9
$DIMTMOVE
 70
     0
  9
$LUNITS
 70
     2
  9
$LUPREC
 70
     3
  9
$SKETCHINC
 40
0.1
  9
$FILLETRAD
 40
0.5
  9
$AUNITS
 70
     0
  9
$AUPREC
 70
     1
  9
$MENU
  1
.
  9
$ELEVATION
 40
0.0
  9
$PELEVATION
 40
0.0
  9
$THICKNESS
 40
0.0
  9
$LIMCHECK
 70
     0
  9
$CHAMFERA
 40
0.5
  9
$CHAMFERB
 40
0.5
  9
$CHAMFERC
 40
1.0
  9
$CHAMFERD
 40
0.0
  9
$SKPOLY
 70
     0
  9
$TDCREATE
 40
2457255.668665151
  9
$TDUCREATE
 40
2457255.876998484
  9
$TDUPDATE
 40
2457255.668666493
  9
$TDUUPDATE
 40
2457255.876999826
  9
$TDINDWG
 40
0.0000000116
  9
$TDUSRTIMER
 40
0.0000000116
  9
$USRTIMER
 70
     1
  9
$ANGBASE
 50
0.0
  9
$ANGDIR
 70
     0
  9
$PDMODE
 70
     0
  9
$PDSIZE
 40
-1.0
  9
$PLINEWID
 40
0.0
  9
$SPLFRAME
 70
     0
  9
$SPLINETYPE
 70
     6
  9
$SPLINESEGS
 70
     8
  9
$HANDSEED
  5
20B
  9
$SURFTAB1
 70
     6
  9
$SURFTAB2
 70
     6
  9
$SURFTYPE
 70
     6
  9
$SURFU
 70
     6
  9
$SURFV
 70
     6
  9
$UCSBASE
  2

  9
$UCSNAME
  2

  9
$UCSORG
 10
0.0
 20
0.0
 30
0.0
  9
$UCSXDIR
 10
1.0
 20
0.0
 30
0.0
  9
$UCSYDIR
 10
0.0
 20
1.0
 30
0.0
  9
$UCSORTHOREF
  2

  9
$UCSORTHOVIEW
 70
     0
  9
$UCSORGTOP
 10
0.0
 20
0.0
 30
0.0
  9
$UCSORGBOTTOM
 10
0.0
 20
0.0
 30
0.0
  9
$UCSORGLEFT
 10
0.0
 20
0.0
 30
0.0
  9
$UCSORGRIGHT
 10
0.0
 20
0.0
 30
0.0
  9
$UCSORGFRONT
 10
0.0
 20
0.0
 30
0.0
  9
$UCSORGBACK
 10
0.0
 20
0.0
 30
0.0
  9
$PUCSBASE
  2

  9
$PUCSNAME
  2

  9
$PUCSORG
 10
0.0
 20
0.0
 30
0.0
  9
$PUCSXDIR
 10
1.0
 20
0.0
 30
0.0
  9
$PUCSYDIR
 10
0.0
 20
1.0
 30
0.0
  9
$PUCSORTHOREF
  2

  9
$PUCSORTHOVIEW
 70
     0
  9
$PUCSORGTOP
 10
0.0
 20
0.0
 30
0.0
  9
$PUCSORGBOTTOM
 10
0.0
 20
0.0
 30
0.0
  9
$PUCSORGLEFT
 10
0.0
 20
0.0
 30
0.0
  9
$PUCSORGRIGHT
 10
0.0
 20
0.0
 30
0.0
  9
$PUCSORGFRONT
 10
0.0
 20
0.0
 30
0.0
  9
$PUCSORGBACK
 10
0.0
 20
0.0
 30
0.0
  9
$USERI1
 70
     0
  9
$USERI2
 70
     0
  9
$USERI3
 70
     0
  9
$USERI4
 70
     0
  9
$USERI5
 70
     0
  9
$USERR1
 40
0.0
  9
$USERR2
 40
0.0
  9
$USERR3
 40
0.0
  9
$USERR4
 40
0.0
  9
$USERR5
 40
0.0
  9
$WORLDVIEW
 70
     1
  9
$SHADEDGE
 70
     3
  9
$SHADEDIF
 70
    70
  9
$TILEMODE
 70
     1
  9
$MAXACTVP
 70
    64
  9
$PINSBASE
 10
0.0
 20
0.0
 30
0.0
  9
$PLIMCHECK
 70
     0
  9
$PEXTMIN
 10
1.0000000000E+20
 20
1.0000000000E+20
 30
1.0000000000E+20
  9
$PEXTMAX
 10
-1.0000000000E+20
 20
-1.0000000000E+20
 30
-1.0000000000E+20
  9
$PLIMMIN
 10
0.0
 20
0.0
  9
$PLIMMAX
 10
12.0
 20
9.0
  9
$UNITMODE
 70
     0
  9
$VISRETAIN
 70
     1
  9
$PLINEGEN
 70
     0
  9
$PSLTSCALE
 70
     1
  9
$TREEDEPTH
 70
  3020
  9
$CMLSTYLE
  2
Standard
  9
$CMLJUST
 70
     0
  9
$CMLSCALE
 40
1.0
  9
$PROXYGRAPHICS
 70
     1
  9
$MEASUREMENT
 70
     0
  9
$CELWEIGHT
370
    -1
  9
$ENDCAPS
280
     0
  9
$JOINSTYLE
280
     0
  9
$LWDISPLAY
290
     1
  9
$INSUNITS
 70
     1
  9
$HYPERLINKBASE
  1

  9
$STYLESHEET
  1

  9
$XEDIT
290
     1
  9
$CEPSNTYPE
380
     0
  9
$PSTYLEMODE
290
     1
  9
$FINGERPRINTGUID
  2
{450418F8-867D-41A6-BCC3-539E6DFF4D9F}
  9
$VERSIONGUID
  2
{FAEB1C32-E019-11D5-929B-00C0DF256EC4}
  9
$EXTNAMES
290
     1
  9
$PSVPSCALE
 40
0.0
  9
$OLESTARTUP
290
     0
  0
ENDSEC
  0
SECTION
  2
CLASSES
  0
CLASS
  1
ACDBDICTIONARYWDFLT
  2
AcDbDictionaryWithDefault
  3
ObjectDBX Classes
 90
        0
280
     0
281
     0
  0
CLASS
  1
VISUALSTYLE
  2
AcDbVisualStyle
  3
ObjectDBX Classes
 90
     4095
280
     0
281
     0
  0
CLASS
  1
MATERIAL
  2
AcDbMaterial
  3
ObjectDBX Classes
 90
     1153
280
     0
281
     0
  0
CLASS
  1
ACDBPLACEHOLDER
  2
AcDbPlaceHolder
  3
ObjectDBX Classes
 90
        0
280
     0
281
     0
  0
CLASS
  1
LAYOUT
  2
AcDbLayout
  3
ObjectDBX Classes
 90
        0
280
     0
281
     0
  0
ENDSEC
  0
SECTION
  2
TABLES
  0
TABLE
  2
VPORT
  5
8
330
0
100
AcDbSymbolTable
 70
     1
  0
VPORT
  5
29
330
8
100
AcDbSymbolTableRecord
100
AcDbViewportTableRecord
  2
*Active
 70
     0
 10
0.0
 20
0.0
 11
1.0
 21
1.0
 12
22.0
 22
17.0
 13
0.0
 23
0.0
 14
0.5
 24
0.5
 15
0.5
 25
0.5
 16
0.0
 26
0.0
 36
1.0
 17
0.0
 27
0.0
 37
0.0
 40
34.0
 41
1.2941176471
 42
50.0
 43
0.0
 44
0.0
 50
0.0
 51
0.0
 71
     0
 72
  2000
 73
     1
 74
     3
 75
     0
 76
     0
 77
     0
 78
     0
281
     0
 65
     1
110
0.0
120
0.0
130
0.0
111
1.0
121
0.0
131
0.0
112
0.0
122
1.0
132
0.0
 79
     0
146
0.0
  0
ENDTAB
  0
TABLE
  2
LTYPE
  5
5
330
0
100
AcDbSymbolTable
 70
     6
  0
LTYPE
  5
14
330
5
100
AcDbSymbolTableRecord
100
AcDbLinetypeTableRecord
  2
ByBlock
 70
     0
  3

 72
    65
 73
     0
 40
0.0
  0
LTYPE
  5
15
330
5
100
AcDbSymbolTableRecord
100
AcDbLinetypeTableRecord
  2
ByLayer
 70
     0
  3

 72
    65
 73
     0
 40
0.0
  0
LTYPE
  5
16
330
5
100
AcDbSymbolTableRecord
100
AcDbLinetypeTableRecord
  2
Continuous
 70
     0
  3
Solid line
 72
    65
 73
     0
 40
0.0
  0
LTYPE
  5
3F
330
5
100
AcDbSymbolTableRecord
100
AcDbLinetypeTableRecord
  2
HIDDEN
 70
     0
  3
Hidden __ __ __ __ __ __ __ __ __ __ __ __ __ __
 72
    65
 73
     2
 40
0.075
 49
0.05
 74
     0
 49
-0.025
 74
     0
  0
LTYPE
  5
40
330
5
100
AcDbSymbolTableRecord
100
AcDbLinetypeTableRecord
  2
PHANTOM
 70
     0
  3
Phantom ______  __  __  ______  __  __  ______
 72
    65
 73
     6
 40
0.5
 49
0.25
 74
     0
 49
-0.05
 74
     0
 49
0.05
 74
     0
 49
-0.05
 74
     0
 49
0.05
 74
     0
 49
-0.05
 74
     0
  0
LTYPE
  5
41
330
5
100
AcDbSymbolTableRecord
100
AcDbLinetypeTableRecord
  2
CENTER
 70
     0
  3
Center ____ _ ____ _ ____ _ ____ _ ____ _ ____
 72
    65
 73
     4
 40
0.4
 49
0.25
 74
     0
 49
-0.05
 74
     0
 49
0.05
 74
     0
 49
-0.05
 74
     0
  0
LTYPE
  5
42
330
5
100
AcDbSymbolTableRecord
100
AcDbLinetypeTableRecord
  2
CENTERX2
 70
     0
  3
Center (2x) ________  __  ________  __  _____
 72
    65
 73
     4
 40
0.8
 49
0.5
 74
     0
 49
-0.1
 74
     0
 49
0.1
 74
     0
 49
-0.1
 74
     0
  0
LTYPE
  5
43
330
5
100
AcDbSymbolTableRecord
100
AcDbLinetypeTableRecord
  2
DOT2
 70
     0
  3
Dot (.5x) ........................................
 72
    65
 73
     2
 40
0.025
 49
0.0
 74
     0
 49
-0.025
 74
     0
  0
ENDTAB
  0
TABLE
  2
LAYER
  5
2
330
0
100
AcDbSymbolTable
 70
     8
  0
LAYER
  5
10
330
2
100
AcDbSymbolTableRecord
100
AcDbLayerTableRecord
  2
0
 70
     0
 62
     7
  6
Continuous
370
    -3
390
F
  0
LAYER
  5
44
330
2
100
AcDbSymbolTableRecord
100
AcDbLayerTableRecord
  2
SLD-0
 70
     0
 62
   179
  6
Continuous
370
    -3
390
F
  0
LAYER
  5
45
330
2
100
AcDbSymbolTableRecord
100
AcDbLayerTableRecord
  2
OBJECTS
 70
     0
 62
     5
  6
Continuous
370
    -3
390
F
  0
LAYER
  5
46
330
2
100
AcDbSymbolTableRecord
100
AcDbLayerTableRecord
  2
DIMS
 70
     0
 62
     1
  6
Continuous
370
    -3
390
F
  0
LAYER
  5
47
330
2
100
AcDbSymbolTableRecord
100
AcDbLayerTableRecord
  2
NOTES
 70
     0
 62
     7
  6
Continuous
370
    -3
390
F
  0
LAYER
  5
48
330
2
100
AcDbSymbolTableRecord
100
AcDbLayerTableRecord
  2
IMAGES
 70
     0
 62
     7
  6
Continuous
370
    -3
390
F
  0
LAYER
  5
49
330
2
100
AcDbSymbolTableRecord
100
AcDbLayerTableRecord
  2
CENTERLINES
 70
     0
 62
     7
  6
HIDDEN
370
    -3
390
F
  0
LAYER
  5
4A
330
2
100
AcDbSymbolTableRecord
100
AcDbLayerTableRecord
  2
BLOCKS
 70
     0
 62
    16
  6
Continuous
370
    -3
390
F
  0
ENDTAB
  0
TABLE
  2
STYLE
  5
3
330
0
100
AcDbSymbolTable
 70
     2
  0
STYLE
  5
11
330
3
100
AcDbSymbolTableRecord
100
AcDbTextStyleTableRecord
  2
Standard
 70
     0
 40
0.0
 41
1.0
 50
0.0
 71
     0
 42
0.2777777778
  3
txt
  4

  0
STYLE
  5
8C
330
3
100
AcDbSymbolTableRecord
100
AcDbTextStyleTableRecord
  2
SLDTEXTSTYLE0
 70
     0
 40
0.0
 41
0.605
 50
0.0
 71
     0
 42
0.2
  3
TXT
  4

  0
ENDTAB
  0
TABLE
  2
VIEW
  5
6
330
0
100
AcDbSymbolTable
 70
     0
  0
ENDTAB
  0
TABLE
  2
UCS
  5
7
330
0
100
AcDbSymbolTable
 70
     0
  0
ENDTAB
  0
TABLE
  2
APPID
  5
9
330
0
100
AcDbSymbolTable
 70
     1
  0
APPID
  5
12
330
9
100
AcDbSymbolTableRecord
100
AcDbRegAppTableRecord
  2
ACAD
 70
     0
  0
ENDTAB
  0
TABLE
  2
DIMSTYLE
  5
A
330
0
100
AcDbSymbolTable
 70
     5
100
AcDbDimStyleTable
  0
DIMSTYLE
105
27
330
A
100
AcDbSymbolTableRecord
100
AcDbDimStyleTableRecord
  2
Standard
 70
     0
178
     0
340
11
  0
DIMSTYLE
105
FA
102
{ACAD_REACTORS
330
F9
330
10C
330
11F
330
132
102
}
330
A
100
AcDbSymbolTableRecord
100
AcDbDimStyleTableRecord
  2
SLDDIMSTYLE0
 70
     0
 41
0.262898763
 44
0.0
 45
0.000000001
 78
    12
 79
     3
140
0.262898763
141
0.0
147
0.0657246908
148
0.000000001
170
     1
171
     0
173
     1
178
     0
271
     3
272
     3
274
     0
276
     2
277
     5
284
    12
340
8C
  0
DIMSTYLE
105
145
102
{ACAD_REACTORS
330
144
330
155
330
169
330
17D
330
191
330
1A1
102
}
330
A
100
AcDbSymbolTableRecord
100
AcDbDimStyleTableRecord
  2
SLDDIMSTYLE1
 70
     0
 41
0.262898763
 44
0.0
 45
0.000000001
 78
    12
 79
     3
140
0.262898763
147
0.0657246908
148
0.000000001
170
     1
171
     0
173
     1
178
     0
271
     3
272
     3
274
     0
276
     2
277
     5
284
    12
340
8C
  0
DIMSTYLE
105
1B6
102
{ACAD_REACTORS
330
1B5
330
1C9
102
}
330
A
100
AcDbSymbolTableRecord
100
AcDbDimStyleTableRecord
  2
SLDDIMSTYLE2
 70
     0
 41
0.262898763
 44
0.0
 45
0.000000001
 78
    12
 79
     3
140
0.262898763
141
0.0
147
0.0657246908
148
0.000000001
170
     1
171
     0
173
     1
178
     0
271
     3
272
     3
274
     0
276
     2
277
     5
279
     1
284
    12
340
8C
  0
DIMSTYLE
105
1E4
330
A
100
AcDbSymbolTableRecord
100
AcDbDimStyleTableRecord
  2
SLDDIMSTYLE3
 70
     0
 41
0.262898763
 44
0.0
 45
0.000000001
140
0.0
146
0.262898763
147
0.0
173
     1
178
     0
271
     0
272
     0
276
     2
277
     5
340
11
  0
ENDTAB
  0
TABLE
  2
BLOCK_RECORD
  5
1
330
0
100
AcDbSymbolTable
 70
    22
  0
BLOCK_RECORD
  5
1F
330
1
100
AcDbSymbolTableRecord
100
AcDbBlockTableRecord
  2
*Model_Space
340
22
  0
BLOCK_RECORD
  5
1B
330
1
100
AcDbSymbolTableRecord
100
AcDbBlockTableRecord
  2
*Paper_Space
340
1E
  0
BLOCK_RECORD
  5
23
330
1
100
AcDbSymbolTableRecord
100
AcDbBlockTableRecord
  2
*Paper_Space0
340
26
  0
BLOCK_RECORD
  5
4B
330
1
100
AcDbSymbolTableRecord
100
AcDbBlockTableRecord
  2
OVERHANG - .125
340
0
102
{BLKREFS
331
F8
102
}
  0
BLOCK_RECORD
  5
7D
330
1
100
AcDbSymbolTableRecord
100
AcDbBlockTableRecord
  2
SW_BLOCK_DIMENSION_0
340
0
102
{BLKREFS
331
93
102
}
  0
BLOCK_RECORD
  5
94
330
1
100
AcDbSymbolTableRecord
100
AcDbBlockTableRecord
  2
REVEAL- .500
340
0
102
{BLKREFS
331
F7
102
}
  0
BLOCK_RECORD
  5
C6
330
1
100
AcDbSymbolTableRecord
100
AcDbBlockTableRecord
  2
SW_BLOCK_DIMENSION_1
340
0
102
{BLKREFS
331
DC
102
}
  0
BLOCK_RECORD
  5
FB
330
1
100
AcDbSymbolTableRecord
100
AcDbBlockTableRecord
  2
_D
340
0
  0
BLOCK_RECORD
  5
10D
330
1
100
AcDbSymbolTableRecord
100
AcDbBlockTableRecord
  2
_D_1
340
0
  0
BLOCK_RECORD
  5
120
330
1
100
AcDbSymbolTableRecord
100
AcDbBlockTableRecord
  2
_D_2
340
0
  0
BLOCK_RECORD
  5
133
330
1
100
AcDbSymbolTableRecord
100
AcDbBlockTableRecord
  2
_D_3
340
0
  0
BLOCK_RECORD
  5
146
330
1
100
AcDbSymbolTableRecord
100
AcDbBlockTableRecord
  2
_D_4
340
0
  0
BLOCK_RECORD
  5
156
330
1
100
AcDbSymbolTableRecord
100
AcDbBlockTableRecord
  2
_D_5
340
0
  0
BLOCK_RECORD
  5
16A
330
1
100
AcDbSymbolTableRecord
100
AcDbBlockTableRecord
  2
_D_6
340
0
  0
BLOCK_RECORD
  5
17E
330
1
100
AcDbSymbolTableRecord
100
AcDbBlockTableRecord
  2
_D_7
340
0
  0
BLOCK_RECORD
  5
192
330
1
100
AcDbSymbolTableRecord
100
AcDbBlockTableRecord
  2
_D_8
340
0
  0
BLOCK_RECORD
  5
1A2
330
1
100
AcDbSymbolTableRecord
100
AcDbBlockTableRecord
  2
_D_9
340
0
  0
BLOCK_RECORD
  5
1B7
330
1
100
AcDbSymbolTableRecord
100
AcDbBlockTableRecord
  2
_D_10
340
0
  0
BLOCK_RECORD
  5
1CA
330
1
100
AcDbSymbolTableRecord
100
AcDbBlockTableRecord
  2
_D_11
340
0
  0
BLOCK_RECORD
  5
1DC
330
1
100
AcDbSymbolTableRecord
100
AcDbBlockTableRecord
  2
SW_NOTE_0
340
0
102
{BLKREFS
331
1E3
102
}
  0
BLOCK_RECORD
  5
1E7
330
1
100
AcDbSymbolTableRecord
100
AcDbBlockTableRecord
  2
SW_NOTE_1
340
0
102
{BLKREFS
331
1EC
102
}
  0
BLOCK_RECORD
  5
1EE
330
1
100
AcDbSymbolTableRecord
100
AcDbBlockTableRecord
  2
SW_NOTE_2
340
0
102
{BLKREFS
331
1F4
102
}
  0
BLOCK_RECORD
  5
1F5
330
1
100
AcDbSymbolTableRecord
100
AcDbBlockTableRecord
  2
SW_NOTE_3
340
0
102
{BLKREFS
331
202
102
}
  0
BLOCK_RECORD
  5
204
330
1
100
AcDbSymbolTableRecord
100
AcDbBlockTableRecord
  2
SW_NOTE_4
340
0
102
{BLKREFS
331
209
102
}
  0
ENDTAB
  0
ENDSEC
  0
SECTION
  2
BLOCKS
  0
BLOCK
  5
20
330
1F
100
AcDbEntity
  8
0
100
AcDbBlockBegin
  2
*Model_Space
 70
     0
 10
0.0
 20
0.0
 30
0.0
  3
*Model_Space
  1

  0
ENDBLK
  5
21
330
1F
100
AcDbEntity
  8
0
100
AcDbBlockEnd
  0
BLOCK
  5
1C
330
1B
100
AcDbEntity
 67
     1
  8
0
100
AcDbBlockBegin
  2
*Paper_Space
 70
     0
 10
0.0
 20
0.0
 30
0.0
  3
*Paper_Space
  1

  0
ENDBLK
  5
1D
330
1B
100
AcDbEntity
 67
     1
  8
0
100
AcDbBlockEnd
  0
BLOCK
  5
24
330
23
100
AcDbEntity
  8
0
100
AcDbBlockBegin
  2
*Paper_Space0
 70
     0
 10
0.0
 20
0.0
 30
0.0
  3
*Paper_Space0
  1

  0
ENDBLK
  5
25
330
23
100
AcDbEntity
  8
0
100
AcDbBlockEnd
  0
BLOCK
  5
4C
330
4B
100
AcDbEntity
  8
0
100
AcDbBlockBegin
  2
OVERHANG - .125
 70
     0
 10
0.0
 20
0.0
 30
0.0
  3
OVERHANG - .125
  1

  0
ARC
  5
4E
330
4B
100
AcDbEntity
  8
0
  6
Continuous
 62
    16
370
     0
100
AcDbCircle
 10
21.0247390722
 20
26.9140495115
 30
0.0
 40
0.0659795528056719
100
AcDbArc
 50
0.0
 51
90.0
  0
ARC
  5
4F
330
4B
100
AcDbEntity
  8
0
  6
Continuous
 62
    16
370
     0
100
AcDbCircle
 10
20.0403577083
 20
26.4212514943
 30
0.0
 40
0.0881257319589152
100
AcDbArc
 50
200.9822712638
 51
339.0177287362
  0
ARC
  5
50
330
4B
100
AcDbEntity
  8
0
  6
Continuous
 62
    16
370
     0
100
AcDbCircle
 10
20.731618625
 20
26.3139893982
 30
0.0
 40
0.1880000000000024
100
AcDbArc
 50
0.0
 51
90.0
  0
ARC
  5
51
330
4B
100
AcDbEntity
  8
0
  6
Continuous
 62
    16
370
     0
100
AcDbCircle
 10
20.731618625
 20
26.3139893982
 30
0.0
 40
0.2341000000000015
100
AcDbArc
 50
0.0
 51
90.0
  0
ARC
  5
52
330
4B
100
AcDbEntity
  8
BLOCKS
100
AcDbCircle
 10
21.3249668066
 20
26.3001927866
 30
0.0
 40
0.3686452378780193
100
AcDbArc
 50
129.4518716023
 51
170.6861521435
  0
LINE
  5
53
330
4B
100
AcDbEntity
  8
0
  6
Continuous
 62
    16
370
     0
100
AcDbLine
 10
19.4314231162
 20
26.5192257655
 30
0.0
 11
19.3788703567
 21
26.5738454846
 31
0.0
  0
LINE
  5
54
330
4B
100
AcDbEntity
  8
0
  6
Continuous
 62
    16
370
     0
100
AcDbLine
 10
20.0408120814
 20
26.8351846327
 30
0.0
 11
20.0797389734
 21
26.7799952517
 31
0.0
  0
LINE
  5
55
330
4B
100
AcDbEntity
  8
0
  6
Continuous
 62
    16
370
     0
100
AcDbLine
 10
19.3788703567
 20
26.5738454846
 30
0.0
 11
19.3364639969
 21
26.5330438976
 31
0.0
  0
LINE
  5
56
330
4B
100
AcDbEntity
  8
0
  6
Continuous
 62
    16
370
     0
100
AcDbLine
 10
20.6725806187
 20
26.4527516548
 30
0.0
 11
20.7252404088
 21
26.5034186543
 31
0.0
  0
LINE
  5
57
330
4B
100
AcDbEntity
  8
0
  6
Continuous
 62
    16
370
     0
100
AcDbLine
 10
20.0797389734
 20
26.7799952517
 30
0.0
 11
20.0797389734
 21
26.3896955151
 31
0.0
  0
LINE
  5
58
330
4B
100
AcDbEntity
  8
0
  6
Continuous
 62
    16
370
     0
100
AcDbLine
 10
19.9814774532
 20
26.8652076206
 30
0.0
 11
19.9814774532
 21
26.5848453834
 31
0.0
  0
LINE
  5
59
330
4B
100
AcDbEntity
  8
0
  6
Continuous
 62
    16
370
     0
100
AcDbLine
 10
20.7678769055
 20
26.4591052159
 30
0.0
 11
20.6989695496
 21
26.392805503
 31
0.0
  0
LINE
  5
5A
330
4B
100
AcDbEntity
  8
0
  6
Continuous
 62
    16
370
     0
100
AcDbLine
 10
21.0247390722
 20
26.9800290643
 30
0.0
 11
19.2446660374
 21
26.9800290643
 31
0.0
  0
LINE
  5
5B
330
4B
100
AcDbEntity
  8
0
  6
Continuous
 62
    16
370
     0
100
AcDbLine
 10
19.9670675999
 20
26.4905376331
 30
0.0
 11
19.9670675999
 21
26.4354028898
 31
0.0
  0
LINE
  5
5C
330
4B
100
AcDbEntity
  8
0
  6
Continuous
 62
    16
370
     0
100
AcDbLine
 10
20.1524880148
 20
26.4213577706
 30
0.0
 11
20.1506182011
 21
26.3892309097
 31
0.0
  0
LINE
  5
5D
330
4B
100
AcDbEntity
  8
0
  6
Continuous
 62
    16
370
     0
100
AcDbLine
 10
19.3364639969
 20
26.5330438976
 30
0.0
 11
19.3985753063
 21
26.4684896798
 31
0.0
  0
LINE
  5
5E
330
4B
100
AcDbEntity
  8
0
  6
Continuous
 62
    16
370
     0
100
AcDbLine
 10
20.2906117643
 20
26.5019893982
 30
0.0
 11
20.2906117643
 21
26.5480893982
 31
0.0
  0
LINE
  5
5F
330
4B
100
AcDbEntity
  8
0
  6
Continuous
 62
    16
370
     0
100
AcDbLine
 10
19.4314231162
 20
26.5192257655
 30
0.0
 11
20.6725806187
 21
26.4527516548
 31
0.0
  0
LINE
  5
60
330
4B
100
AcDbEntity
  8
0
  6
Continuous
 62
    16
370
     0
100
AcDbLine
 10
19.9400720233
 20
26.4337205825
 30
0.0
 11
20.1524880148
 21
26.4213577706
 31
0.0
  0
LINE
  5
61
330
4B
100
AcDbEntity
  8
0
  6
Continuous
 62
    16
370
     0
100
AcDbLine
 10
21.090718625
 20
26.5848453834
 30
0.0
 11
21.090718625
 21
26.9140495115
 31
0.0
  0
LINE
  5
62
330
4B
100
AcDbEntity
  8
0
  6
Continuous
 62
    16
370
     0
100
AcDbLine
 10
20.731618625
 20
26.5019893982
 30
0.0
 11
20.2906117643
 21
26.5019893982
 31
0.0
  0
LINE
  5
63
330
4B
100
AcDbEntity
  8
0
  6
Continuous
 62
    16
370
     0
100
AcDbLine
 10
20.919618625
 20
25.9230893982
 30
0.0
 11
20.919618625
 21
26.3139893982
 31
0.0
  0
LINE
  5
64
330
4B
100
AcDbEntity
  8
0
  6
Continuous
 62
    16
370
     0
100
AcDbLine
 10
19.9580754817
 20
26.3896955151
 30
0.0
 11
20.1226399348
 21
26.3896955151
 31
0.0
  0
LINE
  5
65
330
4B
100
AcDbEntity
  8
0
  6
Continuous
 62
    16
370
     0
100
AcDbLine
 10
20.1506182011
 20
26.3892309097
 30
0.0
 11
19.9382022095
 21
26.4015937216
 31
0.0
  0
LINE
  5
66
330
4B
100
AcDbEntity
  8
0
  6
Continuous
 62
    16
370
     0
100
AcDbLine
 10
20.965718625
 20
25.9230893982
 30
0.0
 11
20.919618625
 21
25.9230893982
 31
0.0
  0
LINE
  5
67
330
4B
100
AcDbEntity
  8
0
  6
Continuous
 62
    16
370
     0
100
AcDbLine
 10
20.965718625
 20
26.3139893982
 30
0.0
 11
20.965718625
 21
25.9230893982
 31
0.0
  0
LINE
  5
68
330
4B
100
AcDbEntity
  8
0
  6
Continuous
 62
    16
370
     0
100
AcDbLine
 10
20.6989695496
 20
26.392805503
 30
0.0
 11
19.3985753063
 21
26.4684896798
 31
0.0
  0
LINE
  5
69
330
4B
100
AcDbEntity
  8
0
  6
Continuous
 62
    16
370
     0
100
AcDbLine
 10
19.2743496911
 20
26.5848453834
 30
0.0
 11
21.090718625
 21
26.5848453834
 31
0.0
  0
LINE
  5
6A
330
4B
100
AcDbEntity
  8
0
  6
Continuous
 62
    16
370
     0
100
AcDbLine
 10
20.0028471016
 20
26.7799952517
 30
0.0
 11
20.0408120814
 21
26.8351846327
 31
0.0
  0
LINE
  5
6B
330
4B
100
AcDbEntity
  8
0
  6
Continuous
 62
    16
370
     0
100
AcDbLine
 10
20.2906117643
 20
26.5480893982
 30
0.0
 11
20.731618625
 21
26.5480893982
 31
0.0
  0
LINE
  5
6C
330
4B
100
AcDbEntity
  8
0
  6
Continuous
 62
    16
370
     0
100
AcDbLine
 10
20.0028471016
 20
26.7799952517
 30
0.0
 11
20.0028471016
 21
26.3896955151
 31
0.0
  0
LINE
  5
6D
330
4B
100
AcDbEntity
  8
0
  6
Continuous
 62
    16
370
     0
100
AcDbLine
 10
20.1080144451
 20
26.8652076206
 30
0.0
 11
19.9814774532
 21
26.8652076206
 31
0.0
  0
LINE
  5
6E
330
4B
100
AcDbEntity
  8
0
  6
Continuous
 62
    16
370
     0
100
AcDbLine
 10
20.7252404088
 20
26.5034186543
 30
0.0
 11
20.7678769055
 21
26.4591052159
 31
0.0
  0
LINE
  5
6F
330
4B
100
AcDbEntity
  8
0
  6
Continuous
 62
    16
370
     0
100
AcDbLine
 10
19.9400720233
 20
26.4337205825
 30
0.0
 11
19.9382022095
 21
26.4015937216
 31
0.0
  0
LINE
  5
70
330
4B
100
AcDbEntity
  8
0
  6
Continuous
 62
    16
370
     0
100
AcDbLine
 10
20.1080144451
 20
26.5848453834
 30
0.0
 11
20.1080144451
 21
26.8652076206
 31
0.0
  0
LINE
  5
71
330
4B
100
AcDbEntity
  8
0
  6
Continuous
 62
    16
370
     0
100
AcDbLine
 10
20.1216872784
 20
26.4822564878
 30
0.0
 11
20.1216872784
 21
26.426403878
 31
0.0
  0
LINE
  5
72
330
4B
100
AcDbEntity
  8
BLOCKS
100
AcDbLine
 10
20.2906117643
 20
26.5480893982
 30
0.0
 11
20.2368944426
 21
26.5848453834
 31
0.0
  0
SPLINE
  5
73
330
4B
100
AcDbEntity
  8
0
  6
Continuous
 62
    16
370
     0
100
AcDbSpline
210
0.0
220
0.0
230
1.0
 70
     8
 71
     3
 72
     9
 73
     5
 74
     0
 42
0.00000001
 43
0.00000001
 12
1.0
 22
0.0
 32
0.0
 13
1.0
 23
0.0
 33
0.0
 40
0.0
 40
0.0
 40
0.0
 40
0.0
 40
0.5928291688347104
 40
1.0
 40
1.0
 40
1.0
 40
1.0
 10
19.27434969107827
 20
26.58484538338648
 30
0.0
 10
19.22977403886498
 20
26.67067982455945
 30
0.0
 10
19.3092570011885
 20
26.78990333849607
 30
0.0
 10
19.29114417973896
 20
26.9441515837284
 30
0.0
 10
19.24466603742839
 20
26.98002906431008
 30
0.0
  0
HATCH
  5
74
330
4B
100
AcDbEntity
  8
BLOCKS
 62
    16
100
AcDbHatch
 10
0.0
 20
0.0
 30
0.0
210
0.0
220
0.0
230
1.0
  2
ANSI36
 70
     0
 71
     0
 91
        1
 92
        0
 93
       10
 72
     4
 94
        3
 73
     1
 74
     0
 95
        9
 96
        5
 40
0.0
 40
0.0
 40
0.0
 40
0.0
 40
0.4071708311652896
 40
1.0
 40
1.0
 40
1.0
 40
1.0
 10
19.24466603742839
 20
26.98002906431008
 42
1.0
 10
19.29114417973896
 20
26.9441515837284
 42
1.0
 10
19.3092570011885
 20
26.78990333849607
 42
1.0
 10
19.22977403886498
 20
26.67067982455945
 42
1.0
 10
19.27434969107827
 20
26.58484538338648
 42
1.0
 72
     1
 10
19.27434969107827
 20
26.58484538338648
 11
19.98147745321076
 21
26.58484538338648
 72
     1
 10
19.98147745321076
 20
26.58484538338648
 11
19.98147745321076
 21
26.86520762058046
 72
     1
 10
19.98147745321076
 20
26.86520762058046
 11
20.10801444514525
 21
26.86520762058046
 72
     1
 10
20.10801444514525
 20
26.86520762058046
 11
20.10801444514525
 21
26.58484538338648
 72
     1
 10
20.10801444514525
 20
26.58484538338648
 11
20.23689444261453
 21
26.58484538338649
 72
     1
 10
20.23689444261453
 20
26.58484538338649
 11
21.0907186249667
 21
26.58484538338648
 72
     1
 10
21.0907186249667
 20
26.58484538338648
 11
21.0907186249667
 21
26.9140495115044
 72
     2
 10
21.02473907216103
 20
26.9140495115044
 40
0.0659795528056717
 50
0.0
 51
90.0
 73
     1
 72
     1
 10
21.02473907216103
 20
26.98002906431007
 11
19.24466603742839
 21
26.98002906431008
 97
        0
 75
     0
 76
     1
 52
0.0
 41
0.5
 77
     0
 78
     1
 53
45.0
 43
0.0
 44
0.0
 45
0.0331456303681194
 46
0.1215339780164378
 79
     4
 49
0.15625
 49
-0.03125
 49
0.0
 49
-0.03125
 98
        1
 10
0.0
 20
0.0
  0
HATCH
  5
75
330
4B
100
AcDbEntity
  8
BLOCKS
 62
    16
100
AcDbHatch
 10
0.0
 20
0.0
 30
0.0
210
0.0
220
0.0
230
1.0
  2
ANSI32
 70
     0
 71
     0
 91
        1
 92
        0
 93
        4
 72
     1
 10
20.07973897339712
 20
26.58484538338648
 11
20.00284710159458
 21
26.58484538338648
 72
     1
 10
20.00284710159458
 20
26.58484538338648
 11
20.00284710159458
 21
26.48862134888004
 72
     1
 10
20.00284710159458
 20
26.48862134888004
 11
20.07973897339712
 21
26.4845031617958
 72
     1
 10
20.07973897339712
 20
26.4845031617958
 11
20.07973897339712
 21
26.58484538338648
 97
        0
 75
     0
 76
     1
 52
0.0
 41
0.2
 77
     0
 78
     2
 53
45.0
 43
0.0
 44
0.0
 45
-0.0530330085889911
 46
0.0530330085889911
 79
     0
 53
45.0
 43
0.035355339
 44
0.0
 45
-0.0530330085889911
 46
0.0530330085889911
 79
     0
 98
        1
 10
0.0
 20
0.0
  0
HATCH
  5
76
330
4B
100
AcDbEntity
  8
BLOCKS
 62
    16
100
AcDbHatch
 10
0.0
 20
0.0
 30
0.0
210
0.0
220
0.0
230
1.0
  2
ANSI32
 70
     0
 71
     0
 91
        1
 92
        0
 93
        5
 72
     1
 10
20.04081208140756
 20
26.8351846326727
 11
20.00284710159458
 21
26.77999525166031
 72
     1
 10
20.00284710159458
 20
26.77999525166031
 11
20.00284710159458
 21
26.58484538338648
 72
     1
 10
20.00284710159458
 20
26.58484538338648
 11
20.07973897339712
 21
26.58484538338648
 72
     1
 10
20.07973897339712
 20
26.58484538338648
 11
20.07973897339712
 21
26.77999525166031
 72
     1
 10
20.07973897339712
 20
26.77999525166031
 11
20.04081208140756
 21
26.8351846326727
 97
        0
 75
     0
 76
     1
 52
0.0
 41
0.2
 77
     0
 78
     2
 53
45.0
 43
0.0
 44
0.0
 45
-0.0530330085889911
 46
0.0530330085889911
 79
     0
 53
45.0
 43
0.035355339
 44
0.0
 45
-0.0530330085889911
 46
0.0530330085889911
 79
     0
 98
        1
 10
0.0
 20
0.0
  0
HATCH
  5
77
330
4B
100
AcDbEntity
  8
BLOCKS
 62
    16
100
AcDbHatch
 10
0.0
 20
0.0
 30
0.0
210
0.0
220
0.0
230
1.0
  2
ANSI32
 70
     0
 71
     0
 91
        1
 92
        0
 93
        4
 72
     1
 10
20.07973897339712
 20
26.4845031617958
 11
20.00284710159458
 21
26.48862134888004
 72
     1
 10
20.00284710159458
 20
26.48862134888004
 11
20.00284710159458
 21
26.43332048887584
 72
     1
 10
20.00284710159458
 20
26.43332048887584
 11
20.07973897339712
 21
26.42884530909641
 72
     1
 10
20.07973897339712
 20
26.42884530909641
 11
20.07973897339712
 21
26.4845031617958
 97
        0
 75
     0
 76
     1
 52
0.0
 41
0.2
 77
     0
 78
     2
 53
45.0
 43
0.0
 44
0.0
 45
-0.0530330085889911
 46
0.0530330085889911
 79
     0
 53
45.0
 43
0.035355339
 44
0.0
 45
-0.0530330085889911
 46
0.0530330085889911
 79
     0
 98
        1
 10
0.0
 20
0.0
  0
HATCH
  5
78
330
4B
100
AcDbEntity
  8
BLOCKS
 62
    16
100
AcDbHatch
 10
0.0
 20
0.0
 30
0.0
210
0.0
220
0.0
230
1.0
  2
ANSI32
 70
     0
 71
     0
 91
        1
 92
        0
 93
        4
 72
     1
 10
20.00284710159458
 20
26.43006701346352
 11
19.94007202325873
 21
26.43372058249019
 72
     1
 10
19.94007202325873
 20
26.43372058249019
 11
19.93820220952023
 21
26.40159372159039
 72
     1
 10
19.93820220952023
 20
26.40159372159039
 11
20.00284710159458
 21
26.39783132763285
 72
     1
 10
20.00284710159458
 20
26.39783132763285
 11
20.00284710159458
 21
26.43006701346352
 97
        0
 75
     0
 76
     1
 52
0.0
 41
0.2
 77
     0
 78
     2
 53
45.0
 43
0.0
 44
0.0
 45
-0.0530330085889911
 46
0.0530330085889911
 79
     0
 53
45.0
 43
0.035355339
 44
0.0
 45
-0.0530330085889911
 46
0.0530330085889911
 79
     0
 98
        1
 10
0.0
 20
0.0
  0
HATCH
  5
79
330
4B
100
AcDbEntity
  8
BLOCKS
 62
    16
100
AcDbHatch
 10
0.0
 20
0.0
 30
0.0
210
0.0
220
0.0
230
1.0
  2
ANSI32
 70
     0
 71
     0
 91
        1
 92
        0
 93
        4
 72
     1
 10
20.07973897339712
 20
26.42559183368408
 11
20.00284710159458
 21
26.43006701346352
 72
     1
 10
20.00284710159458
 20
26.43006701346352
 11
20.00284710159458
 21
26.39783132763285
 72
     1
 10
20.00284710159458
 20
26.39783132763285
 11
20.07973897339712
 21
26.39335614785342
 72
     1
 10
20.07973897339712
 20
26.39335614785342
 11
20.07973897339712
 21
26.42559183368408
 97
        0
 75
     0
 76
     1
 52
0.0
 41
0.2
 77
     0
 78
     2
 53
45.0
 43
0.0
 44
0.0
 45
-0.0530330085889911
 46
0.0530330085889911
 79
     0
 53
45.0
 43
0.035355339
 44
0.0
 45
-0.0530330085889911
 46
0.0530330085889911
 79
     0
 98
        1
 10
0.0
 20
0.0
  0
HATCH
  5
7A
330
4B
100
AcDbEntity
  8
BLOCKS
 62
    16
100
AcDbHatch
 10
0.0
 20
0.0
 30
0.0
210
0.0
220
0.0
230
1.0
  2
ANSI32
 70
     0
 71
     0
 91
        1
 92
        0
 93
        4
 72
     1
 10
20.07973897339712
 20
26.39335614785342
 11
20.15061820105523
 21
26.38923090965904
 72
     1
 10
20.15061820105523
 20
26.38923090965904
 11
20.15248801479373
 21
26.42135777055884
 72
     1
 10
20.15248801479373
 20
26.42135777055884
 11
20.07973897339712
 21
26.42559183368408
 72
     1
 10
20.07973897339712
 20
26.42559183368408
 11
20.07973897339712
 21
26.39335614785342
 97
        0
 75
     0
 76
     1
 52
0.0
 41
0.2
 77
     0
 78
     2
 53
45.0
 43
0.0
 44
0.0
 45
-0.0530330085889911
 46
0.0530330085889911
 79
     0
 53
45.0
 43
0.035355339
 44
0.0
 45
-0.0530330085889911
 46
0.0530330085889911
 79
     0
 98
        1
 10
0.0
 20
0.0
  0
HATCH
  5
7B
330
4B
100
AcDbEntity
  8
BLOCKS
 62
    16
100
AcDbHatch
 10
0.0
 20
0.0
 30
0.0
210
0.0
220
0.0
230
1.0
  2
ANSI32
 70
     0
 71
     0
 91
        1
 92
        0
 93
        4
 72
     1
 10
20.00284710159458
 20
26.38969551511265
 11
19.95807548170848
 21
26.38969551511265
 72
     2
 10
20.04035770827806
 20
26.42125149432493
 40
0.0881257319589163
 50
200.9822712637957
 51
339.0177287362059
 73
     1
 72
     1
 10
20.12263993484765
 20
26.38969551511265
 11
20.07973897339712
 21
26.38969551511265
 72
     1
 10
20.07973897339712
 20
26.38969551511265
 11
20.00284710159458
 21
26.38969551511265
 97
        0
 75
     0
 76
     1
 52
0.0
 41
0.2
 77
     0
 78
     2
 53
45.0
 43
0.0
 44
0.0
 45
-0.0530330085889911
 46
0.0530330085889911
 79
     0
 53
45.0
 43
0.035355339
 44
0.0
 45
-0.0530330085889911
 46
0.0530330085889911
 79
     0
 98
        1
 10
0.0
 20
0.0
  0
HATCH
  5
7C
330
4B
100
AcDbEntity
  8
BLOCKS
100
AcDbHatch
 10
0.0
 20
0.0
 30
0.0
210
0.0
220
0.0
230
1.0
  2
SOLID
 70
     1
 71
     0
 91
        1
 92
        0
 93
        5
 72
     2
 10
21.32496680656287
 20
26.30019278664964
 40
0.3686452378780171
 50
189.3138478564999
 51
230.5481283977412
 73
     0
 72
     1
 10
21.0907186249667
 20
26.58484538338648
 11
20.23689444261453
 21
26.58484538338649
 72
     1
 10
20.23689444261453
 20
26.58484538338649
 11
20.29061176430621
 21
26.54808939823214
 72
     1
 10
20.29061176430621
 20
26.54808939823214
 11
20.7316186249667
 21
26.54808939823214
 72
     2
 10
20.7316186249667
 20
26.31398939823214
 40
0.2341000000000018
 50
270.0000000000008
 51
348.7012977589557
 73
     0
 97
        0
 75
     0
 76
     1
 98
        1
 10
0.0
 20
0.0
  0
INSERT
  5
93
330
4B
100
AcDbEntity
  8
BLOCKS
100
AcDbBlockReference
  2
SW_BLOCK_DIMENSION_0
 10
20.2493307446
 20
26.145611376
 30
0.0
  0
ENDBLK
  5
4D
330
4B
100
AcDbEntity
  8
0
100
AcDbBlockEnd
  0
BLOCK
  5
7E
330
7D
100
AcDbEntity
  8
0
100
AcDbBlockBegin
  2
SW_BLOCK_DIMENSION_0
 70
     0
 10
0.0
 20
0.0
 30
0.0
  3
SW_BLOCK_DIMENSION_0
  1

  0
SOLID
  5
80
330
7D
100
AcDbEntity
  8
BLOCKS
 62
     0
100
AcDbTrace
 10
0.7163878804
 20
-0.0313006311
 30
0.0
 11
0.6152729715
 21
-0.0157444913
 31
0.0
 12
0.6152729715
 22
-0.0468567709
 32
0.0
 13
0.6152729715
 23
-0.0468567709
 33
0.0
  0
SOLID
  5
81
330
7D
100
AcDbEntity
  8
BLOCKS
 62
     0
100
AcDbTrace
 10
0.8413878804
 20
-0.0313006311
 30
0.0
 11
0.9425027892
 21
-0.0468567709
 31
0.0
 12
0.9425027892
 22
-0.0157444913
 32
0.0
 13
0.9425027892
 23
-0.0157444913
 33
0.0
  0
LINE
  5
82
330
7D
100
AcDbEntity
  8
BLOCKS
 62
     0
100
AcDbLine
 10
0.1187307217
 20
0.0798201425
 30
0.0
 11
0.2254051061
 21
0.0798201425
 31
0.0
  0
LINE
  5
83
330
7D
100
AcDbEntity
  8
BLOCKS
 62
     0
100
AcDbLine
 10
0.079089508
 20
-0.0940224566
 30
0.0
 11
0.0559413594
 21
-0.0940224566
 31
0.0
  0
LINE
  5
84
330
7D
100
AcDbEntity
  8
BLOCKS
 62
     0
100
AcDbLine
 10
0.0559413594
 20
-0.0940224566
 30
0.0
 11
0.0559413594
 21
-0.249307956
 31
0.0
  0
LINE
  5
85
330
7D
100
AcDbEntity
  8
BLOCKS
 62
     0
100
AcDbLine
 10
0.0559413594
 20
-0.249307956
 30
0.0
 11
0.079089508
 21
-0.249307956
 31
0.0
  0
LINE
  5
86
330
7D
100
AcDbEntity
  8
BLOCKS
 62
     0
100
AcDbLine
 10
0.4070216247
 20
-0.0940224566
 30
0.0
 11
0.4301697734
 21
-0.0940224566
 31
0.0
  0
LINE
  5
87
330
7D
100
AcDbEntity
  8
BLOCKS
 62
     0
100
AcDbLine
 10
0.4301697734
 20
-0.0940224566
 30
0.0
 11
0.4301697734
 21
-0.249307956
 31
0.0
  0
LINE
  5
88
330
7D
100
AcDbEntity
  8
BLOCKS
 62
     0
100
AcDbLine
 10
0.4301697734
 20
-0.249307956
 30
0.0
 11
0.4070216247
 21
-0.249307956
 31
0.0
  0
LINE
  5
89
330
7D
100
AcDbEntity
  8
BLOCKS
 62
     0
100
AcDbLine
 10
0.8413878804
 20
0.3892340074
 30
0.0
 11
0.8413878804
 21
-0.1563006311
 31
0.0
  0
LINE
  5
8A
330
7D
100
AcDbEntity
  8
BLOCKS
 62
     0
100
AcDbLine
 10
0.7163878804
 20
-0.0313006311
 30
0.0
 11
0.4868063401
 21
-0.0313006311
 31
0.0
  0
LINE
  5
8B
330
7D
100
AcDbEntity
  8
BLOCKS
 62
     0
100
AcDbLine
 10
0.8413878804
 20
-0.0313006311
 30
0.0
 11
1.0358396282
 21
-0.0313006311
 31
0.0
  0
MTEXT
  5
8D
330
7D
100
AcDbEntity
  8
BLOCKS
 62
     0
100
AcDbMText
 10
0.0390625
 20
0.1342778896
 30
0.0039370079
 40
0.1041666667
 41
0.0
 71
     1
 72
     1
  1

  7
SLDTEXTSTYLE0
 73
     1
 44
1.0
  0
MTEXT
  5
8E
330
7D
100
AcDbEntity
  8
BLOCKS
 62
     0
100
AcDbMText
 10
0.1334876654
 20
0.2052438631
 30
0.0039370079
 40
0.1041666667
 41
0.0
 71
     1
 72
     1
  1
1
  7
SLDTEXTSTYLE0
 73
     1
 44
1.0
  0
MTEXT
  5
8F
330
7D
100
AcDbEntity
  8
BLOCKS
 62
     0
100
AcDbMText
 10
0.1334876654
 20
0.0634035871
 30
0.0039370079
 40
0.1041666667
 41
0.0
 71
     1
 72
     1
  1
8
  7
SLDTEXTSTYLE0
 73
     1
 44
1.0
  0
MTEXT
  5
90
330
7D
100
AcDbEntity
  8
BLOCKS
 62
     0
100
AcDbMText
 10
0.2401620498
 20
0.1342778896
 30
0.0039370079
 40
0.1041666667
 41
0.0
 71
     1
 72
     1
  1
"
  7
SLDTEXTSTYLE0
 73
     1
 44
1.0
  0
MTEXT
  5
91
330
7D
100
AcDbEntity
  8
BLOCKS
 62
     0
100
AcDbMText
 10
0.1080246921
 20
-0.1150300596
 30
0.0039370079
 40
0.1041666667
 41
0.0
 71
     1
 72
     1
  1
3.18
  7
SLDTEXTSTYLE0
 73
     1
 44
1.0
  0
MTEXT
  5
92
330
7D
100
AcDbEntity
  8
BLOCKS
 62
     0
100
AcDbMText
 10
0.4865933934
 20
0.1342778896
 30
0.0039370079
 40
0.1041666667
 41
0.0
 71
     1
 72
     1
  1

  7
SLDTEXTSTYLE0
 73
     1
 44
1.0
  0
ENDBLK
  5
7F
330
7D
100
AcDbEntity
  8
0
100
AcDbBlockEnd
  0
BLOCK
  5
95
330
94
100
AcDbEntity
  8
0
100
AcDbBlockBegin
  2
REVEAL- .500
 70
     0
 10
0.0
 20
0.0
 30
0.0
  3
REVEAL- .500
  1

  0
ARC
  5
97
330
94
100
AcDbEntity
  8
BLOCKS
100
AcDbCircle
 10
20.1601934329
 20
28.8878838846
 30
0.0
 40
0.2338576391325233
100
AcDbArc
 50
0.0
 51
90.0
  0
ARC
  5
98
330
94
100
AcDbEntity
  8
BLOCKS
100
AcDbCircle
 10
19.8280715192
 20
29.4726468145
 30
0.0
 40
0.0659795528056719
100
AcDbArc
 50
0.0
 51
90.0
  0
ARC
  5
99
330
94
100
AcDbEntity
  8
BLOCKS
100
AcDbCircle
 10
19.0470381676
 20
28.990848696
 30
0.0
 40
0.0881257319589152
100
AcDbArc
 50
200.9822712638
 51
339.0177287362
  0
ARC
  5
9A
330
94
100
AcDbEntity
  8
BLOCKS
100
AcDbCircle
 10
20.1601934329
 20
28.8878838846
 30
0.0
 40
0.1878262552218324
100
AcDbArc
 50
0.0
 51
90.0
  0
LINE
  5
9B
330
94
100
AcDbEntity
  8
BLOCKS
100
AcDbLine
 10
19.8280715192
 20
29.5386263673
 30
0.0
 11
18.2509355515
 21
29.5386263673
 31
0.0
  0
LINE
  5
9C
330
94
100
AcDbEntity
  8
BLOCKS
100
AcDbLine
 10
18.2806192052
 20
29.1434426864
 30
0.0
 11
19.894051072
 21
29.1434426864
 31
0.0
  0
LINE
  5
9D
330
94
100
AcDbEntity
  8
BLOCKS
100
AcDbLine
 10
19.3470309437
 20
29.1217415238
 30
0.0
 11
20.1601934329
 21
29.1217415238
 31
0.0
  0
LINE
  5
9E
330
94
100
AcDbEntity
  8
BLOCKS
100
AcDbLine
 10
20.394051072
 20
28.8878838846
 30
0.0
 11
20.394051072
 21
28.4971795949
 31
0.0
  0
LINE
  5
9F
330
94
100
AcDbEntity
  8
BLOCKS
100
AcDbLine
 10
20.394051072
 20
28.4971795949
 30
0.0
 11
20.3480196881
 21
28.4971795949
 31
0.0
  0
LINE
  5
A0
330
94
100
AcDbEntity
  8
BLOCKS
100
AcDbLine
 10
20.3480196881
 20
28.4971795949
 30
0.0
 11
20.3480196881
 21
28.8878838846
 31
0.0
  0
LINE
  5
A1
330
94
100
AcDbEntity
  8
BLOCKS
100
AcDbLine
 10
20.1601934329
 20
29.0757101398
 30
0.0
 11
19.3470309437
 21
29.0757101398
 31
0.0
  0
LINE
  5
A2
330
94
100
AcDbEntity
  8
BLOCKS
100
AcDbLine
 10
19.3470309437
 20
29.0757101398
 30
0.0
 11
19.3470309437
 21
29.1217415238
 31
0.0
  0
LINE
  5
A3
330
94
100
AcDbEntity
  8
BLOCKS
100
AcDbLine
 10
19.679261078
 20
29.0223488565
 30
0.0
 11
19.7319208682
 21
29.073015856
 31
0.0
  0
LINE
  5
A4
330
94
100
AcDbEntity
  8
BLOCKS
100
AcDbLine
 10
19.7319208682
 20
29.073015856
 30
0.0
 11
19.7745573648
 21
29.0287024176
 31
0.0
  0
LINE
  5
A5
330
94
100
AcDbEntity
  8
BLOCKS
100
AcDbLine
 10
19.7745573648
 20
29.0287024176
 30
0.0
 11
19.705650009
 21
28.9624027047
 31
0.0
  0
LINE
  5
A6
330
94
100
AcDbEntity
  8
BLOCKS
100
AcDbLine
 10
18.4381035755
 20
29.0888229672
 30
0.0
 11
18.385550816
 21
29.1434426864
 31
0.0
  0
LINE
  5
A7
330
94
100
AcDbEntity
  8
BLOCKS
100
AcDbLine
 10
18.385550816
 20
29.1434426864
 30
0.0
 11
18.3431444562
 21
29.1026410993
 31
0.0
  0
LINE
  5
A8
330
94
100
AcDbEntity
  8
BLOCKS
100
AcDbLine
 10
18.3431444562
 20
29.1026410993
 30
0.0
 11
18.4052557657
 21
29.0380868815
 31
0.0
  0
LINE
  5
A9
330
94
100
AcDbEntity
  8
BLOCKS
100
AcDbLine
 10
18.4381035755
 20
29.0888229672
 30
0.0
 11
19.679261078
 21
29.0223488565
 31
0.0
  0
LINE
  5
AA
330
94
100
AcDbEntity
  8
BLOCKS
100
AcDbLine
 10
19.705650009
 20
28.9624027047
 30
0.0
 11
18.4052557657
 21
29.0380868815
 31
0.0
  0
LINE
  5
AB
330
94
100
AcDbEntity
  8
BLOCKS
100
AcDbLine
 10
19.1283677378
 20
29.0518536895
 30
0.0
 11
19.1283677378
 21
28.9960010797
 31
0.0
  0
LINE
  5
AC
330
94
100
AcDbEntity
  8
BLOCKS
100
AcDbLine
 10
18.9737480593
 20
29.0601348348
 30
0.0
 11
18.9737480593
 21
29.0050000915
 31
0.0
  0
LINE
  5
AD
330
94
100
AcDbEntity
  8
BLOCKS
100
AcDbLine
 10
18.964755941
 20
28.9592927168
 30
0.0
 11
19.1293203942
 21
28.9592927168
 31
0.0
  0
LINE
  5
AE
330
94
100
AcDbEntity
  8
BLOCKS
100
AcDbLine
 10
19.0095275609
 20
29.3495924534
 30
0.0
 11
19.0095275609
 21
28.9592927168
 31
0.0
  0
LINE
  5
AF
330
94
100
AcDbEntity
  8
BLOCKS
100
AcDbLine
 10
19.0864194327
 20
29.3495924534
 30
0.0
 11
19.0864194327
 21
28.9592927168
 31
0.0
  0
LINE
  5
B0
330
94
100
AcDbEntity
  8
BLOCKS
100
AcDbLine
 10
18.9467524826
 20
29.0033177842
 30
0.0
 11
19.1591684741
 21
28.9909549723
 31
0.0
  0
LINE
  5
B1
330
94
100
AcDbEntity
  8
BLOCKS
100
AcDbLine
 10
19.0095275609
 20
29.3495924534
 30
0.0
 11
19.0474925407
 21
29.4047818344
 31
0.0
  0
LINE
  5
B2
330
94
100
AcDbEntity
  8
BLOCKS
100
AcDbLine
 10
19.0474925407
 20
29.4047818344
 30
0.0
 11
19.0864194327
 21
29.3495924534
 31
0.0
  0
LINE
  5
B3
330
94
100
AcDbEntity
  8
BLOCKS
100
AcDbLine
 10
19.1572986604
 20
28.9588281114
 30
0.0
 11
18.9448826689
 21
28.9711909233
 31
0.0
  0
LINE
  5
B4
330
94
100
AcDbEntity
  8
BLOCKS
100
AcDbLine
 10
19.1591684741
 20
28.9909549723
 30
0.0
 11
19.1572986604
 21
28.9588281114
 31
0.0
  0
LINE
  5
B5
330
94
100
AcDbEntity
  8
BLOCKS
100
AcDbLine
 10
18.9467524826
 20
29.0033177842
 30
0.0
 11
18.9448826689
 21
28.9711909233
 31
0.0
  0
LINE
  5
B6
330
94
100
AcDbEntity
  8
BLOCKS
100
AcDbLine
 10
19.1142839592
 20
29.1434426864
 30
0.0
 11
19.1142839592
 21
29.4238049236
 31
0.0
  0
LINE
  5
B7
330
94
100
AcDbEntity
  8
BLOCKS
100
AcDbLine
 10
19.1142839592
 20
29.4238049236
 30
0.0
 11
18.9877469673
 21
29.4238049236
 31
0.0
  0
LINE
  5
B8
330
94
100
AcDbEntity
  8
BLOCKS
100
AcDbLine
 10
18.9877469673
 20
29.4238049236
 30
0.0
 11
18.9877469673
 21
29.1434426864
 31
0.0
  0
LINE
  5
B9
330
94
100
AcDbEntity
  8
BLOCKS
  6
Continuous
100
AcDbLine
 10
19.894051072
 20
29.1434426864
 30
0.0
 11
19.894051072
 21
29.4726468145
 31
0.0
  0
LINE
  5
BA
330
94
100
AcDbEntity
  8
BLOCKS
100
AcDbLine
 10
19.3020232313
 20
29.1434426864
 30
0.0
 11
19.3470309437
 21
29.0987258318
 31
0.0
  0
LINE
  5
BB
330
94
100
AcDbEntity
  8
BLOCKS
100
AcDbLine
 10
19.894051072
 20
29.1434426864
 30
0.0
 11
19.9068063572
 21
29.1217415238
 31
0.0
  0
SPLINE
  5
BC
330
94
100
AcDbEntity
  8
BLOCKS
100
AcDbSpline
210
0.0
220
0.0
230
1.0
 70
     8
 71
     3
 72
     9
 73
     5
 74
     0
 42
0.00000001
 43
0.00000001
 12
1.0
 22
0.0
 32
0.0
 13
1.0
 23
0.0
 33
0.0
 40
0.0
 40
0.0
 40
0.0
 40
0.0
 40
0.5928291688347104
 40
1.0
 40
1.0
 40
1.0
 40
1.0
 10
18.28061920517429
 20
29.14344268635683
 30
0.0
 10
18.23604355296101
 20
29.22927712752978
 30
0.0
 10
18.31552651528452
 20
29.34850064146643
 30
0.0
 10
18.29741369383499
 20
29.50274888669875
 30
0.0
 10
18.25093555152442
 20
29.53862636728042
 30
0.0
  0
HATCH
  5
BD
330
94
100
AcDbEntity
  8
BLOCKS
 62
    16
100
AcDbHatch
 10
0.0
 20
0.0
 30
0.0
210
0.0
220
0.0
230
1.0
  2
ANSI36
 70
     0
 71
     0
 91
        1
 92
        0
 93
       10
 72
     4
 94
        3
 73
     1
 74
     0
 95
        9
 96
        5
 40
0.0
 40
0.0
 40
0.0
 40
0.0
 40
0.4071708311652896
 40
1.0
 40
1.0
 40
1.0
 40
1.0
 10
18.25093555152442
 20
29.53862636728042
 42
1.0
 10
18.29741369383499
 20
29.50274888669875
 42
1.0
 10
18.31552651528452
 20
29.34850064146643
 42
1.0
 10
18.23604355296101
 20
29.22927712752978
 42
1.0
 10
18.28061920517429
 20
29.14344268635683
 42
1.0
 72
     1
 10
18.28061920517429
 20
29.14344268635683
 11
18.98774696730679
 21
29.14344268635683
 72
     1
 10
18.98774696730679
 20
29.14344268635683
 11
18.98774696730679
 21
29.42380492355081
 72
     1
 10
18.98774696730679
 20
29.42380492355081
 11
19.11428395924128
 21
29.42380492355081
 72
     1
 10
19.11428395924128
 20
29.42380492355081
 11
19.11428395924128
 21
29.14344268635683
 72
     1
 10
19.11428395924128
 20
29.14344268635683
 11
19.30202323130653
 21
29.14344268635683
 72
     1
 10
19.30202323130653
 20
29.14344268635683
 11
19.89405107202551
 21
29.14344268635683
 72
     1
 10
19.89405107202551
 20
29.14344268635683
 11
19.89405107202551
 21
29.47264681447475
 72
     2
 10
19.82807151921984
 20
29.47264681447475
 40
0.0659795528056717
 50
0.0
 51
90.0
 73
     1
 72
     1
 10
19.82807151921984
 20
29.53862636728042
 11
18.25093555152442
 21
29.53862636728042
 97
        0
 75
     0
 76
     1
 52
0.0
 41
0.5
 77
     0
 78
     1
 53
45.0
 43
0.0
 44
0.0
 45
0.0331456303681194
 46
0.1215339780164378
 79
     4
 49
0.15625
 49
-0.03125
 49
0.0
 49
-0.03125
 98
        1
 10
0.0
 20
0.0
  0
HATCH
  5
BE
330
94
100
AcDbEntity
  8
BLOCKS
 62
    16
100
AcDbHatch
 10
0.0
 20
0.0
 30
0.0
210
0.0
220
0.0
230
1.0
  2
ANSI32
 70
     0
 71
     0
 91
        1
 92
        0
 93
        5
 72
     1
 10
19.08641943273533
 20
29.34959245337754
 11
19.04749254074577
 21
29.40478183438993
 72
     1
 10
19.04749254074577
 20
29.40478183438993
 11
19.00952756093279
 21
29.34959245337754
 72
     1
 10
19.00952756093279
 20
29.34959245337754
 11
19.00952756093279
 21
29.14344268635683
 72
     1
 10
19.00952756093279
 20
29.14344268635683
 11
19.08641943273533
 21
29.14344268635683
 72
     1
 10
19.08641943273533
 20
29.14344268635683
 11
19.08641943273533
 21
29.34959245337754
 97
        0
 75
     0
 76
     1
 52
0.0
 41
0.1666666667
 77
     0
 78
     2
 53
45.0
 43
0.0
 44
0.0
 45
-0.0441941738241592
 46
0.0441941738241592
 79
     0
 53
45.0
 43
0.0294627825
 44
0.0
 45
-0.0441941738241592
 46
0.0441941738241592
 79
     0
 98
        1
 10
0.0
 20
0.0
  0
HATCH
  5
BF
330
94
100
AcDbEntity
  8
BLOCKS
 62
    16
100
AcDbHatch
 10
0.0
 20
0.0
 30
0.0
210
0.0
220
0.0
230
1.0
  2
ANSI32
 70
     0
 71
     0
 91
        1
 92
        0
 93
        4
 72
     1
 10
19.08641943273533
 20
29.05410036351303
 11
19.08641943273533
 21
29.14344268635683
 72
     1
 10
19.08641943273533
 20
29.14344268635683
 11
19.00952756093279
 21
29.14344268635683
 72
     1
 10
19.00952756093279
 20
29.14344268635683
 11
19.00952756093279
 21
29.05821855059726
 72
     1
 10
19.00952756093279
 20
29.05821855059726
 11
19.08641943273533
 21
29.05410036351303
 97
        0
 75
     0
 76
     1
 52
0.0
 41
0.1666666667
 77
     0
 78
     2
 53
45.0
 43
0.0
 44
0.0
 45
-0.0441941738241592
 46
0.0441941738241592
 79
     0
 53
45.0
 43
0.0294627825
 44
0.0
 45
-0.0441941738241592
 46
0.0441941738241592
 79
     0
 98
        1
 10
0.0
 20
0.0
  0
HATCH
  5
C0
330
94
100
AcDbEntity
  8
BLOCKS
 62
    16
100
AcDbHatch
 10
0.0
 20
0.0
 30
0.0
210
0.0
220
0.0
230
1.0
  2
ANSI32
 70
     0
 71
     0
 91
        1
 92
        0
 93
        4
 72
     1
 10
19.08641943273533
 20
28.99844251081363
 11
19.08641943273533
 21
29.05410036351303
 72
     1
 10
19.08641943273533
 20
29.05410036351303
 11
19.00952756093279
 21
29.05821855059726
 72
     1
 10
19.00952756093279
 20
29.05821855059726
 11
19.00952756093279
 21
29.00291769059305
 72
     1
 10
19.00952756093279
 20
29.00291769059305
 11
19.08641943273533
 21
28.99844251081363
 97
        0
 75
     0
 76
     1
 52
0.0
 41
0.1666666667
 77
     0
 78
     2
 53
45.0
 43
0.0
 44
0.0
 45
-0.0441941738241592
 46
0.0441941738241592
 79
     0
 53
45.0
 43
0.0294627825
 44
0.0
 45
-0.0441941738241592
 46
0.0441941738241592
 79
     0
 98
        1
 10
0.0
 20
0.0
  0
HATCH
  5
C1
330
94
100
AcDbEntity
  8
BLOCKS
 62
    16
100
AcDbHatch
 10
0.0
 20
0.0
 30
0.0
210
0.0
220
0.0
230
1.0
  2
ANSI32
 70
     0
 71
     0
 91
        1
 92
        0
 93
        4
 72
     1
 10
19.00952756093279
 20
28.96742852935006
 11
19.08641943273534
 21
28.96295334957064
 72
     1
 10
19.08641943273534
 20
28.96295334957064
 11
19.08641943273534
 21
28.99518903540131
 72
     1
 10
19.08641943273534
 20
28.99518903540131
 11
19.0095275609328
 21
28.99966421518074
 72
     1
 10
19.0095275609328
 20
28.99966421518074
 11
19.00952756093279
 21
28.96742852935006
 97
        0
 75
     0
 76
     1
 52
0.0
 41
0.1666666667
 77
     0
 78
     2
 53
45.0
 43
0.0
 44
0.0
 45
-0.0441941738241592
 46
0.0441941738241592
 79
     0
 53
45.0
 43
0.0294627825
 44
0.0
 45
-0.0441941738241592
 46
0.0441941738241592
 79
     0
 98
        1
 10
0.0
 20
0.0
  0
HATCH
  5
C2
330
94
100
AcDbEntity
  8
BLOCKS
 62
    16
100
AcDbHatch
 10
0.0
 20
0.0
 30
0.0
210
0.0
220
0.0
230
1.0
  2
ANSI32
 70
     0
 71
     0
 91
        1
 92
        0
 93
        4
 72
     1
 10
19.0095275609328
 20
28.99966421518074
 11
18.94675248259694
 21
29.00331778420741
 72
     1
 10
18.94675248259694
 20
29.00331778420741
 11
18.94488266885844
 21
28.97119092330762
 72
     1
 10
18.94488266885844
 20
28.97119092330762
 11
19.00952756093279
 21
28.96742852935006
 72
     1
 10
19.00952756093279
 20
28.96742852935006
 11
19.0095275609328
 21
28.99966421518074
 97
        0
 75
     0
 76
     1
 52
0.0
 41
0.1666666667
 77
     0
 78
     2
 53
45.0
 43
0.0
 44
0.0
 45
-0.0441941738241592
 46
0.0441941738241592
 79
     0
 53
45.0
 43
0.0294627825
 44
0.0
 45
-0.0441941738241592
 46
0.0441941738241592
 79
     0
 98
        1
 10
0.0
 20
0.0
  0
HATCH
  5
C3
330
94
100
AcDbEntity
  8
BLOCKS
 62
    16
100
AcDbHatch
 10
0.0
 20
0.0
 30
0.0
210
0.0
220
0.0
230
1.0
  2
ANSI32
 70
     0
 71
     0
 91
        1
 92
        0
 93
        4
 72
     1
 10
19.15729866039344
 20
28.95882811137627
 11
19.15916847413194
 21
28.99095497227606
 72
     1
 10
19.15916847413194
 20
28.99095497227606
 11
19.08641943273534
 21
28.99518903540131
 72
     1
 10
19.08641943273534
 20
28.99518903540131
 11
19.08641943273534
 21
28.96295334957064
 72
     1
 10
19.08641943273534
 20
28.96295334957064
 11
19.15729866039344
 21
28.95882811137627
 97
        0
 75
     0
 76
     1
 52
0.0
 41
0.1666666667
 77
     0
 78
     2
 53
45.0
 43
0.0
 44
0.0
 45
-0.0441941738241592
 46
0.0441941738241592
 79
     0
 53
45.0
 43
0.0294627825
 44
0.0
 45
-0.0441941738241592
 46
0.0441941738241592
 79
     0
 98
        1
 10
0.0
 20
0.0
  0
HATCH
  5
C4
330
94
100
AcDbEntity
  8
BLOCKS
 62
    16
100
AcDbHatch
 10
0.0
 20
0.0
 30
0.0
210
0.0
220
0.0
230
1.0
  2
ANSI32
 70
     0
 71
     0
 91
        1
 92
        0
 93
        4
 72
     1
 10
19.00952756093279
 20
28.95929271682988
 11
18.96475594104669
 21
28.95929271682988
 72
     2
 10
19.04703816761627
 20
28.99084869604216
 40
0.0881257319589163
 50
200.9822712637957
 51
339.0177287362059
 73
     1
 72
     1
 10
19.12932039418586
 20
28.95929271682988
 11
19.08641943273533
 21
28.95929271682988
 72
     1
 10
19.08641943273533
 20
28.95929271682988
 11
19.00952756093279
 21
28.95929271682988
 97
        0
 75
     0
 76
     1
 52
0.0
 41
0.1666666667
 77
     0
 78
     2
 53
45.0
 43
0.0
 44
0.0
 45
-0.0441941738241592
 46
0.0441941738241592
 79
     0
 53
45.0
 43
0.0294627825
 44
0.0
 45
-0.0441941738241592
 46
0.0441941738241592
 79
     0
 98
        1
 10
0.0
 20
0.0
  0
HATCH
  5
C5
330
94
100
AcDbEntity
  8
BLOCKS
 62
    16
100
AcDbHatch
 10
0.0
 20
0.0
 30
0.0
210
0.0
220
0.0
230
1.0
  2
SOLID
 70
     1
 71
     0
 91
        1
 92
        0
 93
        5
 72
     1
 10
19.90680635715495
 20
29.12174152375217
 11
19.89405107202551
 21
29.14344268635683
 72
     1
 10
19.89405107202551
 20
29.14344268635683
 11
19.30202323130653
 21
29.14344268635683
 72
     1
 10
19.30202323130653
 20
29.14344268635683
 11
19.34703094371573
 21
29.09872583179682
 72
     1
 10
19.34703094371573
 20
29.09872583179682
 11
19.34703094371572
 21
29.12174152375217
 72
     1
 10
19.34703094371572
 20
29.12174152375217
 11
19.90680635715495
 21
29.12174152375217
 97
        0
 75
     0
 76
     1
 98
        1
 10
0.0
 20
0.0
  0
INSERT
  5
DC
330
94
100
AcDbEntity
  8
BLOCKS
100
AcDbBlockReference
  2
SW_BLOCK_DIMENSION_1
 10
19.7557699263
 20
29.6493704876
 30
0.0
  0
ENDBLK
  5
96
330
94
100
AcDbEntity
  8
0
100
AcDbBlockEnd
  0
BLOCK
  5
C7
330
C6
100
AcDbEntity
  8
0
100
AcDbBlockBegin
  2
SW_BLOCK_DIMENSION_1
 70
     0
 10
0.0
 20
0.0
 30
0.0
  3
SW_BLOCK_DIMENSION_1
  1

  0
SOLID
  5
C9
330
C6
100
AcDbEntity
  8
BLOCKS
 62
     0
100
AcDbTrace
 10
0.6382811457
 20
-0.0313006311
 30
0.0
 11
0.7393960546
 21
-0.0468567709
 31
0.0
 12
0.7393960546
 22
-0.0157444913
 32
0.0
 13
0.7393960546
 23
-0.0157444913
 33
0.0
  0
SOLID
  5
CA
330
C6
100
AcDbEntity
  8
BLOCKS
 62
     0
100
AcDbTrace
 10
0.1382811457
 20
-0.0313006311
 30
0.0
 11
0.0371662369
 21
-0.0157444913
 31
0.0
 12
0.0371662369
 22
-0.0468567709
 32
0.0
 13
0.0371662369
 23
-0.0468567709
 33
0.0
  0
LINE
  5
CB
330
C6
100
AcDbEntity
  8
BLOCKS
 62
     0
100
AcDbLine
 10
0.1573109794
 20
0.0798201425
 30
0.0
 11
0.2639853638
 21
0.0798201425
 31
0.0
  0
LINE
  5
CC
330
C6
100
AcDbEntity
  8
BLOCKS
 62
     0
100
AcDbLine
 10
0.079089508
 20
-0.0940224566
 30
0.0
 11
0.0559413594
 21
-0.0940224566
 31
0.0
  0
LINE
  5
CD
330
C6
100
AcDbEntity
  8
BLOCKS
 62
     0
100
AcDbLine
 10
0.0559413594
 20
-0.0940224566
 30
0.0
 11
0.0559413594
 21
-0.249307956
 31
0.0
  0
LINE
  5
CE
330
C6
100
AcDbEntity
  8
BLOCKS
 62
     0
100
AcDbLine
 10
0.0559413594
 20
-0.249307956
 30
0.0
 11
0.079089508
 21
-0.249307956
 31
0.0
  0
LINE
  5
CF
330
C6
100
AcDbEntity
  8
BLOCKS
 62
     0
100
AcDbLine
 10
0.4841821217
 20
-0.0940224566
 30
0.0
 11
0.5073302703
 21
-0.0940224566
 31
0.0
  0
LINE
  5
D0
330
C6
100
AcDbEntity
  8
BLOCKS
 62
     0
100
AcDbLine
 10
0.5073302703
 20
-0.0940224566
 30
0.0
 11
0.5073302703
 21
-0.249307956
 31
0.0
  0
LINE
  5
D1
330
C6
100
AcDbEntity
  8
BLOCKS
 62
     0
100
AcDbLine
 10
0.5073302703
 20
-0.249307956
 30
0.0
 11
0.4841821217
 21
-0.249307956
 31
0.0
  0
LINE
  5
D2
330
C6
100
AcDbEntity
  8
BLOCKS
 62
     0
100
AcDbLine
 10
0.6382811457
 20
-0.711486603
 30
0.0
 11
0.6382811457
 21
0.0936993689
 31
0.0
  0
LINE
  5
D3
330
C6
100
AcDbEntity
  8
BLOCKS
 62
     0
100
AcDbLine
 10
0.1382811457
 20
-0.1267236731
 30
0.0
 11
0.1382811457
 21
0.0936993689
 31
0.0
  0
LINE
  5
D4
330
C6
100
AcDbEntity
  8
BLOCKS
 62
     0
100
AcDbLine
 10
0.6382811457
 20
-0.0313006311
 30
0.0
 11
0.8327328935
 21
-0.0313006311
 31
0.0
  0
LINE
  5
D5
330
C6
100
AcDbEntity
  8
BLOCKS
 62
     0
100
AcDbLine
 10
0.1382811457
 20
-0.0313006311
 30
0.0
 11
-0.0561706021
 21
-0.0313006311
 31
0.0
  0
MTEXT
  5
D6
330
C6
100
AcDbEntity
  8
BLOCKS
 62
     0
100
AcDbMText
 10
0.0390625
 20
0.1342778896
 30
0.0039370079
 40
0.1041666667
 41
0.0
 71
     1
 72
     1
  1

  7
SLDTEXTSTYLE0
 73
     1
 44
1.0
  0
MTEXT
  5
D7
330
C6
100
AcDbEntity
  8
BLOCKS
 62
     0
100
AcDbMText
 10
0.1720679231
 20
0.2052438631
 30
0.0039370079
 40
0.1041666667
 41
0.0
 71
     1
 72
     1
  1
1
  7
SLDTEXTSTYLE0
 73
     1
 44
1.0
  0
MTEXT
  5
D8
330
C6
100
AcDbEntity
  8
BLOCKS
 62
     0
100
AcDbMText
 10
0.1720679231
 20
0.0634035871
 30
0.0039370079
 40
0.1041666667
 41
0.0
 71
     1
 72
     1
  1
2
  7
SLDTEXTSTYLE0
 73
     1
 44
1.0
  0
MTEXT
  5
D9
330
C6
100
AcDbEntity
  8
BLOCKS
 62
     0
100
AcDbMText
 10
0.2787423074
 20
0.1342778896
 30
0.0039370079
 40
0.1041666667
 41
0.0
 71
     1
 72
     1
  1
"
  7
SLDTEXTSTYLE0
 73
     1
 44
1.0
  0
MTEXT
  5
DA
330
C6
100
AcDbEntity
  8
BLOCKS
 62
     0
100
AcDbMText
 10
0.1080246921
 20
-0.1150300596
 30
0.0039370079
 40
0.1041666667
 41
0.0
 71
     1
 72
     1
  1
12.70
  7
SLDTEXTSTYLE0
 73
     1
 44
1.0
  0
MTEXT
  5
DB
330
C6
100
AcDbEntity
  8
BLOCKS
 62
     0
100
AcDbMText
 10
0.5637539087
 20
0.1342778896
 30
0.0039370079
 40
0.1041666667
 41
0.0
 71
     1
 72
     1
  1

  7
SLDTEXTSTYLE0
 73
     1
 44
1.0
  0
ENDBLK
  5
C8
330
C6
100
AcDbEntity
  8
0
100
AcDbBlockEnd
  0
BLOCK
  5
FC
330
FB
100
AcDbEntity
  8
0
100
AcDbBlockBegin
  2
_D
 70
     0
 10
0.0
 20
0.0
 30
0.0
  3
_D
  1

  0
SOLID
  5
FE
330
FB
100
AcDbEntity
  8
DIMS
100
AcDbTrace
 10
26.4829102622
 20
23.768094569
 30
0.0
 11
26.5971539671
 21
24.0083028358
 31
0.0
 12
26.5196696925
 22
24.0315340874
 32
0.0
 13
26.5196696925
 23
24.0315340874
 33
0.0
  0
LINE
  5
FF
330
FB
100
AcDbEntity
  8
DIMS
100
AcDbLine
 10
26.8644636299
 20
25.638256531
 30
0.0
 11
27.1418170109
 21
25.638256531
 31
0.0
  0
LINE
  5
100
330
FB
100
AcDbEntity
  8
DIMS
100
AcDbLine
 10
26.4303779636
 20
25.1862658032
 30
0.0
 11
26.3701927777
 21
25.1862658032
 31
0.0
  0
LINE
  5
101
330
FB
100
AcDbEntity
  8
DIMS
100
AcDbLine
 10
26.3701927777
 20
25.1862658032
 30
0.0
 11
26.3701927777
 21
24.782523534
 31
0.0
  0
LINE
  5
102
330
FB
100
AcDbEntity
  8
DIMS
100
AcDbLine
 10
26.3701927777
 20
24.782523534
 30
0.0
 11
26.4303779636
 21
24.782523534
 31
0.0
  0
LINE
  5
103
330
FB
100
AcDbEntity
  8
DIMS
100
AcDbLine
 10
27.4836186932
 20
25.1862658032
 30
0.0
 11
27.5438038792
 21
25.1862658032
 31
0.0
  0
LINE
  5
104
330
FB
100
AcDbEntity
  8
DIMS
100
AcDbLine
 10
27.5438038792
 20
25.1862658032
 30
0.0
 11
27.5438038792
 21
24.782523534
 31
0.0
  0
LINE
  5
105
330
FB
100
AcDbEntity
  8
DIMS
100
AcDbLine
 10
27.5438038792
 20
24.782523534
 30
0.0
 11
27.4836186932
 21
24.782523534
 31
0.0
  0
LINE
  5
106
330
FB
100
AcDbEntity
  8
DIMS
100
AcDbLine
 10
26.4829102622
 20
23.768094569
 30
0.0
 11
26.7690106253
 21
24.7223384259
 31
0.0
  0
MTEXT
  5
107
330
FB
100
AcDbEntity
  8
DIMS
100
AcDbMText
 10
26.3646758326
 20
25.7798466963
 30
5.1267870079
 40
0.2708333333
 41
0.0
 71
     1
 72
     1
  1
R1
  7
SLDTEXTSTYLE0
 73
     1
 44
1.0
  0
MTEXT
  5
108
330
FB
100
AcDbEntity
  8
DIMS
100
AcDbMText
 10
26.9028316817
 20
25.9643582164
 30
5.1267870079
 40
0.2708333333
 41
0.0
 71
     1
 72
     1
  1
3
  7
SLDTEXTSTYLE0
 73
     1
 44
1.0
  0
MTEXT
  5
109
330
FB
100
AcDbEntity
  8
DIMS
100
AcDbMText
 10
26.9028316817
 20
25.5955734792
 30
5.1267870079
 40
0.2708333333
 41
0.0
 71
     1
 72
     1
  1
4
  7
SLDTEXTSTYLE0
 73
     1
 44
1.0
  0
MTEXT
  5
10A
330
FB
100
AcDbEntity
  8
DIMS
100
AcDbMText
 10
27.1801850718
 20
25.7798466963
 30
5.1267870079
 40
0.2708333333
 41
0.0
 71
     1
 72
     1
  1
"
  7
SLDTEXTSTYLE0
 73
     1
 44
1.0
  0
MTEXT
  5
10B
330
FB
100
AcDbEntity
  8
DIMS
100
AcDbMText
 10
26.5056094496
 20
25.1316460377
 30
5.1267870079
 40
0.2708333333
 41
0.0
 71
     1
 72
     1
  1
44.45
  7
SLDTEXTSTYLE0
 73
     1
 44
1.0
  0
ENDBLK
  5
FD
330
FB
100
AcDbEntity
  8
0
100
AcDbBlockEnd
  0
BLOCK
  5
10E
330
10D
100
AcDbEntity
  8
0
100
AcDbBlockBegin
  2
_D_1
 70
     0
 10
0.0
 20
0.0
 30
0.0
  3
_D_1
  1

  0
SOLID
  5
110
330
10D
100
AcDbEntity
  8
DIMS
100
AcDbTrace
 10
24.5400772193
 20
25.4505580867
 30
0.0
 11
24.6951678537
 21
25.6666565149
 31
0.0
 12
24.6230415916
 22
25.7032803621
 32
0.0
 13
24.6230415916
 23
25.7032803621
 33
0.0
  0
LINE
  5
111
330
10D
100
AcDbEntity
  8
DIMS
100
AcDbLine
 10
26.408287264
 20
27.7987871094
 30
0.0
 11
26.685640645
 21
27.7987871094
 31
0.0
  0
LINE
  5
112
330
10D
100
AcDbEntity
  8
DIMS
100
AcDbLine
 10
25.9742015977
 20
27.3467963817
 30
0.0
 11
25.9140164118
 21
27.3467963817
 31
0.0
  0
LINE
  5
113
330
10D
100
AcDbEntity
  8
DIMS
100
AcDbLine
 10
25.9140164118
 20
27.3467963817
 30
0.0
 11
25.9140164118
 21
26.9430541124
 31
0.0
  0
LINE
  5
114
330
10D
100
AcDbEntity
  8
DIMS
100
AcDbLine
 10
25.9140164118
 20
26.9430541124
 30
0.0
 11
25.9742015977
 21
26.9430541124
 31
0.0
  0
LINE
  5
115
330
10D
100
AcDbEntity
  8
DIMS
100
AcDbLine
 10
27.0274423273
 20
27.3467963817
 30
0.0
 11
27.0876275133
 21
27.3467963817
 31
0.0
  0
LINE
  5
116
330
10D
100
AcDbEntity
  8
DIMS
100
AcDbLine
 10
27.0876275133
 20
27.3467963817
 30
0.0
 11
27.0876275133
 21
26.9430541124
 31
0.0
  0
LINE
  5
117
330
10D
100
AcDbEntity
  8
DIMS
100
AcDbLine
 10
27.0876275133
 20
26.9430541124
 30
0.0
 11
27.0274423273
 21
26.9430541124
 31
0.0
  0
LINE
  5
118
330
10D
100
AcDbEntity
  8
DIMS
100
AcDbLine
 10
24.5400772193
 20
25.4505580867
 30
0.0
 11
25.6188775211
 21
27.575125529
 31
0.0
  0
LINE
  5
119
330
10D
100
AcDbEntity
  8
DIMS
100
AcDbLine
 10
25.6188775211
 20
27.575125529
 30
0.0
 11
25.8688775211
 21
27.575125529
 31
0.0
  0
MTEXT
  5
11A
330
10D
100
AcDbEntity
  8
DIMS
100
AcDbMText
 10
25.9084994667
 20
27.9403772747
 30
5.1267870079
 40
0.2708333333
 41
0.0
 71
     1
 72
     1
  1
R2
  7
SLDTEXTSTYLE0
 73
     1
 44
1.0
  0
MTEXT
  5
11B
330
10D
100
AcDbEntity
  8
DIMS
100
AcDbMText
 10
26.4466553157
 20
28.1248887949
 30
5.1267870079
 40
0.2708333333
 41
0.0
 71
     1
 72
     1
  1
1
  7
SLDTEXTSTYLE0
 73
     1
 44
1.0
  0
MTEXT
  5
11C
330
10D
100
AcDbEntity
  8
DIMS
100
AcDbMText
 10
26.4466553157
 20
27.7561040576
 30
5.1267870079
 40
0.2708333333
 41
0.0
 71
     1
 72
     1
  1
4
  7
SLDTEXTSTYLE0
 73
     1
 44
1.0
  0
MTEXT
  5
11D
330
10D
100
AcDbEntity
  8
DIMS
100
AcDbMText
 10
26.7240087059
 20
27.9403772747
 30
5.1267870079
 40
0.2708333333
 41
0.0
 71
     1
 72
     1
  1
"
  7
SLDTEXTSTYLE0
 73
     1
 44
1.0
  0
MTEXT
  5
11E
330
10D
100
AcDbEntity
  8
DIMS
100
AcDbMText
 10
26.0494330837
 20
27.2921766161
 30
5.1267870079
 40
0.2708333333
 41
0.0
 71
     1
 72
     1
  1
57.15
  7
SLDTEXTSTYLE0
 73
     1
 44
1.0
  0
ENDBLK
  5
10F
330
10D
100
AcDbEntity
  8
0
100
AcDbBlockEnd
  0
BLOCK
  5
121
330
120
100
AcDbEntity
  8
0
100
AcDbBlockBegin
  2
_D_2
 70
     0
 10
0.0
 20
0.0
 30
0.0
  3
_D_2
  1

  0
SOLID
  5
123
330
120
100
AcDbEntity
  8
DIMS
100
AcDbTrace
 10
25.7952695632
 20
23.3891371344
 30
0.0
 11
25.6285185436
 21
23.1819036114
 31
0.0
 12
25.6985194185
 22
23.1413649708
 32
0.0
 13
25.6985194185
 23
23.1413649708
 33
0.0
  0
LINE
  5
124
330
120
100
AcDbEntity
  8
DIMS
100
AcDbLine
 10
23.7029865182
 20
21.6826094572
 30
0.0
 11
23.9803398992
 21
21.6826094572
 31
0.0
  0
LINE
  5
125
330
120
100
AcDbEntity
  8
DIMS
100
AcDbLine
 10
23.2689008519
 20
21.2306187295
 30
0.0
 11
23.208715666
 21
21.2306187295
 31
0.0
  0
LINE
  5
126
330
120
100
AcDbEntity
  8
DIMS
100
AcDbLine
 10
23.208715666
 20
21.2306187295
 30
0.0
 11
23.208715666
 21
20.8268764602
 31
0.0
  0
LINE
  5
127
330
120
100
AcDbEntity
  8
DIMS
100
AcDbLine
 10
23.208715666
 20
20.8268764602
 30
0.0
 11
23.2689008519
 21
20.8268764602
 31
0.0
  0
LINE
  5
128
330
120
100
AcDbEntity
  8
DIMS
100
AcDbLine
 10
24.3221415815
 20
21.2306187295
 30
0.0
 11
24.3823267675
 21
21.2306187295
 31
0.0
  0
LINE
  5
129
330
120
100
AcDbEntity
  8
DIMS
100
AcDbLine
 10
24.3823267675
 20
21.2306187295
 30
0.0
 11
24.3823267675
 21
20.8268764602
 31
0.0
  0
LINE
  5
12A
330
120
100
AcDbEntity
  8
DIMS
100
AcDbLine
 10
24.3823267675
 20
20.8268764602
 30
0.0
 11
24.3221415815
 21
20.8268764602
 31
0.0
  0
LINE
  5
12B
330
120
100
AcDbEntity
  8
DIMS
100
AcDbLine
 10
25.7952695632
 20
23.3891371344
 30
0.0
 11
24.6774656948
 21
21.4589478768
 31
0.0
  0
LINE
  5
12C
330
120
100
AcDbEntity
  8
DIMS
100
AcDbLine
 10
24.6774656948
 20
21.4589478768
 30
0.0
 11
24.4274656948
 21
21.4589478768
 31
0.0
  0
MTEXT
  5
12D
330
120
100
AcDbEntity
  8
DIMS
100
AcDbMText
 10
23.2031987209
 20
21.8241996225
 30
5.1267870079
 40
0.2708333333
 41
0.0
 71
     1
 72
     1
  1
R2
  7
SLDTEXTSTYLE0
 73
     1
 44
1.0
  0
MTEXT
  5
12E
330
120
100
AcDbEntity
  8
DIMS
100
AcDbMText
 10
23.74135457
 20
22.0087111427
 30
5.1267870079
 40
0.2708333333
 41
0.0
 71
     1
 72
     1
  1
3
  7
SLDTEXTSTYLE0
 73
     1
 44
1.0
  0
MTEXT
  5
12F
330
120
100
AcDbEntity
  8
DIMS
100
AcDbMText
 10
23.74135457
 20
21.6399264054
 30
5.1267870079
 40
0.2708333333
 41
0.0
 71
     1
 72
     1
  1
8
  7
SLDTEXTSTYLE0
 73
     1
 44
1.0
  0
MTEXT
  5
130
330
120
100
AcDbEntity
  8
DIMS
100
AcDbMText
 10
24.0187079601
 20
21.8241996225
 30
5.1267870079
 40
0.2708333333
 41
0.0
 71
     1
 72
     1
  1
"
  7
SLDTEXTSTYLE0
 73
     1
 44
1.0
  0
MTEXT
  5
131
330
120
100
AcDbEntity
  8
DIMS
100
AcDbMText
 10
23.3441323379
 20
21.1759989639
 30
5.1267870079
 40
0.2708333333
 41
0.0
 71
     1
 72
     1
  1
60.33
  7
SLDTEXTSTYLE0
 73
     1
 44
1.0
  0
ENDBLK
  5
122
330
120
100
AcDbEntity
  8
0
100
AcDbBlockEnd
  0
BLOCK
  5
134
330
133
100
AcDbEntity
  8
0
100
AcDbBlockBegin
  2
_D_3
 70
     0
 10
0.0
 20
0.0
 30
0.0
  3
_D_3
  1

  0
SOLID
  5
136
330
133
100
AcDbEntity
  8
DIMS
100
AcDbTrace
 10
24.3651190676
 20
24.8331665529
 30
0.0
 11
24.1940503598
 21
24.6294826489
 31
0.0
 12
24.263183959
 22
24.5874820617
 32
0.0
 13
24.263183959
 23
24.5874820617
 33
0.0
  0
LINE
  5
137
330
133
100
AcDbEntity
  8
DIMS
100
AcDbLine
 10
23.4495887212
 20
23.7674172547
 30
0.0
 11
23.7269421022
 21
23.7674172547
 31
0.0
  0
LINE
  5
138
330
133
100
AcDbEntity
  8
DIMS
100
AcDbLine
 10
23.015503055
 20
23.315426527
 30
0.0
 11
22.955317869
 21
23.315426527
 31
0.0
  0
LINE
  5
139
330
133
100
AcDbEntity
  8
DIMS
100
AcDbLine
 10
22.955317869
 20
23.315426527
 30
0.0
 11
22.955317869
 21
22.9116842577
 31
0.0
  0
LINE
  5
13A
330
133
100
AcDbEntity
  8
DIMS
100
AcDbLine
 10
22.955317869
 20
22.9116842577
 30
0.0
 11
23.015503055
 21
22.9116842577
 31
0.0
  0
LINE
  5
13B
330
133
100
AcDbEntity
  8
DIMS
100
AcDbLine
 10
24.0687437845
 20
23.315426527
 30
0.0
 11
24.1289289705
 21
23.315426527
 31
0.0
  0
LINE
  5
13C
330
133
100
AcDbEntity
  8
DIMS
100
AcDbLine
 10
24.1289289705
 20
23.315426527
 30
0.0
 11
24.1289289705
 21
22.9116842577
 31
0.0
  0
LINE
  5
13D
330
133
100
AcDbEntity
  8
DIMS
100
AcDbLine
 10
24.1289289705
 20
22.9116842577
 30
0.0
 11
24.0687437845
 21
22.9116842577
 31
0.0
  0
LINE
  5
13E
330
133
100
AcDbEntity
  8
DIMS
100
AcDbLine
 10
24.3651190676
 20
24.8331665529
 30
0.0
 11
23.9230459516
 21
24.1055075432
 31
0.0
  0
MTEXT
  5
13F
330
133
100
AcDbEntity
  8
DIMS
100
AcDbMText
 10
22.9498009239
 20
23.90900742
 30
5.1267870079
 40
0.2708333333
 41
0.0
 71
     1
 72
     1
  1
R1
  7
SLDTEXTSTYLE0
 73
     1
 44
1.0
  0
MTEXT
  5
140
330
133
100
AcDbEntity
  8
DIMS
100
AcDbMText
 10
23.487956773
 20
24.0935189402
 30
5.1267870079
 40
0.2708333333
 41
0.0
 71
     1
 72
     1
  1
5
  7
SLDTEXTSTYLE0
 73
     1
 44
1.0
  0
MTEXT
  5
141
330
133
100
AcDbEntity
  8
DIMS
100
AcDbMText
 10
23.487956773
 20
23.7247342029
 30
5.1267870079
 40
0.2708333333
 41
0.0
 71
     1
 72
     1
  1
8
  7
SLDTEXTSTYLE0
 73
     1
 44
1.0
  0
MTEXT
  5
142
330
133
100
AcDbEntity
  8
DIMS
100
AcDbMText
 10
23.7653101631
 20
23.90900742
 30
5.1267870079
 40
0.2708333333
 41
0.0
 71
     1
 72
     1
  1
"
  7
SLDTEXTSTYLE0
 73
     1
 44
1.0
  0
MTEXT
  5
143
330
133
100
AcDbEntity
  8
DIMS
100
AcDbMText
 10
23.0907345409
 20
23.2608067614
 30
5.1267870079
 40
0.2708333333
 41
0.0
 71
     1
 72
     1
  1
41.28
  7
SLDTEXTSTYLE0
 73
     1
 44
1.0
  0
ENDBLK
  5
135
330
133
100
AcDbEntity
  8
0
100
AcDbBlockEnd
  0
BLOCK
  5
147
330
146
100
AcDbEntity
  8
0
100
AcDbBlockBegin
  2
_D_4
 70
     0
 10
0.0
 20
0.0
 30
0.0
  3
_D_4
  1

  0
SOLID
  5
149
330
146
100
AcDbEntity
  8
DIMS
100
AcDbTrace
 10
35.0232747541
 20
23.694374088
 30
0.0
 11
34.9828287905
 21
23.431475325
 31
0.0
 12
35.0637207176
 22
23.431475325
 32
0.0
 13
35.0637207176
 23
23.431475325
 33
0.0
  0
SOLID
  5
14A
330
146
100
AcDbEntity
  8
DIMS
100
AcDbTrace
 10
35.0232747541
 20
6.694374088
 30
0.0
 11
35.0637207176
 21
6.9572728511
 31
0.0
 12
34.9828287905
 22
6.9572728511
 32
0.0
 13
34.9828287905
 23
6.9572728511
 33
0.0
  0
LINE
  5
14B
330
146
100
AcDbEntity
  8
DIMS
100
AcDbLine
 10
34.3963457231
 20
20.2501243643
 30
0.0
 11
34.3361605371
 21
20.2501243643
 31
0.0
  0
LINE
  5
14C
330
146
100
AcDbEntity
  8
DIMS
100
AcDbLine
 10
34.3361605371
 20
20.2501243643
 30
0.0
 11
34.3361605371
 21
19.846382095
 31
0.0
  0
LINE
  5
14D
330
146
100
AcDbEntity
  8
DIMS
100
AcDbLine
 10
34.3361605371
 20
19.846382095
 30
0.0
 11
34.3963457231
 21
19.846382095
 31
0.0
  0
LINE
  5
14E
330
146
100
AcDbEntity
  8
DIMS
100
AcDbLine
 10
35.6502037484
 20
20.2501243643
 30
0.0
 11
35.7103889344
 21
20.2501243643
 31
0.0
  0
LINE
  5
14F
330
146
100
AcDbEntity
  8
DIMS
100
AcDbLine
 10
35.7103889344
 20
20.2501243643
 30
0.0
 11
35.7103889344
 21
19.846382095
 31
0.0
  0
LINE
  5
150
330
146
100
AcDbEntity
  8
DIMS
100
AcDbLine
 10
35.7103889344
 20
19.846382095
 30
0.0
 11
35.6502037484
 21
19.846382095
 31
0.0
  0
LINE
  5
151
330
146
100
AcDbEntity
  8
DIMS
100
AcDbLine
 10
35.0232747541
 20
23.694374088
 30
0.0
 11
35.0232747541
 21
20.6714206524
 31
0.0
  0
LINE
  5
152
330
146
100
AcDbEntity
  8
DIMS
100
AcDbLine
 10
35.0232747541
 20
6.694374088
 30
0.0
 11
35.0232747541
 21
19.7861969319
 31
0.0
  0
MTEXT
  5
153
330
146
100
AcDbEntity
  8
DIMS
100
AcDbMText
 10
34.6380895638
 20
20.6594320677
 30
5.1267870079
 40
0.2708333333
 41
0.0
 71
     1
 72
     1
  1
17"
  7
SLDTEXTSTYLE0
 73
     1
 44
1.0
  0
MTEXT
  5
154
330
146
100
AcDbEntity
  8
DIMS
100
AcDbMText
 10
34.471577209
 20
20.1955045987
 30
5.1267870079
 40
0.2708333333
 41
0.0
 71
     1
 72
     1
  1
431.80
  7
SLDTEXTSTYLE0
 73
     1
 44
1.0
  0
ENDBLK
  5
148
330
146
100
AcDbEntity
  8
0
100
AcDbBlockEnd
  0
BLOCK
  5
157
330
156
100
AcDbEntity
  8
0
100
AcDbBlockBegin
  2
_D_5
 70
     0
 10
0.0
 20
0.0
 30
0.0
  3
_D_5
  1

  0
SOLID
  5
159
330
156
100
AcDbEntity
  8
DIMS
100
AcDbTrace
 10
32.5497187806
 20
23.069374088
 30
0.0
 11
32.509272817
 21
22.806475325
 31
0.0
 12
32.5901647441
 22
22.806475325
 32
0.0
 13
32.5901647441
 23
22.806475325
 33
0.0
  0
SOLID
  5
15A
330
156
100
AcDbEntity
  8
DIMS
100
AcDbTrace
 10
32.5497187806
 20
7.319374088
 30
0.0
 11
32.5901647441
 21
7.5822728511
 31
0.0
 12
32.509272817
 22
7.5822728511
 32
0.0
 13
32.509272817
 23
7.5822728511
 33
0.0
  0
LINE
  5
15B
330
156
100
AcDbEntity
  8
DIMS
100
AcDbLine
 10
32.4270914913
 20
17.7399449562
 30
0.0
 11
32.7044448723
 21
17.7399449562
 31
0.0
  0
LINE
  5
15C
330
156
100
AcDbEntity
  8
DIMS
100
AcDbLine
 10
31.9227897496
 20
17.2879542285
 30
0.0
 11
31.8626045636
 21
17.2879542285
 31
0.0
  0
LINE
  5
15D
330
156
100
AcDbEntity
  8
DIMS
100
AcDbLine
 10
31.8626045636
 20
17.2879542285
 30
0.0
 11
31.8626045636
 21
16.8842119592
 31
0.0
  0
LINE
  5
15E
330
156
100
AcDbEntity
  8
DIMS
100
AcDbLine
 10
31.8626045636
 20
16.8842119592
 30
0.0
 11
31.9227897496
 21
16.8842119592
 31
0.0
  0
LINE
  5
15F
330
156
100
AcDbEntity
  8
DIMS
100
AcDbLine
 10
33.1766477749
 20
17.2879542285
 30
0.0
 11
33.2368329609
 21
17.2879542285
 31
0.0
  0
LINE
  5
160
330
156
100
AcDbEntity
  8
DIMS
100
AcDbLine
 10
33.2368329609
 20
17.2879542285
 30
0.0
 11
33.2368329609
 21
16.8842119592
 31
0.0
  0
LINE
  5
161
330
156
100
AcDbEntity
  8
DIMS
100
AcDbLine
 10
33.2368329609
 20
16.8842119592
 30
0.0
 11
33.1766477749
 21
16.8842119592
 31
0.0
  0
LINE
  5
162
330
156
100
AcDbEntity
  8
DIMS
100
AcDbLine
 10
32.5497187806
 20
23.069374088
 30
0.0
 11
32.5497187806
 21
18.0780352448
 31
0.0
  0
LINE
  5
163
330
156
100
AcDbEntity
  8
DIMS
100
AcDbLine
 10
32.5497187806
 20
7.319374088
 30
0.0
 11
32.5497187806
 21
16.8240268512
 31
0.0
  0
MTEXT
  5
164
330
156
100
AcDbEntity
  8
DIMS
100
AcDbMText
 10
31.9874888755
 20
17.8815351215
 30
5.1267870079
 40
0.2708333333
 41
0.0
 71
     1
 72
     1
  1
15
  7
SLDTEXTSTYLE0
 73
     1
 44
1.0
  0
MTEXT
  5
165
330
156
100
AcDbEntity
  8
DIMS
100
AcDbMText
 10
32.4654595431
 20
18.0660466417
 30
5.1267870079
 40
0.2708333333
 41
0.0
 71
     1
 72
     1
  1
3
  7
SLDTEXTSTYLE0
 73
     1
 44
1.0
  0
MTEXT
  5
166
330
156
100
AcDbEntity
  8
DIMS
100
AcDbMText
 10
32.4654595431
 20
17.6972619044
 30
5.1267870079
 40
0.2708333333
 41
0.0
 71
     1
 72
     1
  1
4
  7
SLDTEXTSTYLE0
 73
     1
 44
1.0
  0
MTEXT
  5
167
330
156
100
AcDbEntity
  8
DIMS
100
AcDbMText
 10
32.7428128966
 20
17.8815351215
 30
5.1267870079
 40
0.2708333333
 41
0.0
 71
     1
 72
     1
  1
"
  7
SLDTEXTSTYLE0
 73
     1
 44
1.0
  0
MTEXT
  5
168
330
156
100
AcDbEntity
  8
DIMS
100
AcDbMText
 10
31.9980212355
 20
17.2333344629
 30
5.1267870079
 40
0.2708333333
 41
0.0
 71
     1
 72
     1
  1
400.05
  7
SLDTEXTSTYLE0
 73
     1
 44
1.0
  0
ENDBLK
  5
158
330
156
100
AcDbEntity
  8
0
100
AcDbBlockEnd
  0
BLOCK
  5
16B
330
16A
100
AcDbEntity
  8
0
100
AcDbBlockBegin
  2
_D_6
 70
     0
 10
0.0
 20
0.0
 30
0.0
  3
_D_6
  1

  0
SOLID
  5
16D
330
16A
100
AcDbEntity
  8
DIMS
100
AcDbTrace
 10
38.521388963
 20
10.0355363056
 30
0.0
 11
38.2584901999
 21
10.0759822692
 31
0.0
 12
38.2584901999
 22
9.9950903421
 32
0.0
 13
38.2584901999
 23
9.9950903421
 33
0.0
  0
SOLID
  5
16E
330
16A
100
AcDbEntity
  8
DIMS
100
AcDbTrace
 10
4.771388963
 20
10.0355363056
 30
0.0
 11
5.034287726
 21
9.9950903421
 31
0.0
 12
5.034287726
 22
10.0759822692
 32
0.0
 13
5.034287726
 23
10.0759822692
 33
0.0
  0
LINE
  5
16F
330
16A
100
AcDbEntity
  8
DIMS
100
AcDbLine
 10
20.0475241334
 20
10.3244502139
 30
0.0
 11
20.3248775144
 21
10.3244502139
 31
0.0
  0
LINE
  5
170
330
16A
100
AcDbEntity
  8
DIMS
100
AcDbLine
 10
19.5432223916
 20
9.8724594862
 30
0.0
 11
19.4830372056
 21
9.8724594862
 31
0.0
  0
LINE
  5
171
330
16A
100
AcDbEntity
  8
DIMS
100
AcDbLine
 10
19.4830372056
 20
9.8724594862
 30
0.0
 11
19.4830372056
 21
9.4687172169
 31
0.0
  0
LINE
  5
172
330
16A
100
AcDbEntity
  8
DIMS
100
AcDbLine
 10
19.4830372056
 20
9.4687172169
 30
0.0
 11
19.5432223916
 21
9.4687172169
 31
0.0
  0
LINE
  5
173
330
16A
100
AcDbEntity
  8
DIMS
100
AcDbLine
 10
20.7970804169
 20
9.8724594862
 30
0.0
 11
20.8572656029
 21
9.8724594862
 31
0.0
  0
LINE
  5
174
330
16A
100
AcDbEntity
  8
DIMS
100
AcDbLine
 10
20.8572656029
 20
9.8724594862
 30
0.0
 11
20.8572656029
 21
9.4687172169
 31
0.0
  0
LINE
  5
175
330
16A
100
AcDbEntity
  8
DIMS
100
AcDbLine
 10
20.8572656029
 20
9.4687172169
 30
0.0
 11
20.7970804169
 21
9.4687172169
 31
0.0
  0
LINE
  5
176
330
16A
100
AcDbEntity
  8
DIMS
100
AcDbLine
 10
38.521388963
 20
10.0355363056
 30
0.0
 11
20.9625880354
 21
10.0355363056
 31
0.0
  0
LINE
  5
177
330
16A
100
AcDbEntity
  8
DIMS
100
AcDbLine
 10
4.771388963
 20
10.0355363056
 30
0.0
 11
19.3777148098
 21
10.0355363056
 31
0.0
  0
MTEXT
  5
178
330
16A
100
AcDbEntity
  8
DIMS
100
AcDbMText
 10
19.6079215175
 20
10.4660403792
 30
5.1267870079
 40
0.2708333333
 41
0.0
 71
     1
 72
     1
  1
33
  7
SLDTEXTSTYLE0
 73
     1
 44
1.0
  0
MTEXT
  5
179
330
16A
100
AcDbEntity
  8
DIMS
100
AcDbMText
 10
20.0858921851
 20
10.6505518994
 30
5.1267870079
 40
0.2708333333
 41
0.0
 71
     1
 72
     1
  1
3
  7
SLDTEXTSTYLE0
 73
     1
 44
1.0
  0
MTEXT
  5
17A
330
16A
100
AcDbEntity
  8
DIMS
100
AcDbMText
 10
20.0858921851
 20
10.2817671621
 30
5.1267870079
 40
0.2708333333
 41
0.0
 71
     1
 72
     1
  1
4
  7
SLDTEXTSTYLE0
 73
     1
 44
1.0
  0
MTEXT
  5
17B
330
16A
100
AcDbEntity
  8
DIMS
100
AcDbMText
 10
20.3632455386
 20
10.4660403792
 30
5.1267870079
 40
0.2708333333
 41
0.0
 71
     1
 72
     1
  1
"
  7
SLDTEXTSTYLE0
 73
     1
 44
1.0
  0
MTEXT
  5
17C
330
16A
100
AcDbEntity
  8
DIMS
100
AcDbMText
 10
19.6184538775
 20
9.8178397206
 30
5.1267870079
 40
0.2708333333
 41
0.0
 71
     1
 72
     1
  1
857.25
  7
SLDTEXTSTYLE0
 73
     1
 44
1.0
  0
ENDBLK
  5
16C
330
16A
100
AcDbEntity
  8
0
100
AcDbBlockEnd
  0
BLOCK
  5
17F
330
17E
100
AcDbEntity
  8
0
100
AcDbBlockBegin
  2
_D_7
 70
     0
 10
0.0
 20
0.0
 30
0.0
  3
_D_7
  1

  0
SOLID
  5
181
330
17E
100
AcDbEntity
  8
DIMS
100
AcDbTrace
 10
37.896388963
 20
11.4485840317
 30
0.0
 11
37.6334901999
 21
11.4890299952
 31
0.0
 12
37.6334901999
 22
11.4081380681
 32
0.0
 13
37.6334901999
 23
11.4081380681
 33
0.0
  0
SOLID
  5
182
330
17E
100
AcDbEntity
  8
DIMS
100
AcDbTrace
 10
5.396388963
 20
11.4485840317
 30
0.0
 11
5.659287726
 21
11.4081380681
 31
0.0
 12
5.659287726
 22
11.4890299952
 32
0.0
 13
5.659287726
 23
11.4890299952
 33
0.0
  0
LINE
  5
183
330
17E
100
AcDbEntity
  8
DIMS
100
AcDbLine
 10
16.1082150054
 20
11.73749794
 30
0.0
 11
16.3855683864
 21
11.73749794
 31
0.0
  0
LINE
  5
184
330
17E
100
AcDbEntity
  8
DIMS
100
AcDbLine
 10
15.6039132636
 20
11.2855072122
 30
0.0
 11
15.5437280777
 21
11.2855072122
 31
0.0
  0
LINE
  5
185
330
17E
100
AcDbEntity
  8
DIMS
100
AcDbLine
 10
15.5437280777
 20
11.2855072122
 30
0.0
 11
15.5437280777
 21
10.881764943
 31
0.0
  0
LINE
  5
186
330
17E
100
AcDbEntity
  8
DIMS
100
AcDbLine
 10
15.5437280777
 20
10.881764943
 30
0.0
 11
15.6039132636
 21
10.881764943
 31
0.0
  0
LINE
  5
187
330
17E
100
AcDbEntity
  8
DIMS
100
AcDbLine
 10
16.857771289
 20
11.2855072122
 30
0.0
 11
16.9179564749
 21
11.2855072122
 31
0.0
  0
LINE
  5
188
330
17E
100
AcDbEntity
  8
DIMS
100
AcDbLine
 10
16.9179564749
 20
11.2855072122
 30
0.0
 11
16.9179564749
 21
10.881764943
 31
0.0
  0
LINE
  5
189
330
17E
100
AcDbEntity
  8
DIMS
100
AcDbLine
 10
16.9179564749
 20
10.881764943
 30
0.0
 11
16.857771289
 21
10.881764943
 31
0.0
  0
LINE
  5
18A
330
17E
100
AcDbEntity
  8
DIMS
100
AcDbLine
 10
37.896388963
 20
11.4485840317
 30
0.0
 11
17.0232789074
 21
11.4485840317
 31
0.0
  0
LINE
  5
18B
330
17E
100
AcDbEntity
  8
DIMS
100
AcDbLine
 10
5.396388963
 20
11.4485840317
 30
0.0
 11
15.4384056819
 21
11.4485840317
 31
0.0
  0
MTEXT
  5
18C
330
17E
100
AcDbEntity
  8
DIMS
100
AcDbMText
 10
15.6686123896
 20
11.8790881052
 30
5.1267870079
 40
0.2708333333
 41
0.0
 71
     1
 72
     1
  1
32
  7
SLDTEXTSTYLE0
 73
     1
 44
1.0
  0
MTEXT
  5
18D
330
17E
100
AcDbEntity
  8
DIMS
100
AcDbMText
 10
16.1465830572
 20
12.0635996254
 30
5.1267870079
 40
0.2708333333
 41
0.0
 71
     1
 72
     1
  1
1
  7
SLDTEXTSTYLE0
 73
     1
 44
1.0
  0
MTEXT
  5
18E
330
17E
100
AcDbEntity
  8
DIMS
100
AcDbMText
 10
16.1465830572
 20
11.6948148882
 30
5.1267870079
 40
0.2708333333
 41
0.0
 71
     1
 72
     1
  1
2
  7
SLDTEXTSTYLE0
 73
     1
 44
1.0
  0
MTEXT
  5
18F
330
17E
100
AcDbEntity
  8
DIMS
100
AcDbMText
 10
16.4239364107
 20
11.8790881052
 30
5.1267870079
 40
0.2708333333
 41
0.0
 71
     1
 72
     1
  1
"
  7
SLDTEXTSTYLE0
 73
     1
 44
1.0
  0
MTEXT
  5
190
330
17E
100
AcDbEntity
  8
DIMS
100
AcDbMText
 10
15.6791447496
 20
11.2308874466
 30
5.1267870079
 40
0.2708333333
 41
0.0
 71
     1
 72
     1
  1
825.50
  7
SLDTEXTSTYLE0
 73
     1
 44
1.0
  0
ENDBLK
  5
180
330
17E
100
AcDbEntity
  8
0
100
AcDbBlockEnd
  0
BLOCK
  5
193
330
192
100
AcDbEntity
  8
0
100
AcDbBlockBegin
  2
_D_8
 70
     0
 10
0.0
 20
0.0
 30
0.0
  3
_D_8
  1

  0
SOLID
  5
195
330
192
100
AcDbEntity
  8
DIMS
100
AcDbTrace
 10
10.1230017124
 20
25.694374088
 30
0.0
 11
10.0825557489
 21
25.431475325
 31
0.0
 12
10.163447676
 22
25.431475325
 32
0.0
 13
10.163447676
 23
25.431475325
 33
0.0
  0
SOLID
  5
196
330
192
100
AcDbEntity
  8
DIMS
100
AcDbTrace
 10
10.1230017124
 20
6.694374088
 30
0.0
 11
10.163447676
 21
6.9572728511
 31
0.0
 12
10.0825557489
 22
6.9572728511
 32
0.0
 13
10.0825557489
 23
6.9572728511
 33
0.0
  0
LINE
  5
197
330
192
100
AcDbEntity
  8
DIMS
100
AcDbLine
 10
9.4960726814
 20
20.7206896601
 30
0.0
 11
9.4358874954
 21
20.7206896601
 31
0.0
  0
LINE
  5
198
330
192
100
AcDbEntity
  8
DIMS
100
AcDbLine
 10
9.4358874954
 20
20.7206896601
 30
0.0
 11
9.4358874954
 21
20.3169473909
 31
0.0
  0
LINE
  5
199
330
192
100
AcDbEntity
  8
DIMS
100
AcDbLine
 10
9.4358874954
 20
20.3169473909
 30
0.0
 11
9.4960726814
 21
20.3169473909
 31
0.0
  0
LINE
  5
19A
330
192
100
AcDbEntity
  8
DIMS
100
AcDbLine
 10
10.7499307067
 20
20.7206896601
 30
0.0
 11
10.8101158927
 21
20.7206896601
 31
0.0
  0
LINE
  5
19B
330
192
100
AcDbEntity
  8
DIMS
100
AcDbLine
 10
10.8101158927
 20
20.7206896601
 30
0.0
 11
10.8101158927
 21
20.3169473909
 31
0.0
  0
LINE
  5
19C
330
192
100
AcDbEntity
  8
DIMS
100
AcDbLine
 10
10.8101158927
 20
20.3169473909
 30
0.0
 11
10.7499307067
 21
20.3169473909
 31
0.0
  0
LINE
  5
19D
330
192
100
AcDbEntity
  8
DIMS
100
AcDbLine
 10
10.1230017124
 20
25.694374088
 30
0.0
 11
10.1230017124
 21
21.1419859483
 31
0.0
  0
LINE
  5
19E
330
192
100
AcDbEntity
  8
DIMS
100
AcDbLine
 10
10.1230017124
 20
6.694374088
 30
0.0
 11
10.1230017124
 21
20.2567622278
 31
0.0
  0
MTEXT
  5
19F
330
192
100
AcDbEntity
  8
DIMS
100
AcDbMText
 10
9.7378165221
 20
21.1299973635
 30
5.1267870079
 40
0.2708333333
 41
0.0
 71
     1
 72
     1
  1
19"
  7
SLDTEXTSTYLE0
 73
     1
 44
1.0
  0
MTEXT
  5
1A0
330
192
100
AcDbEntity
  8
DIMS
100
AcDbMText
 10
9.5713041673
 20
20.6660698945
 30
5.1267870079
 40
0.2708333333
 41
0.0
 71
     1
 72
     1
  1
482.60
  7
SLDTEXTSTYLE0
 73
     1
 44
1.0
  0
ENDBLK
  5
194
330
192
100
AcDbEntity
  8
0
100
AcDbBlockEnd
  0
BLOCK
  5
1A3
330
1A2
100
AcDbEntity
  8
0
100
AcDbBlockBegin
  2
_D_9
 70
     0
 10
0.0
 20
0.0
 30
0.0
  3
_D_9
  1

  0
SOLID
  5
1A5
330
1A2
100
AcDbEntity
  8
DIMS
100
AcDbTrace
 10
11.7971293659
 20
25.069374088
 30
0.0
 11
11.7566834024
 21
24.806475325
 31
0.0
 12
11.8375753294
 22
24.806475325
 32
0.0
 13
11.8375753294
 23
24.806475325
 33
0.0
  0
SOLID
  5
1A6
330
1A2
100
AcDbEntity
  8
DIMS
100
AcDbTrace
 10
11.7971293659
 20
7.319374088
 30
0.0
 11
11.8375753294
 21
7.5822728511
 31
0.0
 12
11.7566834024
 22
7.5822728511
 32
0.0
 13
11.7566834024
 23
7.5822728511
 33
0.0
  0
LINE
  5
1A7
330
1A2
100
AcDbEntity
  8
DIMS
100
AcDbLine
 10
11.6745020767
 20
19.2209907592
 30
0.0
 11
11.9518554577
 21
19.2209907592
 31
0.0
  0
LINE
  5
1A8
330
1A2
100
AcDbEntity
  8
DIMS
100
AcDbLine
 10
11.1702003349
 20
18.7690000314
 30
0.0
 11
11.1100151489
 21
18.7690000314
 31
0.0
  0
LINE
  5
1A9
330
1A2
100
AcDbEntity
  8
DIMS
100
AcDbLine
 10
11.1100151489
 20
18.7690000314
 30
0.0
 11
11.1100151489
 21
18.3652577622
 31
0.0
  0
LINE
  5
1AA
330
1A2
100
AcDbEntity
  8
DIMS
100
AcDbLine
 10
11.1100151489
 20
18.3652577622
 30
0.0
 11
11.1702003349
 21
18.3652577622
 31
0.0
  0
LINE
  5
1AB
330
1A2
100
AcDbEntity
  8
DIMS
100
AcDbLine
 10
12.4240583602
 20
18.7690000314
 30
0.0
 11
12.4842435462
 21
18.7690000314
 31
0.0
  0
LINE
  5
1AC
330
1A2
100
AcDbEntity
  8
DIMS
100
AcDbLine
 10
12.4842435462
 20
18.7690000314
 30
0.0
 11
12.4842435462
 21
18.3652577622
 31
0.0
  0
LINE
  5
1AD
330
1A2
100
AcDbEntity
  8
DIMS
100
AcDbLine
 10
12.4842435462
 20
18.3652577622
 30
0.0
 11
12.4240583602
 21
18.3652577622
 31
0.0
  0
LINE
  5
1AE
330
1A2
100
AcDbEntity
  8
DIMS
100
AcDbLine
 10
11.7971293659
 20
25.069374088
 30
0.0
 11
11.7971293659
 21
19.5590810477
 31
0.0
  0
LINE
  5
1AF
330
1A2
100
AcDbEntity
  8
DIMS
100
AcDbLine
 10
11.7971293659
 20
7.319374088
 30
0.0
 11
11.7971293659
 21
18.3050726541
 31
0.0
  0
MTEXT
  5
1B0
330
1A2
100
AcDbEntity
  8
DIMS
100
AcDbMText
 10
11.2348994608
 20
19.3625809245
 30
5.1267870079
 40
0.2708333333
 41
0.0
 71
     1
 72
     1
  1
17
  7
SLDTEXTSTYLE0
 73
     1
 44
1.0
  0
MTEXT
  5
1B1
330
1A2
100
AcDbEntity
  8
DIMS
100
AcDbMText
 10
11.7128701284
 20
19.5470924446
 30
5.1267870079
 40
0.2708333333
 41
0.0
 71
     1
 72
     1
  1
3
  7
SLDTEXTSTYLE0
 73
     1
 44
1.0
  0
MTEXT
  5
1B2
330
1A2
100
AcDbEntity
  8
DIMS
100
AcDbMText
 10
11.7128701284
 20
19.1783077074
 30
5.1267870079
 40
0.2708333333
 41
0.0
 71
     1
 72
     1
  1
4
  7
SLDTEXTSTYLE0
 73
     1
 44
1.0
  0
MTEXT
  5
1B3
330
1A2
100
AcDbEntity
  8
DIMS
100
AcDbMText
 10
11.9902234819
 20
19.3625809245
 30
5.1267870079
 40
0.2708333333
 41
0.0
 71
     1
 72
     1
  1
"
  7
SLDTEXTSTYLE0
 73
     1
 44
1.0
  0
MTEXT
  5
1B4
330
1A2
100
AcDbEntity
  8
DIMS
100
AcDbMText
 10
11.2454318208
 20
18.7143802659
 30
5.1267870079
 40
0.2708333333
 41
0.0
 71
     1
 72
     1
  1
450.85
  7
SLDTEXTSTYLE0
 73
     1
 44
1.0
  0
ENDBLK
  5
1A4
330
1A2
100
AcDbEntity
  8
0
100
AcDbBlockEnd
  0
BLOCK
  5
1B8
330
1B7
100
AcDbEntity
  8
0
100
AcDbBlockBegin
  2
_D_10
 70
     0
 10
0.0
 20
0.0
 30
0.0
  3
_D_10
  1

  0
SOLID
  5
1BA
330
1B7
100
AcDbEntity
  8
DIMS
100
AcDbTrace
 10
5.4889295973
 20
25.0918170438
 30
0.0
 11
5.6383737102
 21
24.8717759279
 31
0.0
 12
5.6976025259
 22
24.9268708574
 32
0.0
 13
5.6976025259
 23
24.9268708574
 33
0.0
  0
LINE
  5
1BB
330
1B7
100
AcDbEntity
  8
DIMS
100
AcDbLine
 10
8.2368903491
 20
23.2099734894
 30
0.0
 11
8.5142437301
 21
23.2099734894
 31
0.0
  0
LINE
  5
1BC
330
1B7
100
AcDbEntity
  8
DIMS
100
AcDbLine
 10
7.8028046829
 20
22.7579827617
 30
0.0
 11
7.7426194969
 21
22.7579827617
 31
0.0
  0
LINE
  5
1BD
330
1B7
100
AcDbEntity
  8
DIMS
100
AcDbLine
 10
7.7426194969
 20
22.7579827617
 30
0.0
 11
7.7426194969
 21
22.3542404925
 31
0.0
  0
LINE
  5
1BE
330
1B7
100
AcDbEntity
  8
DIMS
100
AcDbLine
 10
7.7426194969
 20
22.3542404925
 30
0.0
 11
7.8028046829
 21
22.3542404925
 31
0.0
  0
LINE
  5
1BF
330
1B7
100
AcDbEntity
  8
DIMS
100
AcDbLine
 10
8.8560454124
 20
22.7579827617
 30
0.0
 11
8.9162305984
 21
22.7579827617
 31
0.0
  0
LINE
  5
1C0
330
1B7
100
AcDbEntity
  8
DIMS
100
AcDbLine
 10
8.9162305984
 20
22.7579827617
 30
0.0
 11
8.9162305984
 21
22.3542404925
 31
0.0
  0
LINE
  5
1C1
330
1B7
100
AcDbEntity
  8
DIMS
100
AcDbLine
 10
8.9162305984
 20
22.3542404925
 30
0.0
 11
8.8560454124
 21
22.3542404925
 31
0.0
  0
LINE
  5
1C2
330
1B7
100
AcDbEntity
  8
DIMS
100
AcDbLine
 10
5.4889295973
 20
25.0918170438
 30
0.0
 11
7.4474806062
 21
22.986311909
 31
0.0
  0
LINE
  5
1C3
330
1B7
100
AcDbEntity
  8
DIMS
100
AcDbLine
 10
7.4474806062
 20
22.986311909
 30
0.0
 11
7.6974806062
 21
22.986311909
 31
0.0
  0
MTEXT
  5
1C4
330
1B7
100
AcDbEntity
  8
DIMS
100
AcDbMText
 10
7.7371025519
 20
23.3515636547
 30
5.1267870079
 40
0.2708333333
 41
0.0
 71
     1
 72
     1
  1
R2
  7
SLDTEXTSTYLE0
 73
     1
 44
1.0
  0
MTEXT
  5
1C5
330
1B7
100
AcDbEntity
  8
DIMS
100
AcDbMText
 10
8.2752584009
 20
23.5360751749
 30
5.1267870079
 40
0.2708333333
 41
0.0
 71
     1
 72
     1
  1
1
  7
SLDTEXTSTYLE0
 73
     1
 44
1.0
  0
MTEXT
  5
1C6
330
1B7
100
AcDbEntity
  8
DIMS
100
AcDbMText
 10
8.2752584009
 20
23.1672904376
 30
5.1267870079
 40
0.2708333333
 41
0.0
 71
     1
 72
     1
  1
4
  7
SLDTEXTSTYLE0
 73
     1
 44
1.0
  0
MTEXT
  5
1C7
330
1B7
100
AcDbEntity
  8
DIMS
100
AcDbMText
 10
8.552611791
 20
23.3515636547
 30
5.1267870079
 40
0.2708333333
 41
0.0
 71
     1
 72
     1
  1
"
  7
SLDTEXTSTYLE0
 73
     1
 44
1.0
  0
MTEXT
  5
1C8
330
1B7
100
AcDbEntity
  8
DIMS
100
AcDbMText
 10
7.8780361688
 20
22.7033629961
 30
5.1267870079
 40
0.2708333333
 41
0.0
 71
     1
 72
     1
  1
57.15
  7
SLDTEXTSTYLE0
 73
     1
 44
1.0
  0
ENDBLK
  5
1B9
330
1B7
100
AcDbEntity
  8
0
100
AcDbBlockEnd
  0
BLOCK
  5
1CB
330
1CA
100
AcDbEntity
  8
0
100
AcDbBlockBegin
  2
_D_11
 70
     0
 10
0.0
 20
0.0
 30
0.0
  3
_D_11
  1

  0
SOLID
  5
1CD
330
1CA
100
AcDbEntity
  8
DIMS
100
AcDbTrace
 10
5.7807129427
 20
7.8949227967
 30
0.0
 11
6.0075549487
 21
8.0338268639
 31
0.0
 12
5.9553136334
 22
8.0955872788
 32
0.0
 13
5.9553136334
 23
8.0955872788
 33
0.0
  0
LINE
  5
1CE
330
1CA
100
AcDbEntity
  8
DIMS
100
AcDbLine
 10
8.1042666403
 20
9.4162715477
 30
0.0
 11
8.3816200212
 21
9.4162715477
 31
0.0
  0
LINE
  5
1CF
330
1CA
100
AcDbEntity
  8
DIMS
100
AcDbLine
 10
7.670180974
 20
8.96428082
 30
0.0
 11
7.609995788
 21
8.96428082
 31
0.0
  0
LINE
  5
1D0
330
1CA
100
AcDbEntity
  8
DIMS
100
AcDbLine
 10
7.609995788
 20
8.96428082
 30
0.0
 11
7.609995788
 21
8.5605385507
 31
0.0
  0
LINE
  5
1D1
330
1CA
100
AcDbEntity
  8
DIMS
100
AcDbLine
 10
7.609995788
 20
8.5605385507
 30
0.0
 11
7.670180974
 21
8.5605385507
 31
0.0
  0
LINE
  5
1D2
330
1CA
100
AcDbEntity
  8
DIMS
100
AcDbLine
 10
8.7234217036
 20
8.96428082
 30
0.0
 11
8.7836068895
 21
8.96428082
 31
0.0
  0
LINE
  5
1D3
330
1CA
100
AcDbEntity
  8
DIMS
100
AcDbLine
 10
8.7836068895
 20
8.96428082
 30
0.0
 11
8.7836068895
 21
8.5605385507
 31
0.0
  0
LINE
  5
1D4
330
1CA
100
AcDbEntity
  8
DIMS
100
AcDbLine
 10
8.7836068895
 20
8.5605385507
 30
0.0
 11
8.7234217036
 21
8.5605385507
 31
0.0
  0
LINE
  5
1D5
330
1CA
100
AcDbEntity
  8
DIMS
100
AcDbLine
 10
5.7807129427
 20
7.8949227967
 30
0.0
 11
7.3148568974
 21
9.1926099673
 31
0.0
  0
LINE
  5
1D6
330
1CA
100
AcDbEntity
  8
DIMS
100
AcDbLine
 10
7.3148568974
 20
9.1926099673
 30
0.0
 11
7.5648568974
 21
9.1926099673
 31
0.0
  0
MTEXT
  5
1D7
330
1CA
100
AcDbEntity
  8
DIMS
100
AcDbMText
 10
7.604478843
 20
9.557861713
 30
5.1267870079
 40
0.2708333333
 41
0.0
 71
     1
 72
     1
  1
R1
  7
SLDTEXTSTYLE0
 73
     1
 44
1.0
  0
MTEXT
  5
1D8
330
1CA
100
AcDbEntity
  8
DIMS
100
AcDbMText
 10
8.142634692
 20
9.7423732332
 30
5.1267870079
 40
0.2708333333
 41
0.0
 71
     1
 72
     1
  1
5
  7
SLDTEXTSTYLE0
 73
     1
 44
1.0
  0
MTEXT
  5
1D9
330
1CA
100
AcDbEntity
  8
DIMS
100
AcDbMText
 10
8.142634692
 20
9.3735884959
 30
5.1267870079
 40
0.2708333333
 41
0.0
 71
     1
 72
     1
  1
8
  7
SLDTEXTSTYLE0
 73
     1
 44
1.0
  0
MTEXT
  5
1DA
330
1CA
100
AcDbEntity
  8
DIMS
100
AcDbMText
 10
8.4199880822
 20
9.557861713
 30
5.1267870079
 40
0.2708333333
 41
0.0
 71
     1
 72
     1
  1
"
  7
SLDTEXTSTYLE0
 73
     1
 44
1.0
  0
MTEXT
  5
1DB
330
1CA
100
AcDbEntity
  8
DIMS
100
AcDbMText
 10
7.7454124599
 20
8.9096610544
 30
5.1267870079
 40
0.2708333333
 41
0.0
 71
     1
 72
     1
  1
41.28
  7
SLDTEXTSTYLE0
 73
     1
 44
1.0
  0
ENDBLK
  5
1CC
330
1CA
100
AcDbEntity
  8
0
100
AcDbBlockEnd
  0
BLOCK
  5
1DD
330
1DC
100
AcDbEntity
  8
0
100
AcDbBlockBegin
  2
SW_NOTE_0
 70
     0
 10
0.0
 20
0.0
 30
0.0
  3
SW_NOTE_0
  1

  0
MTEXT
  5
1DF
330
1DC
100
AcDbEntity
  8
NOTES
 62
     0
100
AcDbMText
 10
-0.891101601
 20
0.6892308827
 30
0.0
 40
0.2083333333
 41
0.0
 71
     2
 72
     1
  1
TEMPLATE
  7
SLDTEXTSTYLE0
 73
     1
 44
1.0
  0
MTEXT
  5
1E0
330
1DC
100
AcDbEntity
  8
NOTES
 62
     0
100
AcDbMText
 10
-0.8879669308
 20
0.4114531083
 30
0.0
 40
0.2083333333
 41
0.0
 71
     2
 72
     1
  1
CENTERLINE
  7
SLDTEXTSTYLE0
 73
     1
 44
1.0
  0
MTEXT
  5
1E1
330
1DC
100
AcDbEntity
  8
NOTES
 62
     0
100
AcDbMText
 10
-0.8878463927
 20
-0.1441024405
 30
0.0
 40
0.2083333333
 41
0.0
 71
     2
 72
     1
  1
PLANTILLA
  7
SLDTEXTSTYLE0
 73
     1
 44
1.0
  0
MTEXT
  5
1E2
330
1DC
100
AcDbEntity
  8
NOTES
 62
     0
100
AcDbMText
 10
-0.8908604582
 20
-0.4218802149
 30
0.0
 40
0.2083333333
 41
0.0
 71
     2
 72
     1
  1
CENTRAL
  7
SLDTEXTSTYLE0
 73
     1
 44
1.0
  0
ENDBLK
  5
1DE
330
1DC
100
AcDbEntity
  8
0
100
AcDbBlockEnd
  0
BLOCK
  5
1E8
330
1E7
100
AcDbEntity
  8
0
100
AcDbBlockBegin
  2
SW_NOTE_1
 70
     0
 10
0.0
 20
0.0
 30
0.0
  3
SW_NOTE_1
  1

  0
MTEXT
  5
1EA
330
1E7
100
AcDbEntity
  8
NOTES
 62
     0
100
AcDbMText
 10
0.0061274646
 20
0.2707572606
 30
0.0
 40
0.2083333333
 41
0.0
 71
     3
 72
     1
  1
1/2" REVEAL
  7
SLDTEXTSTYLE0
 73
     1
 44
1.0
  0
MTEXT
  5
1EB
330
1E7
100
AcDbEntity
  8
NOTES
 62
     0
100
AcDbMText
 10
0.0110947992
 20
-0.0070205139
 30
0.0
 40
0.2083333333
 41
0.0
 71
     3
 72
     1
  1
[12.7 REVELADO]
  7
SLDTEXTSTYLE0
 73
     1
 44
1.0
  0
ENDBLK
  5
1E9
330
1E7
100
AcDbEntity
  8
0
100
AcDbBlockEnd
  0
BLOCK
  5
1EF
330
1EE
100
AcDbEntity
  8
0
100
AcDbBlockBegin
  2
SW_NOTE_2
 70
     0
 10
0.0
 20
0.0
 30
0.0
  3
SW_NOTE_2
  1

  0
MTEXT
  5
1F1
330
1EE
100
AcDbEntity
  8
NOTES
 62
     0
100
AcDbMText
 10
6.8619791667
 20
1.0742231165
 30
0.0
 40
0.8333333333
 41
0.0
 71
     2
 72
     1
  1
TEMPLATE #: 1000001448
  7
SLDTEXTSTYLE0
 73
     1
 44
1.0
  0
MTEXT
  5
1F2
330
1EE
100
AcDbEntity
  8
NOTES
 62
     0
100
AcDbMText
 10
6.862031686
 20
-0.0184439723
 30
0.0
 40
0.4166666667
 41
0.0
 71
     2
 72
     1
  1
DUAL RIGHT UNDERMOUNT TEMPLATE 35" X 20" W/1-3/4" RADIUS
  7
SLDTEXTSTYLE0
 73
     1
 44
1.0
  0
MTEXT
  5
1F3
330
1EE
100
AcDbEntity
  8
NOTES
 62
     0
100
AcDbMText
 10
6.8202648951
 20
-0.5739995303
 30
0.0
 40
0.4166666667
 41
0.0
 71
     2
 72
     1
  1
*SMALL BOWL ON RIGHT
  7
SLDTEXTSTYLE0
 73
     1
 44
1.0
  0
ENDBLK
  5
1F0
330
1EE
100
AcDbEntity
  8
0
100
AcDbBlockEnd
  0
BLOCK
  5
1F6
330
1F5
100
AcDbEntity
  8
0
100
AcDbBlockBegin
  2
SW_NOTE_3
 70
     0
 10
0.0
 20
0.0
 30
0.0
  3
SW_NOTE_3
  1

  0
MTEXT
  5
1F8
330
1F5
100
AcDbEntity
  8
NOTES
 62
     0
100
AcDbMText
 10
0.0
 20
0.2685557791
 30
0.0
 40
0.2083333333
 41
0.0
 71
     1
 72
     1
  1
NOTES:
  7
SLDTEXTSTYLE0
 73
     1
 44
1.0
  0
MTEXT
  5
1F9
330
1F5
100
AcDbEntity
  8
NOTES
 62
     0
100
AcDbMText
 10
0.3937007786
 20
-0.2869997697
 30
0.0
 40
0.2083333333
 41
0.0
 71
     1
 72
     1
  1
THOROUGHLY READ ALL  INSTALLATION INSTRUCTIONS
  7
SLDTEXTSTYLE0
 73
     1
 44
1.0
  0
MTEXT
  5
1FA
330
1F5
100
AcDbEntity
  8
NOTES
 62
     0
100
AcDbMText
 10
0.0
 20
-0.2869997697
 30
0.0
 40
0.2083333333
 41
0.0
 71
     1
 72
     1
  1
1.
  7
SLDTEXTSTYLE0
 73
     1
 44
1.0
  0
MTEXT
  5
1FB
330
1F5
100
AcDbEntity
  8
NOTES
 62
     0
100
AcDbMText
 10
0.0
 20
-0.5647775441
 30
0.0
 40
0.2083333333
 41
0.0
 71
     1
 72
     1
  1
BEFORE CUTTING COUNTERTOP.
  7
SLDTEXTSTYLE0
 73
     1
 44
1.0
  0
MTEXT
  5
1FC
330
1F5
100
AcDbEntity
  8
NOTES
 62
     0
100
AcDbMText
 10
0.0
 20
-1.120333093
 30
0.0
 40
0.2083333333
 41
0.0
 71
     1
 72
     1
  1
2.  DIMENSIONS ARE IN INCHES [MM].
  7
SLDTEXTSTYLE0
 73
     1
 44
1.0
  0
MTEXT
  5
1FD
330
1F5
100
AcDbEntity
  8
NOTES
 62
     0
100
AcDbMText
 10
0.0
 20
-1.9536664162
 30
0.0
 40
0.2083333333
 41
0.0
 71
     1
 72
     1
  1
PLEASE CHECK TEMPLATE AGAINST PHYSICAL SINK FOR MOST ACCURATE CUT.
  7
SLDTEXTSTYLE0
 73
     1
 44
1.0
  0
MTEXT
  5
1FE
330
1F5
100
AcDbEntity
  8
NOTES
 62
     0
100
AcDbMText
 10
0.0
 20
-3.0647775139
 30
0.0
 40
0.2083333333
 41
0.0
 71
     1
 72
     1
  1
NOTAS:
  7
SLDTEXTSTYLE0
 73
     1
 44
1.0
  0
MTEXT
  5
1FF
330
1F5
100
AcDbEntity
  8
NOTES
 62
     0
100
AcDbMText
 10
0.0
 20
-3.6203330628
 30
0.0
 40
0.2083333333
 41
0.0
 71
     1
 72
     1
  1
1.  LEA ATENTAMENTE LAS INSTRUCCIONES DE INSTALACIÓN ANTES DE CORTAR LA ENCIMERA.
  7
SLDTEXTSTYLE0
 73
     1
 44
1.0
  0
MTEXT
  5
200
330
1F5
100
AcDbEntity
  8
NOTES
 62
     0
100
AcDbMText
 10
0.0
 20
-4.1758886116
 30
0.0
 40
0.2083333333
 41
0.0
 71
     1
 72
     1
  1
2.  DIMENSIONES EN PULGADAS [MM].
  7
SLDTEXTSTYLE0
 73
     1
 44
1.0
  0
MTEXT
  5
201
330
1F5
100
AcDbEntity
  8
NOTES
 62
     0
100
AcDbMText
 10
0.0
 20
-5.0092219349
 30
0.0
 40
0.2083333333
 41
0.0
 71
     1
 72
     1
  1
POR FAVOR COMPRUEBE PLANTILLA CONTRA FREGADERO FÍSICO PARA CORTE MÁS EXACTO.
  7
SLDTEXTSTYLE0
 73
     1
 44
1.0
  0
ENDBLK
  5
1F7
330
1F5
100
AcDbEntity
  8
0
100
AcDbBlockEnd
  0
BLOCK
  5
205
330
204
100
AcDbEntity
  8
0
100
AcDbBlockBegin
  2
SW_NOTE_4
 70
     0
 10
0.0
 20
0.0
 30
0.0
  3
SW_NOTE_4
  1

  0
MTEXT
  5
207
330
204
100
AcDbEntity
  8
NOTES
 62
     0
100
AcDbMText
 10
0.0218183113
 20
0.2705272709
 30
0.0
 40
0.2083333333
 41
0.0
 71
     1
 72
     1
  1
1/8" OVERHANG
  7
SLDTEXTSTYLE0
 73
     1
 44
1.0
  0
MTEXT
  5
208
330
204
100
AcDbEntity
  8
NOTES
 62
     0
100
AcDbMText
 10
0.0218183113
 20
-0.0072505035
 30
0.0
 40
0.2083333333
 41
0.0
 71
     1
 72
     1
  1
[3.2 SOBRESALIENTE]
  7
SLDTEXTSTYLE0
 73
     1
 44
1.0
  0
ENDBLK
  5
206
330
204
100
AcDbEntity
  8
0
100
AcDbBlockEnd
  0
ENDSEC
  0
SECTION
  2
ENTITIES
  0
ARC
  5
DD
330
1F
100
AcDbEntity
  8
0
  6
Continuous
 62
     7
100
AcDbCircle
 10
36.271388963
 20
21.444374088
 30
0.0
 40
2.249999999999996
100
AcDbArc
 50
0.0
 51
90.0
  0
ARC
  5
DE
330
1F
100
AcDbEntity
  8
0
  6
Continuous
 62
     7
100
AcDbCircle
 10
23.521388963
 20
23.444374088
 30
0.0
 40
2.250000000000003
100
AcDbArc
 50
30.0
 51
90.0
  0
ARC
  5
DF
330
1F
100
AcDbEntity
  8
0
  6
Continuous
 62
     7
100
AcDbCircle
 10
26.9854905781
 20
25.444374088
 30
0.0
 40
1.750000000000004
100
AcDbArc
 50
210.0
 51
270.0
  0
ARC
  5
E0
330
1F
100
AcDbEntity
  8
0
  6
Continuous
 62
     7
100
AcDbCircle
 10
36.271388963
 20
8.944374088
 30
0.0
 40
2.250000000000007
100
AcDbArc
 50
270.0
 51
0.0
  0
ARC
  5
E1
330
1F
100
AcDbEntity
  8
0
  6
CENTERX2
 62
     7
100
AcDbCircle
 10
36.271388963
 20
21.444374088
 30
0.0
 40
1.625000000000004
100
AcDbArc
 50
0.0
 51
90.0
  0
ARC
  5
E2
330
1F
100
AcDbEntity
  8
0
  6
CENTERX2
 62
     7
100
AcDbCircle
 10
23.521388963
 20
23.444374088
 30
0.0
 40
1.624999999999999
100
AcDbArc
 50
30.0
 51
90.0
  0
ARC
  5
E3
330
1F
100
AcDbEntity
  8
0
  6
CENTERX2
 62
     7
100
AcDbCircle
 10
36.271388963
 20
8.944374088
 30
0.0
 40
1.625
100
AcDbArc
 50
270.0
 51
0.0
  0
ARC
  5
E4
330
1F
100
AcDbEntity
  8
0
  6
CENTERX2
 62
     7
100
AcDbCircle
 10
26.9854905781
 20
25.444374088
 30
0.0
 40
2.374999999999998
100
AcDbArc
 50
210.0
 51
270.0
  0
ARC
  5
E5
330
1F
100
AcDbEntity
  8
0
  6
Continuous
 62
     7
100
AcDbCircle
 10
7.021388963
 20
8.944374088
 30
0.0
 40
2.249999999999999
100
AcDbArc
 50
180.0
 51
270.0
  0
ARC
  5
E6
330
1F
100
AcDbEntity
  8
0
  6
Continuous
 62
     7
100
AcDbCircle
 10
7.021388963
 20
23.444374088
 30
0.0
 40
2.250000000000001
100
AcDbArc
 50
90.0
 51
180.0
  0
ARC
  5
E7
330
1F
100
AcDbEntity
  8
0
  6
CENTERX2
 62
     7
100
AcDbCircle
 10
7.021388963
 20
8.944374088
 30
0.0
 40
1.625
100
AcDbArc
 50
180.0
 51
270.0
  0
ARC
  5
E8
330
1F
100
AcDbEntity
  8
0
  6
CENTERX2
 62
     7
100
AcDbCircle
 10
7.021388963
 20
23.444374088
 30
0.0
 40
1.625000000000003
100
AcDbArc
 50
90.0
 51
180.0
  0
LINE
  5
E9
330
1F
100
AcDbEntity
  8
0
  6
Continuous
 62
     7
100
AcDbLine
 10
36.271388963
 20
23.694374088
 30
0.0
 11
26.9854905781
 21
23.694374088
 31
0.0
  0
LINE
  5
EA
330
1F
100
AcDbEntity
  8
0
  6
Continuous
 62
     7
100
AcDbLine
 10
38.521388963
 20
8.944374088
 30
0.0
 11
38.521388963
 21
21.444374088
 31
0.0
  0
LINE
  5
EB
330
1F
100
AcDbEntity
  8
0
  6
CENTERX2
 62
     7
100
AcDbLine
 10
36.271388963
 20
23.069374088
 30
0.0
 11
26.9854905781
 21
23.069374088
 31
0.0
  0
LINE
  5
EC
330
1F
100
AcDbEntity
  8
0
  6
CENTERX2
 62
     7
100
AcDbLine
 10
37.896388963
 20
8.944374088
 30
0.0
 11
37.896388963
 21
21.444374088
 31
0.0
  0
LINE
  5
ED
330
1F
100
AcDbEntity
  8
0
  6
Continuous
 62
     7
100
AcDbLine
 10
7.021388963
 20
6.694374088
 30
0.0
 11
36.271388963
 21
6.694374088
 31
0.0
  0
LINE
  5
EE
330
1F
100
AcDbEntity
  8
0
  6
Continuous
 62
     7
100
AcDbLine
 10
23.521388963
 20
25.694374088
 30
0.0
 11
7.021388963
 21
25.694374088
 31
0.0
  0
LINE
  5
EF
330
1F
100
AcDbEntity
  8
0
  6
Continuous
 62
     7
100
AcDbLine
 10
4.771388963
 20
23.444374088
 30
0.0
 11
4.771388963
 21
8.944374088
 31
0.0
  0
LINE
  5
F0
330
1F
100
AcDbEntity
  8
0
  6
CENTERX2
 62
     7
100
AcDbLine
 10
7.021388963
 20
7.319374088
 30
0.0
 11
36.271388963
 21
7.319374088
 31
0.0
  0
LINE
  5
F1
330
1F
100
AcDbEntity
  8
0
  6
CENTERX2
 62
     7
100
AcDbLine
 10
23.521388963
 20
25.069374088
 30
0.0
 11
7.021388963
 21
25.069374088
 31
0.0
  0
LINE
  5
F2
330
1F
100
AcDbEntity
  8
0
  6
CENTERX2
 62
     7
100
AcDbLine
 10
5.396388963
 20
23.444374088
 30
0.0
 11
5.396388963
 21
8.944374088
 31
0.0
  0
LINE
  5
F3
330
1F
100
AcDbEntity
  8
OBJECTS
  6
CENTERX2
100
AcDbLine
 10
4.771388963
 20
16.194374088
 30
0.0
 11
6.771388963
 21
16.194374088
 31
0.0
  0
LINE
  5
F4
330
1F
100
AcDbEntity
  8
OBJECTS
  6
CENTERX2
100
AcDbLine
 10
21.646388963
 20
6.694374088
 30
0.0
 11
21.646388963
 21
8.694374088
 31
0.0
  0
LINE
  5
F5
330
1F
100
AcDbEntity
  8
OBJECTS
  6
CENTERX2
100
AcDbLine
 10
36.521388963
 20
16.194374088
 30
0.0
 11
38.521388963
 21
16.194374088
 31
0.0
  0
LINE
  5
F6
330
1F
100
AcDbEntity
  8
OBJECTS
  6
CENTERX2
100
AcDbLine
 10
21.646388963
 20
23.694374088
 30
0.0
 11
21.646388963
 21
25.694374088
 31
0.0
  0
INSERT
  5
F7
330
1F
100
AcDbEntity
  8
BLOCKS
100
AcDbBlockReference
  2
REVEAL- .500
 10
-3.0116863235
 20
-5.0813545301
 30
0.0
  0
INSERT
  5
F8
330
1F
100
AcDbEntity
  8
BLOCKS
100
AcDbBlockReference
  2
OVERHANG - .125
 10
9.4612098337
 20
-18.3141955934
 30
0.0
  0
DIMENSION
  5
F9
330
1F
100
AcDbEntity
  8
DIMS
100
AcDbDimension
  2
_D
 10
26.9854905781
 20
25.444374088
 30
0.0
 11
26.9569987404
 21
25.3493430164
 31
0.0
 70
   164
  1
<>
 71
     1
 42
-1.0
  3
SLDDIMSTYLE0
100
AcDbRadialDimension
 15
26.4829102622
 25
23.768094569
 35
0.0
 40
0.0
  0
DIMENSION
  5
10C
330
1F
100
AcDbEntity
  8
DIMS
100
AcDbDimension
  2
_D_1
 10
23.521388963
 20
23.444374088
 30
0.0
 11
26.5008219808
 21
27.5098732011
 31
0.0
 70
   164
  1
<>
 71
     1
 42
-1.0
  3
SLDDIMSTYLE0
100
AcDbRadialDimension
 15
24.5400772193
 25
25.4505580867
 35
0.0
 40
0.0
  0
DIMENSION
  5
11F
330
1F
100
AcDbEntity
  8
DIMS
100
AcDbDimension
  2
_D_2
 10
26.9854905781
 20
25.444374088
 30
0.0
 11
23.7955212351
 21
21.3936955489
 31
0.0
 70
   164
  1
<>
 71
     1
 42
-1.0
  3
SLDDIMSTYLE0
100
AcDbRadialDimension
 15
25.7952695632
 25
23.3891371344
 35
0.0
 40
0.0
  0
DIMENSION
  5
132
330
1F
100
AcDbEntity
  8
DIMS
100
AcDbDimension
  2
_D_3
 10
23.521388963
 20
23.444374088
 30
0.0
 11
23.5421238318
 21
23.4785037401
 31
0.0
 70
   164
  1
<>
 71
     1
 42
-1.0
  3
SLDDIMSTYLE0
100
AcDbRadialDimension
 15
24.3651190676
 25
24.8331665529
 35
0.0
 40
0.0
  0
DIMENSION
  5
144
330
1F
100
AcDbEntity
  8
DIMS
100
AcDbDimension
  2
_D_4
 10
35.0232747541
 20
6.694374088
 30
0.0
 11
35.0232747541
 21
20.2288087922
 31
0.0
 70
   160
  1
<>
 71
     2
 42
-1.0
  3
SLDDIMSTYLE1
100
AcDbAlignedDimension
 13
36.271388963
 23
23.694374088
 33
0.0
 14
36.271388963
 24
6.694374088
 34
0.0
 50
90.0
100
AcDbRotatedDimension
  0
DIMENSION
  5
155
330
1F
100
AcDbEntity
  8
DIMS
100
AcDbDimension
  2
_D_5
 10
32.5497187806
 20
7.319374088
 30
0.0
 11
32.5497187806
 21
17.451031048
 31
0.0
 70
   160
  1
<>
 71
     2
 42
-1.0
  3
SLDDIMSTYLE1
100
AcDbAlignedDimension
 13
36.271388963
 23
23.069374088
 33
0.0
 14
36.271388963
 24
7.319374088
 34
0.0
 50
90.0
100
AcDbRotatedDimension
  0
DIMENSION
  5
169
330
1F
100
AcDbEntity
  8
DIMS
100
AcDbDimension
  2
_D_6
 10
4.771388963
 20
10.0355363056
 30
0.0
 11
20.1701514226
 21
10.0355363056
 31
0.0
 70
   160
  1
<>
 71
     2
 42
-1.0
  3
SLDDIMSTYLE1
100
AcDbAlignedDimension
 13
38.521388963
 23
8.944374088
 33
0.0
 14
4.771388963
 24
8.944374088
 34
0.0
 50
0.0
100
AcDbRotatedDimension
  0
DIMENSION
  5
17D
330
1F
100
AcDbEntity
  8
DIMS
100
AcDbDimension
  2
_D_7
 10
5.396388963
 20
11.4485840317
 30
0.0
 11
16.2308422946
 21
11.4485840317
 31
0.0
 70
   160
  1
<>
 71
     2
 42
-1.0
  3
SLDDIMSTYLE1
100
AcDbAlignedDimension
 13
37.896388963
 23
8.944374088
 33
0.0
 14
5.396388963
 24
8.944374088
 34
0.0
 50
0.0
100
AcDbRotatedDimension
  0
DIMENSION
  5
191
330
1F
100
AcDbEntity
  8
DIMS
100
AcDbDimension
  2
_D_8
 10
10.1230017124
 20
6.694374088
 30
0.0
 11
10.1230017124
 21
20.699374088
 31
0.0
 70
   160
  1
<>
 71
     2
 42
-1.0
  3
SLDDIMSTYLE1
100
AcDbAlignedDimension
 13
7.021388963
 23
25.694374088
 33
0.0
 14
7.021388963
 24
6.694374088
 34
0.0
 50
90.0
100
AcDbRotatedDimension
  0
DIMENSION
  5
1A1
330
1F
100
AcDbEntity
  8
DIMS
100
AcDbDimension
  2
_D_9
 10
11.7971293659
 20
7.319374088
 30
0.0
 11
11.7971293659
 21
18.9320768509
 31
0.0
 70
   160
  1
<>
 71
     2
 42
-1.0
  3
SLDDIMSTYLE1
100
AcDbAlignedDimension
 13
7.021388963
 23
25.069374088
 33
0.0
 14
7.021388963
 24
7.319374088
 34
0.0
 50
90.0
100
AcDbRotatedDimension
  0
DIMENSION
  5
1B5
330
1F
100
AcDbEntity
  8
DIMS
100
AcDbDimension
  2
_D_10
 10
7.021388963
 20
23.444374088
 30
0.0
 11
8.329425066
 21
22.9210595812
 31
0.0
 70
   164
  1
<>
 71
     1
 42
-1.0
  3
SLDDIMSTYLE2
100
AcDbRadialDimension
 15
5.4889295973
 25
25.0918170438
 35
0.0
 40
0.0
  0
DIMENSION
  5
1C9
330
1F
100
AcDbEntity
  8
DIMS
100
AcDbDimension
  2
_D_11
 10
7.021388963
 20
8.944374088
 30
0.0
 11
8.1968013571
 21
9.1273576394
 31
0.0
 70
   164
  1
<>
 71
     1
 42
-1.0
  3
SLDDIMSTYLE2
100
AcDbRadialDimension
 15
5.7807129427
 25
7.8949227967
 35
0.0
 40
0.0
  0
INSERT
  5
1E3
102
{ACAD_REACTORS
330
1E5
330
1E6
102
}
330
1F
100
AcDbEntity
  8
NOTES
100
AcDbBlockReference
  2
SW_NOTE_0
 10
31.0895770761
 20
12.9745379766
 30
0.0
  0
LEADER
  5
1E5
330
1F
100
AcDbEntity
  8
NOTES
100
AcDbLeader
  3
SLDDIMSTYLE3
 73
     2
 76
     3
 10
37.2535174704
 20
16.194374088
 30
0.0
 10
31.3395770761
 20
12.9745379766
 30
0.0
 10
31.0895770761
 20
12.9745379766
 30
0.0
340
1E3
  0
LEADER
  5
1E6
330
1F
100
AcDbEntity
  8
NOTES
100
AcDbLeader
  3
SLDDIMSTYLE3
 73
     2
 76
     3
 10
21.646388963
 20
7.8872775705
 30
0.0
 10
29.0414062289
 20
12.9745379766
 30
0.0
 10
29.2914062289
 20
12.9745379766
 30
0.0
340
1E3
212
-1.798170847200801
222
0.0
232
0.0
  0
INSERT
  5
1EC
102
{ACAD_REACTORS
330
1ED
102
}
330
1F
100
AcDbEntity
  8
NOTES
100
AcDbBlockReference
  2
SW_NOTE_1
 10
17.3889700643
 20
22.9794085018
 30
0.0
  0
LEADER
  5
1ED
330
1F
100
AcDbEntity
  8
NOTES
100
AcDbLeader
  3
SLDDIMSTYLE3
 73
     2
 76
     3
 10
19.0925317291
 20
25.694374088
 30
0.0
 10
17.6389700643
 20
22.9794085018
 30
0.0
 10
17.3889700643
 20
22.9794085018
 30
0.0
340
1EC
  0
INSERT
  5
1F4
330
1F
100
AcDbEntity
  8
NOTES
100
AcDbBlockReference
  2
SW_NOTE_2
 10
14.7794253817
 20
14.8441804345
 30
0.0
  0
INSERT
  5
202
330
1F
100
AcDbEntity
  8
NOTES
100
AcDbBlockReference
  2
SW_NOTE_3
 10
13.5729286476
 20
21.8364476593
 30
0.0
  0
MTEXT
  5
203
330
1F
100
AcDbEntity
  8
NOTES
100
AcDbMText
 10
32.6938424619
 20
7.969164062
 30
0.0
 40
0.2083333333
 41
0.0
 71
     1
 72
     1
  1
REV_F  8/15
  7
SLDTEXTSTYLE0
 73
     1
 44
1.0
  0
INSERT
  5
209
102
{ACAD_REACTORS
330
20A
102
}
330
1F
100
AcDbEntity
  8
NOTES
100
AcDbBlockReference
  2
SW_NOTE_4
 10
28.5067105014
 20
9.3441928006
 30
0.0
  0
LEADER
  5
20A
330
1F
100
AcDbEntity
  8
NOTES
100
AcDbLeader
  3
SLDDIMSTYLE3
 73
     2
 76
     3
 10
27.3286442224
 20
7.319374088
 30
0.0
 10
28.2567105014
 20
9.3441928006
 30
0.0
 10
28.5067105014
 20
9.3441928006
 30
0.0
340
209
  0
ENDSEC
  0
SECTION
  2
OBJECTS
  0
DICTIONARY
  5
C
330
0
100
AcDbDictionary
281
     1
  3
ACAD_GROUP
350
D
  3
ACAD_LAYOUT
350
1A
  3
ACAD_MLINESTYLE
350
17
  3
ACAD_PLOTSETTINGS
350
19
  3
ACAD_PLOTSTYLENAME
350
E
  0
DICTIONARY
  5
D
102
{ACAD_REACTORS
330
C
102
}
330
C
100
AcDbDictionary
281
     1
  0
DICTIONARY
  5
1A
102
{ACAD_REACTORS
330
C
102
}
330
C
100
AcDbDictionary
281
     1
  3
Layout1
350
1E
  3
Layout2
350
26
  3
Model
350
22
  0
DICTIONARY
  5
17
102
{ACAD_REACTORS
330
C
102
}
330
C
100
AcDbDictionary
281
     1
  3
Standard
350
18
  0
DICTIONARY
  5
19
102
{ACAD_REACTORS
330
C
102
}
330
C
100
AcDbDictionary
281
     1
  0
ACDBDICTIONARYWDFLT
  5
E
102
{ACAD_REACTORS
330
C
102
}
330
C
100
AcDbDictionary
281
     1
  3
Normal
350
F
100
AcDbDictionaryWithDefault
340
F
  0
LAYOUT
  5
1E
102
{ACAD_REACTORS
330
1A
102
}
330
1A
100
AcDbPlotSettings
  1

  2
none_device
  4

  6

 40
0.0
 41
0.0
 42
0.0
 43
0.0
 44
0.0
 45
0.0
 46
0.0
 47
0.0
 48
0.0
 49
0.0
140
0.0
141
0.0
142
1.0
143
1.0
 70
   688
 72
     0
 73
     0
 74
     5
  7

 75
    16
147
1.0
148
0.0
149
0.0
100
AcDbLayout
  1
Layout1
 70
     1
 71
     1
 10
0.0
 20
0.0
 11
12.0
 21
9.0
 12
0.0
 22
0.0
 32
0.0
 14
1.0000000000E+20
 24
1.0000000000E+20
 34
1.0000000000E+20
 15
-1.0000000000E+20
 25
-1.0000000000E+20
 35
-1.0000000000E+20
146
0.0
 13
0.0
 23
0.0
 33
0.0
 16
1.0
 26
0.0
 36
0.0
 17
0.0
 27
1.0
 37
0.0
 76
     0
330
1B
  0
LAYOUT
  5
26
102
{ACAD_REACTORS
330
1A
102
}
330
1A
100
AcDbPlotSettings
  1

  2
none_device
  4

  6

 40
0.0
 41
0.0
 42
0.0
 43
0.0
 44
0.0
 45
0.0
 46
0.0
 47
0.0
 48
0.0
 49
0.0
140
0.0
141
0.0
142
1.0
143
1.0
 70
   688
 72
     0
 73
     0
 74
     5
  7

 75
    16
147
1.0
148
0.0
149
0.0
100
AcDbLayout
  1
Layout2
 70
     1
 71
     2
 10
0.0
 20
0.0
 11
0.0
 21
0.0
 12
0.0
 22
0.0
 32
0.0
 14
0.0
 24
0.0
 34
0.0
 15
0.0
 25
0.0
 35
0.0
146
0.0
 13
0.0
 23
0.0
 33
0.0
 16
1.0
 26
0.0
 36
0.0
 17
0.0
 27
1.0
 37
0.0
 76
     0
330
23
  0
LAYOUT
  5
22
102
{ACAD_REACTORS
330
1A
102
}
330
1A
100
AcDbPlotSettings
  1

  2
none_device
  4

  6

 40
0.0
 41
0.0
 42
0.0
 43
0.0
 44
0.0
 45
0.0
 46
0.0
 47
0.0
 48
0.0
 49
0.0
140
0.0
141
0.0
142
1.0
143
1.0
 70
  1712
 72
     0
 73
     0
 74
     0
  7

 75
     0
147
1.0
148
0.0
149
0.0
100
AcDbLayout
  1
Model
 70
     1
 71
     0
 10
0.0
 20
0.0
 11
44.0
 21
34.0
 12
0.0
 22
0.0
 32
0.0
 14
0.0
 24
0.0
 34
0.0
 15
44.0
 25
34.0
 35
0.0
146
0.0
 13
0.0
 23
0.0
 33
0.0
 16
1.0
 26
0.0
 36
0.0
 17
0.0
 27
1.0
 37
0.0
 76
     0
330
1F
331
29
  0
MLINESTYLE
  5
18
102
{ACAD_REACTORS
330
17
102
}
330
17
100
AcDbMlineStyle
  2
Standard
 70
     0
  3

 62
   256
 51
90.0
 52
90.0
 71
     2
 49
0.5
 62
   256
  6
BYLAYER
 49
-0.5
 62
   256
  6
BYLAYER
  0
ACDBPLACEHOLDER
  5
F
102
{ACAD_REACTORS
330
E
102
}
330
E
  0
ENDSEC
  0
EOF
