  0
SECTION
  2
HEADER
  9
$ACADVER
  1
AC1015
  9
$ACADMAINTVER
 70
     6
  9
$DWGCODEPAGE
  3
ANSI_1252
  9
$INSBASE
 10
0.0
 20
0.0
 30
0.0
  9
$EXTMIN
 10
0.0
 20
0.0
 30
0.0
  9
$EXTMAX
 10
34.0
 20
22.0
 30
0.0
  9
$LIMMIN
 10
0.0
 20
0.0
  9
$LIMMAX
 10
34.0
 20
22.0
  9
$ORTHOMODE
 70
     0
  9
$REGENMODE
 70
     1
  9
$FILLMODE
 70
     1
  9
$QTEXTMODE
 70
     0
  9
$MIRRTEXT
 70
     1
  9
$LTSCALE
 40
1.0
  9
$ATTMODE
 70
     1
  9
$TEXTSIZE
 40
0.2777777778
  9
$TRACEWID
 40
0.05
  9
$TEXTSTYLE
  7
Standard
  9
$CLAYER
  8
0
  9
$CELTYPE
  6
ByLayer
  9
$CECOLOR
 62
   256
  9
$CELTSCALE
 40
1.0
  9
$DISPSILH
 70
     0
  9
$DIMSCALE
 40
1.0
  9
$DIMASZ
 40
0.3640136719
  9
$DIMEXO
 40
0.05
  9
$DIMDLI
 40
0.38
  9
$DIMRND
 40
0.0
  9
$DIMDLE
 40
0.0
  9
$DIMEXE
 40
0.125
  9
$DIMTP
 40
0.0
  9
$DIMTM
 40
0.0
  9
$DIMTXT
 40
0.5
  9
$DIMCEN
 40
0.09
  9
$DIMTSZ
 40
0.0
  9
$DIMTOL
 70
     0
  9
$DIMLIM
 70
     0
  9
$DIMTIH
 70
     1
  9
$DIMTOH
 70
     1
  9
$DIMSE1
 70
     0
  9
$DIMSE2
 70
     0
  9
$DIMTAD
 70
     0
  9
$DIMZIN
 70
     0
  9
$DIMBLK
  1

  9
$DIMASO
 70
     1
  9
$DIMSHO
 70
     1
  9
$DIMPOST
  1

  9
$DIMAPOST
  1

  9
$DIMALT
 70
     0
  9
$DIMALTD
 70
     2
  9
$DIMALTF
 40
25.4
  9
$DIMLFAC
 40
1.0
  9
$DIMTOFL
 70
     0
  9
$DIMTVP
 40
0.0
  9
$DIMTIX
 70
     0
  9
$DIMSOXD
 70
     0
  9
$DIMSAH
 70
     0
  9
$DIMBLK1
  1

  9
$DIMBLK2
  1

  9
$DIMSTYLE
  2
Standard
  9
$DIMCLRD
 70
     0
  9
$DIMCLRE
 70
     0
  9
$DIMCLRT
 70
     0
  9
$DIMTFAC
 40
1.0
  9
$DIMGAP
 40
0.06
  9
$DIMJUST
 70
     0
  9
$DIMSD1
 70
     0
  9
$DIMSD2
 70
     0
  9
$DIMTOLJ
 70
     1
  9
$DIMTZIN
 70
     0
  9
$DIMALTZ
 70
     0
  9
$DIMALTTZ
 70
     0
  9
$DIMUPT
 70
     0
  9
$DIMDEC
 70
     3
  9
$DIMTDEC
 70
     3
  9
$DIMALTU
 70
     2
  9
$DIMALTTD
 70
     2
  9
$DIMTXSTY
  7
Standard
  9
$DIMAUNIT
 70
     0
  9
$DIMADEC
 70
     1
  9
$DIMALTRND
 40
0.0
  9
$DIMAZIN
 70
     0
  9
$DIMDSEP
 70
    46
  9
$DIMATFIT
 70
     3
  9
$DIMFRAC
 70
     0
  9
$DIMLDRBLK
  1

  9
$DIMLUNIT
 70
     2
  9
$DIMLWD
 70
    -2
  9
$DIMLWE
 70
    -2
  9
$DIMTMOVE
 70
     0
  9
$LUNITS
 70
     2
  9
$LUPREC
 70
     3
  9
$SKETCHINC
 40
0.1
  9
$FILLETRAD
 40
0.5
  9
$AUNITS
 70
     0
  9
$AUPREC
 70
     1
  9
$MENU
  1
.
  9
$ELEVATION
 40
0.0
  9
$PELEVATION
 40
0.0
  9
$THICKNESS
 40
0.0
  9
$LIMCHECK
 70
     0
  9
$CHAMFERA
 40
0.5
  9
$CHAMFERB
 40
0.5
  9
$CHAMFERC
 40
1.0
  9
$CHAMFERD
 40
0.0
  9
$SKPOLY
 70
     0
  9
$TDCREATE
 40
2457352.620016643
  9
$TDUCREATE
 40
2457352.870016643
  9
$TDUPDATE
 40
2457352.620017546
  9
$TDUUPDATE
 40
2457352.870017546
  9
$TDINDWG
 40
0.0000000116
  9
$TDUSRTIMER
 40
0.0000000116
  9
$USRTIMER
 70
     1
  9
$ANGBASE
 50
0.0
  9
$ANGDIR
 70
     0
  9
$PDMODE
 70
     0
  9
$PDSIZE
 40
-1.0
  9
$PLINEWID
 40
0.0
  9
$SPLFRAME
 70
     0
  9
$SPLINETYPE
 70
     6
  9
$SPLINESEGS
 70
     8
  9
$HANDSEED
  5
120
  9
$SURFTAB1
 70
     6
  9
$SURFTAB2
 70
     6
  9
$SURFTYPE
 70
     6
  9
$SURFU
 70
     6
  9
$SURFV
 70
     6
  9
$UCSBASE
  2

  9
$UCSNAME
  2

  9
$UCSORG
 10
0.0
 20
0.0
 30
0.0
  9
$UCSXDIR
 10
1.0
 20
0.0
 30
0.0
  9
$UCSYDIR
 10
0.0
 20
1.0
 30
0.0
  9
$UCSORTHOREF
  2

  9
$UCSORTHOVIEW
 70
     0
  9
$UCSORGTOP
 10
0.0
 20
0.0
 30
0.0
  9
$UCSORGBOTTOM
 10
0.0
 20
0.0
 30
0.0
  9
$UCSORGLEFT
 10
0.0
 20
0.0
 30
0.0
  9
$UCSORGRIGHT
 10
0.0
 20
0.0
 30
0.0
  9
$UCSORGFRONT
 10
0.0
 20
0.0
 30
0.0
  9
$UCSORGBACK
 10
0.0
 20
0.0
 30
0.0
  9
$PUCSBASE
  2

  9
$PUCSNAME
  2

  9
$PUCSORG
 10
0.0
 20
0.0
 30
0.0
  9
$PUCSXDIR
 10
1.0
 20
0.0
 30
0.0
  9
$PUCSYDIR
 10
0.0
 20
1.0
 30
0.0
  9
$PUCSORTHOREF
  2

  9
$PUCSORTHOVIEW
 70
     0
  9
$PUCSORGTOP
 10
0.0
 20
0.0
 30
0.0
  9
$PUCSORGBOTTOM
 10
0.0
 20
0.0
 30
0.0
  9
$PUCSORGLEFT
 10
0.0
 20
0.0
 30
0.0
  9
$PUCSORGRIGHT
 10
0.0
 20
0.0
 30
0.0
  9
$PUCSORGFRONT
 10
0.0
 20
0.0
 30
0.0
  9
$PUCSORGBACK
 10
0.0
 20
0.0
 30
0.0
  9
$USERI1
 70
     0
  9
$USERI2
 70
     0
  9
$USERI3
 70
     0
  9
$USERI4
 70
     0
  9
$USERI5
 70
     0
  9
$USERR1
 40
0.0
  9
$USERR2
 40
0.0
  9
$USERR3
 40
0.0
  9
$USERR4
 40
0.0
  9
$USERR5
 40
0.0
  9
$WORLDVIEW
 70
     1
  9
$SHADEDGE
 70
     3
  9
$SHADEDIF
 70
    70
  9
$TILEMODE
 70
     1
  9
$MAXACTVP
 70
    64
  9
$PINSBASE
 10
0.0
 20
0.0
 30
0.0
  9
$PLIMCHECK
 70
     0
  9
$PEXTMIN
 10
1.0000000000E+20
 20
1.0000000000E+20
 30
1.0000000000E+20
  9
$PEXTMAX
 10
-1.0000000000E+20
 20
-1.0000000000E+20
 30
-1.0000000000E+20
  9
$PLIMMIN
 10
0.0
 20
0.0
  9
$PLIMMAX
 10
12.0
 20
9.0
  9
$UNITMODE
 70
     0
  9
$VISRETAIN
 70
     1
  9
$PLINEGEN
 70
     0
  9
$PSLTSCALE
 70
     1
  9
$TREEDEPTH
 70
  3020
  9
$CMLSTYLE
  2
Standard
  9
$CMLJUST
 70
     0
  9
$CMLSCALE
 40
1.0
  9
$PROXYGRAPHICS
 70
     1
  9
$MEASUREMENT
 70
     0
  9
$CELWEIGHT
370
    -1
  9
$ENDCAPS
280
     0
  9
$JOINSTYLE
280
     0
  9
$LWDISPLAY
290
     1
  9
$INSUNITS
 70
     1
  9
$HYPERLINKBASE
  1

  9
$STYLESHEET
  1

  9
$XEDIT
290
     1
  9
$CEPSNTYPE
380
     0
  9
$PSTYLEMODE
290
     1
  9
$FINGERPRINTGUID
  2
{F9360BEC-CCA4-4AD0-B70B-0DD0951B92D1}
  9
$VERSIONGUID
  2
{FAEB1C32-E019-11D5-929B-00C0DF256EC4}
  9
$EXTNAMES
290
     1
  9
$PSVPSCALE
 40
0.0
  9
$OLESTARTUP
290
     0
  0
ENDSEC
  0
SECTION
  2
CLASSES
  0
CLASS
  1
ACDBDICTIONARYWDFLT
  2
AcDbDictionaryWithDefault
  3
ObjectDBX Classes
 90
        0
280
     0
281
     0
  0
CLASS
  1
VISUALSTYLE
  2
AcDbVisualStyle
  3
ObjectDBX Classes
 90
     4095
280
     0
281
     0
  0
CLASS
  1
MATERIAL
  2
AcDbMaterial
  3
ObjectDBX Classes
 90
     1153
280
     0
281
     0
  0
CLASS
  1
LARGE_RADIAL_DIMENSION
  2
AcDbRadialDimensionLarge
  3
ObjectDBX Classes
 90
     1025
280
     0
281
     1
  0
CLASS
  1
ACDBPLACEHOLDER
  2
AcDbPlaceHolder
  3
ObjectDBX Classes
 90
        0
280
     0
281
     0
  0
CLASS
  1
LAYOUT
  2
AcDbLayout
  3
ObjectDBX Classes
 90
        0
280
     0
281
     0
  0
ENDSEC
  0
SECTION
  2
TABLES
  0
TABLE
  2
VPORT
  5
8
330
0
100
AcDbSymbolTable
 70
     1
  0
VPORT
  5
29
330
8
100
AcDbSymbolTableRecord
100
AcDbViewportTableRecord
  2
*Active
 70
     0
 10
0.0
 20
0.0
 11
1.0
 21
1.0
 12
17.0
 22
11.0
 13
0.0
 23
0.0
 14
0.5
 24
0.5
 15
0.5
 25
0.5
 16
0.0
 26
0.0
 36
1.0
 17
0.0
 27
0.0
 37
0.0
 40
22.0
 41
1.5454545455
 42
50.0
 43
0.0
 44
0.0
 50
0.0
 51
0.0
 71
     0
 72
  2000
 73
     1
 74
     3
 75
     0
 76
     0
 77
     0
 78
     0
281
     0
 65
     1
110
0.0
120
0.0
130
0.0
111
1.0
121
0.0
131
0.0
112
0.0
122
1.0
132
0.0
 79
     0
146
0.0
  0
ENDTAB
  0
TABLE
  2
LTYPE
  5
5
330
0
100
AcDbSymbolTable
 70
     6
  0
LTYPE
  5
14
330
5
100
AcDbSymbolTableRecord
100
AcDbLinetypeTableRecord
  2
ByBlock
 70
     0
  3

 72
    65
 73
     0
 40
0.0
  0
LTYPE
  5
15
330
5
100
AcDbSymbolTableRecord
100
AcDbLinetypeTableRecord
  2
ByLayer
 70
     0
  3

 72
    65
 73
     0
 40
0.0
  0
LTYPE
  5
16
330
5
100
AcDbSymbolTableRecord
100
AcDbLinetypeTableRecord
  2
Continuous
 70
     0
  3
Solid line
 72
    65
 73
     0
 40
0.0
  0
LTYPE
  5
3F
330
5
100
AcDbSymbolTableRecord
100
AcDbLinetypeTableRecord
  2
HIDDEN
 70
     0
  3
Hidden __ __ __ __ __ __ __ __ __ __ __ __ __ __
 72
    65
 73
     2
 40
0.075
 49
0.05
 74
     0
 49
-0.025
 74
     0
  0
LTYPE
  5
40
330
5
100
AcDbSymbolTableRecord
100
AcDbLinetypeTableRecord
  2
PHANTOM
 70
     0
  3
Phantom ______  __  __  ______  __  __  ______
 72
    65
 73
     6
 40
0.5
 49
0.25
 74
     0
 49
-0.05
 74
     0
 49
0.05
 74
     0
 49
-0.05
 74
     0
 49
0.05
 74
     0
 49
-0.05
 74
     0
  0
LTYPE
  5
41
330
5
100
AcDbSymbolTableRecord
100
AcDbLinetypeTableRecord
  2
CENTER
 70
     0
  3
Center ____ _ ____ _ ____ _ ____ _ ____ _ ____
 72
    65
 73
     4
 40
0.4
 49
0.25
 74
     0
 49
-0.05
 74
     0
 49
0.05
 74
     0
 49
-0.05
 74
     0
  0
LTYPE
  5
42
330
5
100
AcDbSymbolTableRecord
100
AcDbLinetypeTableRecord
  2
CENTERX2
 70
     0
  3
Center (2x) ________  __  ________  __  _____
 72
    65
 73
     4
 40
0.8
 49
0.5
 74
     0
 49
-0.1
 74
     0
 49
0.1
 74
     0
 49
-0.1
 74
     0
  0
LTYPE
  5
43
330
5
100
AcDbSymbolTableRecord
100
AcDbLinetypeTableRecord
  2
DOT2
 70
     0
  3
Dot (.5x) ........................................
 72
    65
 73
     2
 40
0.025
 49
0.0
 74
     0
 49
-0.025
 74
     0
  0
ENDTAB
  0
TABLE
  2
LAYER
  5
2
330
0
100
AcDbSymbolTable
 70
     8
  0
LAYER
  5
10
330
2
100
AcDbSymbolTableRecord
100
AcDbLayerTableRecord
  2
0
 70
     0
 62
     7
  6
Continuous
370
    -3
390
F
  0
LAYER
  5
44
330
2
100
AcDbSymbolTableRecord
100
AcDbLayerTableRecord
  2
SLD-0
 70
     0
 62
   179
  6
Continuous
370
    -3
390
F
  0
LAYER
  5
45
330
2
100
AcDbSymbolTableRecord
100
AcDbLayerTableRecord
  2
OBJECTS
 70
     0
 62
     5
  6
Continuous
370
    -3
390
F
  0
LAYER
  5
46
330
2
100
AcDbSymbolTableRecord
100
AcDbLayerTableRecord
  2
DIMS
 70
     0
 62
     1
  6
Continuous
370
    -3
390
F
  0
LAYER
  5
47
330
2
100
AcDbSymbolTableRecord
100
AcDbLayerTableRecord
  2
NOTES
 70
     0
 62
     7
  6
Continuous
370
    -3
390
F
  0
LAYER
  5
48
330
2
100
AcDbSymbolTableRecord
100
AcDbLayerTableRecord
  2
IMAGES
 70
     0
 62
     7
  6
Continuous
370
    -3
390
F
  0
LAYER
  5
49
330
2
100
AcDbSymbolTableRecord
100
AcDbLayerTableRecord
  2
CENTERLINES
 70
     0
 62
     7
  6
HIDDEN
370
    -3
390
F
  0
LAYER
  5
4A
330
2
100
AcDbSymbolTableRecord
100
AcDbLayerTableRecord
  2
BLOCKS
 70
     0
 62
    16
  6
Continuous
370
    -3
390
F
  0
ENDTAB
  0
TABLE
  2
STYLE
  5
3
330
0
100
AcDbSymbolTable
 70
     2
  0
STYLE
  5
11
330
3
100
AcDbSymbolTableRecord
100
AcDbTextStyleTableRecord
  2
Standard
 70
     0
 40
0.0
 41
1.0
 50
0.0
 71
     0
 42
0.2777777778
  3
txt
  4

  0
STYLE
  5
8D
330
3
100
AcDbSymbolTableRecord
100
AcDbTextStyleTableRecord
  2
SLDTEXTSTYLE0
 70
     0
 40
0.0
 41
0.605
 50
0.0
 71
     0
 42
0.2
  3
TXT
  4

  0
ENDTAB
  0
TABLE
  2
VIEW
  5
6
330
0
100
AcDbSymbolTable
 70
     0
  0
ENDTAB
  0
TABLE
  2
UCS
  5
7
330
0
100
AcDbSymbolTable
 70
     0
  0
ENDTAB
  0
TABLE
  2
APPID
  5
9
330
0
100
AcDbSymbolTable
 70
     1
  0
APPID
  5
12
330
9
100
AcDbSymbolTableRecord
100
AcDbRegAppTableRecord
  2
ACAD
 70
     0
  0
ENDTAB
  0
TABLE
  2
DIMSTYLE
  5
A
330
0
100
AcDbSymbolTable
 70
     5
100
AcDbDimStyleTable
  0
DIMSTYLE
105
27
330
A
100
AcDbSymbolTableRecord
100
AcDbDimStyleTableRecord
  2
Standard
 70
     0
178
     0
340
11
  0
DIMSTYLE
105
A4
102
{ACAD_REACTORS
330
A3
330
B8
102
}
330
A
100
AcDbSymbolTableRecord
100
AcDbDimStyleTableRecord
  2
SLDDIMSTYLE0
 70
     0
 41
0.3640136719
 44
0.0
 45
0.000000001
 78
    12
 79
     3
140
0.3640136719
147
0.091003418
148
0.000000001
170
     1
171
     0
173
     1
178
     0
271
     3
272
     3
274
     0
276
     2
277
     5
284
    12
340
8D
  0
DIMSTYLE
105
CE
102
{ACAD_REACTORS
330
CD
102
}
330
A
100
AcDbSymbolTableRecord
100
AcDbDimStyleTableRecord
  2
SLDDIMSTYLE1
 70
     0
 41
0.3640136719
 44
0.0
 45
0.000000001
 78
    12
 79
     3
140
0.3640136719
141
0.0
147
0.091003418
148
0.000000001
170
     1
171
     0
173
     1
178
     0
271
     3
272
     3
274
     0
276
     2
277
     5
279
     1
284
    12
340
8D
  0
DIMSTYLE
105
E2
102
{ACAD_REACTORS
330
E1
102
}
330
A
100
AcDbSymbolTableRecord
100
AcDbDimStyleTableRecord
  2
SLDDIMSTYLE2
 70
     0
 41
0.3640136719
 44
0.0
 45
0.000000001
 78
    12
 79
     3
140
0.3640136719
141
0.0
147
0.091003418
148
0.000000001
170
     1
171
     0
173
     1
178
     0
271
     3
272
     3
274
     0
276
     2
277
     5
284
    12
340
8D
  0
DIMSTYLE
105
10F
330
A
100
AcDbSymbolTableRecord
100
AcDbDimStyleTableRecord
  2
SLDDIMSTYLE3
 70
     0
 41
0.3640136719
 44
0.0
 45
0.000000001
140
0.0
146
0.3640136719
147
0.0
173
     1
178
     0
271
     0
272
     0
276
     2
277
     5
340
11
  0
ENDTAB
  0
TABLE
  2
BLOCK_RECORD
  5
1
330
0
100
AcDbSymbolTable
 70
    11
  0
BLOCK_RECORD
  5
1F
330
1
100
AcDbSymbolTableRecord
100
AcDbBlockTableRecord
  2
*Model_Space
340
22
  0
BLOCK_RECORD
  5
1B
330
1
100
AcDbSymbolTableRecord
100
AcDbBlockTableRecord
  2
*Paper_Space
340
1E
  0
BLOCK_RECORD
  5
23
330
1
100
AcDbSymbolTableRecord
100
AcDbBlockTableRecord
  2
*Paper_Space0
340
26
  0
BLOCK_RECORD
  5
4B
330
1
100
AcDbSymbolTableRecord
100
AcDbBlockTableRecord
  2
REVEAL- .500
340
0
102
{BLKREFS
331
A1
102
}
  0
BLOCK_RECORD
  5
7D
330
1
100
AcDbSymbolTableRecord
100
AcDbBlockTableRecord
  2
SW_BLOCK_DIMENSION_0
340
0
102
{BLKREFS
331
94
102
}
  0
BLOCK_RECORD
  5
A5
330
1
100
AcDbSymbolTableRecord
100
AcDbBlockTableRecord
  2
_D
340
0
  0
BLOCK_RECORD
  5
B9
330
1
100
AcDbSymbolTableRecord
100
AcDbBlockTableRecord
  2
_D_1
340
0
  0
BLOCK_RECORD
  5
CF
330
1
100
AcDbSymbolTableRecord
100
AcDbBlockTableRecord
  2
_D_2
340
0
  0
BLOCK_RECORD
  5
E3
330
1
100
AcDbSymbolTableRecord
100
AcDbBlockTableRecord
  2
_D_3
340
0
  0
BLOCK_RECORD
  5
F9
330
1
100
AcDbSymbolTableRecord
100
AcDbBlockTableRecord
  2
SW_NOTE_0
340
0
102
{BLKREFS
331
106
102
}
  0
BLOCK_RECORD
  5
107
330
1
100
AcDbSymbolTableRecord
100
AcDbBlockTableRecord
  2
SW_NOTE_1
340
0
102
{BLKREFS
331
10E
102
}
  0
BLOCK_RECORD
  5
112
330
1
100
AcDbSymbolTableRecord
100
AcDbBlockTableRecord
  2
SW_NOTE_2
340
0
102
{BLKREFS
331
117
102
}
  0
BLOCK_RECORD
  5
118
330
1
100
AcDbSymbolTableRecord
100
AcDbBlockTableRecord
  2
SW_NOTE_3
340
0
102
{BLKREFS
331
11D
102
}
  0
ENDTAB
  0
ENDSEC
  0
SECTION
  2
BLOCKS
  0
BLOCK
  5
20
330
1F
100
AcDbEntity
  8
0
100
AcDbBlockBegin
  2
*Model_Space
 70
     0
 10
0.0
 20
0.0
 30
0.0
  3
*Model_Space
  1

  0
ENDBLK
  5
21
330
1F
100
AcDbEntity
  8
0
100
AcDbBlockEnd
  0
BLOCK
  5
1C
330
1B
100
AcDbEntity
 67
     1
  8
0
100
AcDbBlockBegin
  2
*Paper_Space
 70
     0
 10
0.0
 20
0.0
 30
0.0
  3
*Paper_Space
  1

  0
ENDBLK
  5
1D
330
1B
100
AcDbEntity
 67
     1
  8
0
100
AcDbBlockEnd
  0
BLOCK
  5
24
330
23
100
AcDbEntity
  8
0
100
AcDbBlockBegin
  2
*Paper_Space0
 70
     0
 10
0.0
 20
0.0
 30
0.0
  3
*Paper_Space0
  1

  0
ENDBLK
  5
25
330
23
100
AcDbEntity
  8
0
100
AcDbBlockEnd
  0
BLOCK
  5
4C
330
4B
100
AcDbEntity
  8
0
100
AcDbBlockBegin
  2
REVEAL- .500
 70
     0
 10
0.0
 20
0.0
 30
0.0
  3
REVEAL- .500
  1

  0
ARC
  5
4E
330
4B
100
AcDbEntity
  8
BLOCKS
100
AcDbCircle
 10
20.1601934329
 20
28.8878838846
 30
0.0
 40
0.2338576391325233
100
AcDbArc
 50
0.0
 51
90.0
  0
ARC
  5
4F
330
4B
100
AcDbEntity
  8
BLOCKS
100
AcDbCircle
 10
19.8280715192
 20
29.4726468145
 30
0.0
 40
0.0659795528056719
100
AcDbArc
 50
0.0
 51
90.0
  0
ARC
  5
50
330
4B
100
AcDbEntity
  8
BLOCKS
100
AcDbCircle
 10
19.0470381676
 20
28.990848696
 30
0.0
 40
0.0881257319589152
100
AcDbArc
 50
200.9822712638
 51
339.0177287362
  0
ARC
  5
51
330
4B
100
AcDbEntity
  8
BLOCKS
100
AcDbCircle
 10
20.1601934329
 20
28.8878838846
 30
0.0
 40
0.1878262552218324
100
AcDbArc
 50
0.0
 51
90.0
  0
LINE
  5
52
330
4B
100
AcDbEntity
  8
BLOCKS
100
AcDbLine
 10
19.8280715192
 20
29.5386263673
 30
0.0
 11
18.2509355515
 21
29.5386263673
 31
0.0
  0
LINE
  5
53
330
4B
100
AcDbEntity
  8
BLOCKS
100
AcDbLine
 10
18.2806192052
 20
29.1434426864
 30
0.0
 11
19.894051072
 21
29.1434426864
 31
0.0
  0
LINE
  5
54
330
4B
100
AcDbEntity
  8
BLOCKS
100
AcDbLine
 10
19.3470309437
 20
29.1217415238
 30
0.0
 11
20.1601934329
 21
29.1217415238
 31
0.0
  0
LINE
  5
55
330
4B
100
AcDbEntity
  8
BLOCKS
100
AcDbLine
 10
20.394051072
 20
28.8878838846
 30
0.0
 11
20.394051072
 21
28.4971795949
 31
0.0
  0
LINE
  5
56
330
4B
100
AcDbEntity
  8
BLOCKS
100
AcDbLine
 10
20.394051072
 20
28.4971795949
 30
0.0
 11
20.3480196881
 21
28.4971795949
 31
0.0
  0
LINE
  5
57
330
4B
100
AcDbEntity
  8
BLOCKS
100
AcDbLine
 10
20.3480196881
 20
28.4971795949
 30
0.0
 11
20.3480196881
 21
28.8878838846
 31
0.0
  0
LINE
  5
58
330
4B
100
AcDbEntity
  8
BLOCKS
100
AcDbLine
 10
20.1601934329
 20
29.0757101398
 30
0.0
 11
19.3470309437
 21
29.0757101398
 31
0.0
  0
LINE
  5
59
330
4B
100
AcDbEntity
  8
BLOCKS
100
AcDbLine
 10
19.3470309437
 20
29.0757101398
 30
0.0
 11
19.3470309437
 21
29.1217415238
 31
0.0
  0
LINE
  5
5A
330
4B
100
AcDbEntity
  8
BLOCKS
100
AcDbLine
 10
19.679261078
 20
29.0223488565
 30
0.0
 11
19.7319208682
 21
29.073015856
 31
0.0
  0
LINE
  5
5B
330
4B
100
AcDbEntity
  8
BLOCKS
100
AcDbLine
 10
19.7319208682
 20
29.073015856
 30
0.0
 11
19.7745573648
 21
29.0287024176
 31
0.0
  0
LINE
  5
5C
330
4B
100
AcDbEntity
  8
BLOCKS
100
AcDbLine
 10
19.7745573648
 20
29.0287024176
 30
0.0
 11
19.705650009
 21
28.9624027047
 31
0.0
  0
LINE
  5
5D
330
4B
100
AcDbEntity
  8
BLOCKS
100
AcDbLine
 10
18.4381035755
 20
29.0888229672
 30
0.0
 11
18.385550816
 21
29.1434426864
 31
0.0
  0
LINE
  5
5E
330
4B
100
AcDbEntity
  8
BLOCKS
100
AcDbLine
 10
18.385550816
 20
29.1434426864
 30
0.0
 11
18.3431444562
 21
29.1026410993
 31
0.0
  0
LINE
  5
5F
330
4B
100
AcDbEntity
  8
BLOCKS
100
AcDbLine
 10
18.3431444562
 20
29.1026410993
 30
0.0
 11
18.4052557657
 21
29.0380868815
 31
0.0
  0
LINE
  5
60
330
4B
100
AcDbEntity
  8
BLOCKS
100
AcDbLine
 10
18.4381035755
 20
29.0888229672
 30
0.0
 11
19.679261078
 21
29.0223488565
 31
0.0
  0
LINE
  5
61
330
4B
100
AcDbEntity
  8
BLOCKS
100
AcDbLine
 10
19.705650009
 20
28.9624027047
 30
0.0
 11
18.4052557657
 21
29.0380868815
 31
0.0
  0
LINE
  5
62
330
4B
100
AcDbEntity
  8
BLOCKS
100
AcDbLine
 10
19.1283677378
 20
29.0518536895
 30
0.0
 11
19.1283677378
 21
28.9960010797
 31
0.0
  0
LINE
  5
63
330
4B
100
AcDbEntity
  8
BLOCKS
100
AcDbLine
 10
18.9737480593
 20
29.0601348348
 30
0.0
 11
18.9737480593
 21
29.0050000915
 31
0.0
  0
LINE
  5
64
330
4B
100
AcDbEntity
  8
BLOCKS
100
AcDbLine
 10
18.964755941
 20
28.9592927168
 30
0.0
 11
19.1293203942
 21
28.9592927168
 31
0.0
  0
LINE
  5
65
330
4B
100
AcDbEntity
  8
BLOCKS
100
AcDbLine
 10
19.0095275609
 20
29.3495924534
 30
0.0
 11
19.0095275609
 21
28.9592927168
 31
0.0
  0
LINE
  5
66
330
4B
100
AcDbEntity
  8
BLOCKS
100
AcDbLine
 10
19.0864194327
 20
29.3495924534
 30
0.0
 11
19.0864194327
 21
28.9592927168
 31
0.0
  0
LINE
  5
67
330
4B
100
AcDbEntity
  8
BLOCKS
100
AcDbLine
 10
18.9467524826
 20
29.0033177842
 30
0.0
 11
19.1591684741
 21
28.9909549723
 31
0.0
  0
LINE
  5
68
330
4B
100
AcDbEntity
  8
BLOCKS
100
AcDbLine
 10
19.0095275609
 20
29.3495924534
 30
0.0
 11
19.0474925407
 21
29.4047818344
 31
0.0
  0
LINE
  5
69
330
4B
100
AcDbEntity
  8
BLOCKS
100
AcDbLine
 10
19.0474925407
 20
29.4047818344
 30
0.0
 11
19.0864194327
 21
29.3495924534
 31
0.0
  0
LINE
  5
6A
330
4B
100
AcDbEntity
  8
BLOCKS
100
AcDbLine
 10
19.1572986604
 20
28.9588281114
 30
0.0
 11
18.9448826689
 21
28.9711909233
 31
0.0
  0
LINE
  5
6B
330
4B
100
AcDbEntity
  8
BLOCKS
100
AcDbLine
 10
19.1591684741
 20
28.9909549723
 30
0.0
 11
19.1572986604
 21
28.9588281114
 31
0.0
  0
LINE
  5
6C
330
4B
100
AcDbEntity
  8
BLOCKS
100
AcDbLine
 10
18.9467524826
 20
29.0033177842
 30
0.0
 11
18.9448826689
 21
28.9711909233
 31
0.0
  0
LINE
  5
6D
330
4B
100
AcDbEntity
  8
BLOCKS
100
AcDbLine
 10
19.1142839592
 20
29.1434426864
 30
0.0
 11
19.1142839592
 21
29.4238049236
 31
0.0
  0
LINE
  5
6E
330
4B
100
AcDbEntity
  8
BLOCKS
100
AcDbLine
 10
19.1142839592
 20
29.4238049236
 30
0.0
 11
18.9877469673
 21
29.4238049236
 31
0.0
  0
LINE
  5
6F
330
4B
100
AcDbEntity
  8
BLOCKS
100
AcDbLine
 10
18.9877469673
 20
29.4238049236
 30
0.0
 11
18.9877469673
 21
29.1434426864
 31
0.0
  0
LINE
  5
70
330
4B
100
AcDbEntity
  8
BLOCKS
  6
Continuous
100
AcDbLine
 10
19.894051072
 20
29.1434426864
 30
0.0
 11
19.894051072
 21
29.4726468145
 31
0.0
  0
LINE
  5
71
330
4B
100
AcDbEntity
  8
BLOCKS
100
AcDbLine
 10
19.3020232313
 20
29.1434426864
 30
0.0
 11
19.3470309437
 21
29.0987258318
 31
0.0
  0
LINE
  5
72
330
4B
100
AcDbEntity
  8
BLOCKS
100
AcDbLine
 10
19.894051072
 20
29.1434426864
 30
0.0
 11
19.9068063572
 21
29.1217415238
 31
0.0
  0
SPLINE
  5
73
330
4B
100
AcDbEntity
  8
BLOCKS
100
AcDbSpline
210
0.0
220
0.0
230
1.0
 70
     8
 71
     3
 72
     9
 73
     5
 74
     0
 42
0.00000001
 43
0.00000001
 12
1.0
 22
0.0
 32
0.0
 13
1.0
 23
0.0
 33
0.0
 40
0.0
 40
0.0
 40
0.0
 40
0.0
 40
0.5928291688347104
 40
1.0
 40
1.0
 40
1.0
 40
1.0
 10
18.28061920517429
 20
29.14344268635683
 30
0.0
 10
18.23604355296101
 20
29.22927712752978
 30
0.0
 10
18.31552651528452
 20
29.34850064146643
 30
0.0
 10
18.29741369383499
 20
29.50274888669875
 30
0.0
 10
18.25093555152442
 20
29.53862636728042
 30
0.0
  0
HATCH
  5
74
330
4B
100
AcDbEntity
  8
BLOCKS
 62
    16
100
AcDbHatch
 10
0.0
 20
0.0
 30
0.0
210
0.0
220
0.0
230
1.0
  2
ANSI36
 70
     0
 71
     0
 91
        1
 92
        0
 93
       10
 72
     4
 94
        3
 73
     1
 74
     0
 95
        9
 96
        5
 40
0.0
 40
0.0
 40
0.0
 40
0.0
 40
0.4071708311652896
 40
1.0
 40
1.0
 40
1.0
 40
1.0
 10
18.25093555152442
 20
29.53862636728042
 42
1.0
 10
18.29741369383499
 20
29.50274888669875
 42
1.0
 10
18.31552651528452
 20
29.34850064146643
 42
1.0
 10
18.23604355296101
 20
29.22927712752978
 42
1.0
 10
18.28061920517429
 20
29.14344268635683
 42
1.0
 72
     1
 10
18.28061920517429
 20
29.14344268635683
 11
18.98774696730679
 21
29.14344268635683
 72
     1
 10
18.98774696730679
 20
29.14344268635683
 11
18.98774696730679
 21
29.42380492355081
 72
     1
 10
18.98774696730679
 20
29.42380492355081
 11
19.11428395924128
 21
29.42380492355081
 72
     1
 10
19.11428395924128
 20
29.42380492355081
 11
19.11428395924128
 21
29.14344268635683
 72
     1
 10
19.11428395924128
 20
29.14344268635683
 11
19.30202323130653
 21
29.14344268635683
 72
     1
 10
19.30202323130653
 20
29.14344268635683
 11
19.89405107202551
 21
29.14344268635683
 72
     1
 10
19.89405107202551
 20
29.14344268635683
 11
19.89405107202551
 21
29.47264681447475
 72
     2
 10
19.82807151921984
 20
29.47264681447475
 40
0.0659795528056717
 50
0.0
 51
90.0
 73
     1
 72
     1
 10
19.82807151921984
 20
29.53862636728042
 11
18.25093555152442
 21
29.53862636728042
 97
        0
 75
     0
 76
     1
 52
0.0
 41
0.5
 77
     0
 78
     1
 53
45.0
 43
0.0
 44
0.0
 45
0.0331456303681194
 46
0.1215339780164378
 79
     4
 49
0.15625
 49
-0.03125
 49
0.0
 49
-0.03125
 98
        1
 10
0.0
 20
0.0
  0
HATCH
  5
75
330
4B
100
AcDbEntity
  8
BLOCKS
 62
    16
100
AcDbHatch
 10
0.0
 20
0.0
 30
0.0
210
0.0
220
0.0
230
1.0
  2
ANSI32
 70
     0
 71
     0
 91
        1
 92
        0
 93
        5
 72
     1
 10
19.08641943273533
 20
29.34959245337754
 11
19.04749254074577
 21
29.40478183438993
 72
     1
 10
19.04749254074577
 20
29.40478183438993
 11
19.00952756093279
 21
29.34959245337754
 72
     1
 10
19.00952756093279
 20
29.34959245337754
 11
19.00952756093279
 21
29.14344268635683
 72
     1
 10
19.00952756093279
 20
29.14344268635683
 11
19.08641943273533
 21
29.14344268635683
 72
     1
 10
19.08641943273533
 20
29.14344268635683
 11
19.08641943273533
 21
29.34959245337754
 97
        0
 75
     0
 76
     1
 52
0.0
 41
0.1666666667
 77
     0
 78
     2
 53
45.0
 43
0.0
 44
0.0
 45
-0.0441941738241592
 46
0.0441941738241592
 79
     0
 53
45.0
 43
0.0294627825
 44
0.0
 45
-0.0441941738241592
 46
0.0441941738241592
 79
     0
 98
        1
 10
0.0
 20
0.0
  0
HATCH
  5
76
330
4B
100
AcDbEntity
  8
BLOCKS
 62
    16
100
AcDbHatch
 10
0.0
 20
0.0
 30
0.0
210
0.0
220
0.0
230
1.0
  2
ANSI32
 70
     0
 71
     0
 91
        1
 92
        0
 93
        4
 72
     1
 10
19.08641943273533
 20
29.05410036351303
 11
19.08641943273533
 21
29.14344268635683
 72
     1
 10
19.08641943273533
 20
29.14344268635683
 11
19.00952756093279
 21
29.14344268635683
 72
     1
 10
19.00952756093279
 20
29.14344268635683
 11
19.00952756093279
 21
29.05821855059726
 72
     1
 10
19.00952756093279
 20
29.05821855059726
 11
19.08641943273533
 21
29.05410036351303
 97
        0
 75
     0
 76
     1
 52
0.0
 41
0.1666666667
 77
     0
 78
     2
 53
45.0
 43
0.0
 44
0.0
 45
-0.0441941738241592
 46
0.0441941738241592
 79
     0
 53
45.0
 43
0.0294627825
 44
0.0
 45
-0.0441941738241592
 46
0.0441941738241592
 79
     0
 98
        1
 10
0.0
 20
0.0
  0
HATCH
  5
77
330
4B
100
AcDbEntity
  8
BLOCKS
 62
    16
100
AcDbHatch
 10
0.0
 20
0.0
 30
0.0
210
0.0
220
0.0
230
1.0
  2
ANSI32
 70
     0
 71
     0
 91
        1
 92
        0
 93
        4
 72
     1
 10
19.08641943273533
 20
28.99844251081363
 11
19.08641943273533
 21
29.05410036351303
 72
     1
 10
19.08641943273533
 20
29.05410036351303
 11
19.00952756093279
 21
29.05821855059726
 72
     1
 10
19.00952756093279
 20
29.05821855059726
 11
19.00952756093279
 21
29.00291769059305
 72
     1
 10
19.00952756093279
 20
29.00291769059305
 11
19.08641943273533
 21
28.99844251081363
 97
        0
 75
     0
 76
     1
 52
0.0
 41
0.1666666667
 77
     0
 78
     2
 53
45.0
 43
0.0
 44
0.0
 45
-0.0441941738241592
 46
0.0441941738241592
 79
     0
 53
45.0
 43
0.0294627825
 44
0.0
 45
-0.0441941738241592
 46
0.0441941738241592
 79
     0
 98
        1
 10
0.0
 20
0.0
  0
HATCH
  5
78
330
4B
100
AcDbEntity
  8
BLOCKS
 62
    16
100
AcDbHatch
 10
0.0
 20
0.0
 30
0.0
210
0.0
220
0.0
230
1.0
  2
ANSI32
 70
     0
 71
     0
 91
        1
 92
        0
 93
        4
 72
     1
 10
19.00952756093279
 20
28.96742852935006
 11
19.08641943273534
 21
28.96295334957064
 72
     1
 10
19.08641943273534
 20
28.96295334957064
 11
19.08641943273534
 21
28.99518903540131
 72
     1
 10
19.08641943273534
 20
28.99518903540131
 11
19.0095275609328
 21
28.99966421518074
 72
     1
 10
19.0095275609328
 20
28.99966421518074
 11
19.00952756093279
 21
28.96742852935006
 97
        0
 75
     0
 76
     1
 52
0.0
 41
0.1666666667
 77
     0
 78
     2
 53
45.0
 43
0.0
 44
0.0
 45
-0.0441941738241592
 46
0.0441941738241592
 79
     0
 53
45.0
 43
0.0294627825
 44
0.0
 45
-0.0441941738241592
 46
0.0441941738241592
 79
     0
 98
        1
 10
0.0
 20
0.0
  0
HATCH
  5
79
330
4B
100
AcDbEntity
  8
BLOCKS
 62
    16
100
AcDbHatch
 10
0.0
 20
0.0
 30
0.0
210
0.0
220
0.0
230
1.0
  2
ANSI32
 70
     0
 71
     0
 91
        1
 92
        0
 93
        4
 72
     1
 10
19.0095275609328
 20
28.99966421518074
 11
18.94675248259694
 21
29.00331778420741
 72
     1
 10
18.94675248259694
 20
29.00331778420741
 11
18.94488266885844
 21
28.97119092330762
 72
     1
 10
18.94488266885844
 20
28.97119092330762
 11
19.00952756093279
 21
28.96742852935006
 72
     1
 10
19.00952756093279
 20
28.96742852935006
 11
19.0095275609328
 21
28.99966421518074
 97
        0
 75
     0
 76
     1
 52
0.0
 41
0.1666666667
 77
     0
 78
     2
 53
45.0
 43
0.0
 44
0.0
 45
-0.0441941738241592
 46
0.0441941738241592
 79
     0
 53
45.0
 43
0.0294627825
 44
0.0
 45
-0.0441941738241592
 46
0.0441941738241592
 79
     0
 98
        1
 10
0.0
 20
0.0
  0
HATCH
  5
7A
330
4B
100
AcDbEntity
  8
BLOCKS
 62
    16
100
AcDbHatch
 10
0.0
 20
0.0
 30
0.0
210
0.0
220
0.0
230
1.0
  2
ANSI32
 70
     0
 71
     0
 91
        1
 92
        0
 93
        4
 72
     1
 10
19.15729866039344
 20
28.95882811137627
 11
19.15916847413194
 21
28.99095497227606
 72
     1
 10
19.15916847413194
 20
28.99095497227606
 11
19.08641943273534
 21
28.99518903540131
 72
     1
 10
19.08641943273534
 20
28.99518903540131
 11
19.08641943273534
 21
28.96295334957064
 72
     1
 10
19.08641943273534
 20
28.96295334957064
 11
19.15729866039344
 21
28.95882811137627
 97
        0
 75
     0
 76
     1
 52
0.0
 41
0.1666666667
 77
     0
 78
     2
 53
45.0
 43
0.0
 44
0.0
 45
-0.0441941738241592
 46
0.0441941738241592
 79
     0
 53
45.0
 43
0.0294627825
 44
0.0
 45
-0.0441941738241592
 46
0.0441941738241592
 79
     0
 98
        1
 10
0.0
 20
0.0
  0
HATCH
  5
7B
330
4B
100
AcDbEntity
  8
BLOCKS
 62
    16
100
AcDbHatch
 10
0.0
 20
0.0
 30
0.0
210
0.0
220
0.0
230
1.0
  2
ANSI32
 70
     0
 71
     0
 91
        1
 92
        0
 93
        4
 72
     1
 10
19.00952756093279
 20
28.95929271682988
 11
18.96475594104669
 21
28.95929271682988
 72
     2
 10
19.04703816761627
 20
28.99084869604216
 40
0.0881257319589163
 50
200.9822712637957
 51
339.0177287362059
 73
     1
 72
     1
 10
19.12932039418586
 20
28.95929271682988
 11
19.08641943273533
 21
28.95929271682988
 72
     1
 10
19.08641943273533
 20
28.95929271682988
 11
19.00952756093279
 21
28.95929271682988
 97
        0
 75
     0
 76
     1
 52
0.0
 41
0.1666666667
 77
     0
 78
     2
 53
45.0
 43
0.0
 44
0.0
 45
-0.0441941738241592
 46
0.0441941738241592
 79
     0
 53
45.0
 43
0.0294627825
 44
0.0
 45
-0.0441941738241592
 46
0.0441941738241592
 79
     0
 98
        1
 10
0.0
 20
0.0
  0
HATCH
  5
7C
330
4B
100
AcDbEntity
  8
BLOCKS
 62
    16
100
AcDbHatch
 10
0.0
 20
0.0
 30
0.0
210
0.0
220
0.0
230
1.0
  2
SOLID
 70
     1
 71
     0
 91
        1
 92
        0
 93
        5
 72
     1
 10
19.90680635715495
 20
29.12174152375217
 11
19.89405107202551
 21
29.14344268635683
 72
     1
 10
19.89405107202551
 20
29.14344268635683
 11
19.30202323130653
 21
29.14344268635683
 72
     1
 10
19.30202323130653
 20
29.14344268635683
 11
19.34703094371573
 21
29.09872583179682
 72
     1
 10
19.34703094371573
 20
29.09872583179682
 11
19.34703094371572
 21
29.12174152375217
 72
     1
 10
19.34703094371572
 20
29.12174152375217
 11
19.90680635715495
 21
29.12174152375217
 97
        0
 75
     0
 76
     1
 98
        1
 10
0.0
 20
0.0
  0
INSERT
  5
94
330
4B
100
AcDbEntity
  8
BLOCKS
100
AcDbBlockReference
  2
SW_BLOCK_DIMENSION_0
 10
19.9711023413
 20
29.6493704876
 30
0.0
  0
ENDBLK
  5
4D
330
4B
100
AcDbEntity
  8
0
100
AcDbBlockEnd
  0
BLOCK
  5
7E
330
7D
100
AcDbEntity
  8
0
100
AcDbBlockBegin
  2
SW_BLOCK_DIMENSION_0
 70
     0
 10
0.0
 20
0.0
 30
0.0
  3
SW_BLOCK_DIMENSION_0
  1

  0
SOLID
  5
80
330
7D
100
AcDbEntity
  8
BLOCKS
 62
     0
100
AcDbTrace
 10
0.4229487308
 20
-0.0313006311
 30
0.0
 11
0.5240636396
 21
-0.0468567709
 31
0.0
 12
0.5240636396
 22
-0.0157444913
 32
0.0
 13
0.5240636396
 23
-0.0157444913
 33
0.0
  0
SOLID
  5
81
330
7D
100
AcDbEntity
  8
BLOCKS
 62
     0
100
AcDbTrace
 10
-0.0770512692
 20
-0.0313006311
 30
0.0
 11
-0.1781661781
 21
-0.0157444913
 31
0.0
 12
-0.1781661781
 22
-0.0468567709
 32
0.0
 13
-0.1781661781
 23
-0.0468567709
 33
0.0
  0
LINE
  5
82
330
7D
100
AcDbEntity
  8
BLOCKS
 62
     0
100
AcDbLine
 10
0.0608603444
 20
0.0798201425
 30
0.0
 11
0.1675347288
 21
0.0798201425
 31
0.0
  0
LINE
  5
83
330
7D
100
AcDbEntity
  8
BLOCKS
 62
     0
100
AcDbLine
 10
0.079089508
 20
-0.0940224566
 30
0.0
 11
0.0559413594
 21
-0.0940224566
 31
0.0
  0
LINE
  5
84
330
7D
100
AcDbEntity
  8
BLOCKS
 62
     0
100
AcDbLine
 10
0.0559413594
 20
-0.0940224566
 30
0.0
 11
0.0559413594
 21
-0.249307956
 31
0.0
  0
LINE
  5
85
330
7D
100
AcDbEntity
  8
BLOCKS
 62
     0
100
AcDbLine
 10
0.0559413594
 20
-0.249307956
 30
0.0
 11
0.079089508
 21
-0.249307956
 31
0.0
  0
LINE
  5
86
330
7D
100
AcDbEntity
  8
BLOCKS
 62
     0
100
AcDbLine
 10
0.2912808701
 20
-0.0940224566
 30
0.0
 11
0.3144290187
 21
-0.0940224566
 31
0.0
  0
LINE
  5
87
330
7D
100
AcDbEntity
  8
BLOCKS
 62
     0
100
AcDbLine
 10
0.3144290187
 20
-0.0940224566
 30
0.0
 11
0.3144290187
 21
-0.249307956
 31
0.0
  0
LINE
  5
88
330
7D
100
AcDbEntity
  8
BLOCKS
 62
     0
100
AcDbLine
 10
0.3144290187
 20
-0.249307956
 30
0.0
 11
0.2912808701
 21
-0.249307956
 31
0.0
  0
LINE
  5
89
330
7D
100
AcDbEntity
  8
BLOCKS
 62
     0
100
AcDbLine
 10
0.4229487308
 20
-0.711486603
 30
0.0
 11
0.4229487308
 21
0.0936993689
 31
0.0
  0
LINE
  5
8A
330
7D
100
AcDbEntity
  8
BLOCKS
 62
     0
100
AcDbLine
 10
-0.0770512692
 20
-0.1267236731
 30
0.0
 11
-0.0770512692
 21
0.0936993689
 31
0.0
  0
LINE
  5
8B
330
7D
100
AcDbEntity
  8
BLOCKS
 62
     0
100
AcDbLine
 10
0.4229487308
 20
-0.0313006311
 30
0.0
 11
0.6174004786
 21
-0.0313006311
 31
0.0
  0
LINE
  5
8C
330
7D
100
AcDbEntity
  8
BLOCKS
 62
     0
100
AcDbLine
 10
-0.0770512692
 20
-0.0313006311
 30
0.0
 11
-0.271503017
 21
-0.0313006311
 31
0.0
  0
MTEXT
  5
8E
330
7D
100
AcDbEntity
  8
BLOCKS
 62
     0
100
AcDbMText
 10
0.0390625
 20
0.1342778896
 30
0.0039370079
 40
0.1041666667
 41
0.0
 71
     1
 72
     1
  1

  7
SLDTEXTSTYLE0
 73
     1
 44
1.0
  0
MTEXT
  5
8F
330
7D
100
AcDbEntity
  8
BLOCKS
 62
     0
100
AcDbMText
 10
0.0756172881
 20
0.2052438631
 30
0.0039370079
 40
0.1041666667
 41
0.0
 71
     1
 72
     1
  1
1
  7
SLDTEXTSTYLE0
 73
     1
 44
1.0
  0
MTEXT
  5
90
330
7D
100
AcDbEntity
  8
BLOCKS
 62
     0
100
AcDbMText
 10
0.0756172881
 20
0.0634035871
 30
0.0039370079
 40
0.1041666667
 41
0.0
 71
     1
 72
     1
  1
2
  7
SLDTEXTSTYLE0
 73
     1
 44
1.0
  0
MTEXT
  5
91
330
7D
100
AcDbEntity
  8
BLOCKS
 62
     0
100
AcDbMText
 10
0.1822916725
 20
0.1342778896
 30
0.0039370079
 40
0.1041666667
 41
0.0
 71
     1
 72
     1
  1
"
  7
SLDTEXTSTYLE0
 73
     1
 44
1.0
  0
MTEXT
  5
92
330
7D
100
AcDbEntity
  8
BLOCKS
 62
     0
100
AcDbMText
 10
0.1080246921
 20
-0.1150300596
 30
0.0039370079
 40
0.1041666667
 41
0.0
 71
     1
 72
     1
  1
13
  7
SLDTEXTSTYLE0
 73
     1
 44
1.0
  0
MTEXT
  5
93
330
7D
100
AcDbEntity
  8
BLOCKS
 62
     0
100
AcDbMText
 10
0.3708526205
 20
0.1342778896
 30
0.0039370079
 40
0.1041666667
 41
0.0
 71
     1
 72
     1
  1

  7
SLDTEXTSTYLE0
 73
     1
 44
1.0
  0
ENDBLK
  5
7F
330
7D
100
AcDbEntity
  8
0
100
AcDbBlockEnd
  0
BLOCK
  5
A6
330
A5
100
AcDbEntity
  8
0
100
AcDbBlockBegin
  2
_D
 70
     0
 10
0.0
 20
0.0
 30
0.0
  3
_D
  1

  0
SOLID
  5
A8
330
A5
100
AcDbEntity
  8
DIMS
100
AcDbTrace
 10
1.1731667618
 20
14.5536855498
 30
0.0
 11
1.5371804337
 21
14.4976834464
 31
0.0
 12
1.5371804337
 22
14.6096876531
 32
0.0
 13
1.5371804337
 23
14.6096876531
 33
0.0
  0
SOLID
  5
A9
330
A5
100
AcDbEntity
  8
DIMS
100
AcDbTrace
 10
32.3607799424
 20
14.5536855498
 30
0.0
 11
31.9967662706
 21
14.6096876531
 31
0.0
 12
31.9967662706
 22
14.4976834464
 32
0.0
 13
31.9967662706
 23
14.4976834464
 33
0.0
  0
LINE
  5
AA
330
A5
100
AcDbEntity
  8
DIMS
100
AcDbLine
 10
6.1415848435
 20
14.9537202477
 30
0.0
 11
6.8033904016
 21
14.9537202477
 31
0.0
  0
LINE
  5
AB
330
A5
100
AcDbEntity
  8
DIMS
100
AcDbLine
 10
5.9294320588
 20
14.3278869416
 30
0.0
 11
5.8460987265
 21
14.3278869416
 31
0.0
  0
LINE
  5
AC
330
A5
100
AcDbEntity
  8
DIMS
100
AcDbLine
 10
5.8460987265
 20
14.3278869416
 30
0.0
 11
5.8460987265
 21
13.7688591728
 31
0.0
  0
LINE
  5
AD
330
A5
100
AcDbEntity
  8
DIMS
100
AcDbLine
 10
5.8460987265
 20
13.7688591728
 30
0.0
 11
5.9294320588
 21
13.7688591728
 31
0.0
  0
LINE
  5
AE
330
A5
100
AcDbEntity
  8
DIMS
100
AcDbLine
 10
6.9710987496
 20
14.3278869416
 30
0.0
 11
7.0544320819
 21
14.3278869416
 31
0.0
  0
LINE
  5
AF
330
A5
100
AcDbEntity
  8
DIMS
100
AcDbLine
 10
7.0544320819
 20
14.3278869416
 30
0.0
 11
7.0544320819
 21
13.7688591728
 31
0.0
  0
LINE
  5
B0
330
A5
100
AcDbEntity
  8
DIMS
100
AcDbLine
 10
7.0544320819
 20
13.7688591728
 30
0.0
 11
6.9710987496
 21
13.7688591728
 31
0.0
  0
LINE
  5
B1
330
A5
100
AcDbEntity
  8
DIMS
100
AcDbLine
 10
1.1731667618
 20
14.5536855498
 30
0.0
 11
5.4495332457
 21
14.5536855498
 31
0.0
  0
LINE
  5
B2
330
A5
100
AcDbEntity
  8
DIMS
100
AcDbLine
 10
32.3607799424
 20
14.5536855498
 30
0.0
 11
7.450997526
 21
14.5536855498
 31
0.0
  0
MTEXT
  5
B3
330
A5
100
AcDbEntity
  8
DIMS
100
AcDbMText
 10
5.53290429
 20
15.149768183
 30
0.0039370079
 40
0.375
 41
0.0
 71
     1
 72
     1
  1
31
  7
SLDTEXTSTYLE0
 73
     1
 44
1.0
  0
MTEXT
  5
B4
330
A5
100
AcDbEntity
  8
DIMS
100
AcDbMText
 10
6.3335987353
 20
15.4052456583
 30
0.0039370079
 40
0.375
 41
0.0
 71
     1
 72
     1
  1
3
  7
SLDTEXTSTYLE0
 73
     1
 44
1.0
  0
MTEXT
  5
B5
330
A5
100
AcDbEntity
  8
DIMS
100
AcDbMText
 10
6.1947098481
 20
14.8946206637
 30
0.0039370079
 40
0.375
 41
0.0
 71
     1
 72
     1
  1
16
  7
SLDTEXTSTYLE0
 73
     1
 44
1.0
  0
MTEXT
  5
B6
330
A5
100
AcDbEntity
  8
DIMS
100
AcDbMText
 10
6.8565154795
 20
15.149768183
 30
0.0039370079
 40
0.375
 41
0.0
 71
     1
 72
     1
  1
"
  7
SLDTEXTSTYLE0
 73
     1
 44
1.0
  0
MTEXT
  5
B7
330
A5
100
AcDbEntity
  8
DIMS
100
AcDbMText
 10
6.0335987243
 20
14.2522595844
 30
0.0039370079
 40
0.375
 41
0.0
 71
     1
 72
     1
  1
792
  7
SLDTEXTSTYLE0
 73
     1
 44
1.0
  0
ENDBLK
  5
A7
330
A5
100
AcDbEntity
  8
0
100
AcDbBlockEnd
  0
BLOCK
  5
BA
330
B9
100
AcDbEntity
  8
0
100
AcDbBlockBegin
  2
_D_1
 70
     0
 10
0.0
 20
0.0
 30
0.0
  3
_D_1
  1

  0
SOLID
  5
BC
330
B9
100
AcDbEntity
  8
DIMS
100
AcDbTrace
 10
28.2117176186
 20
21.3219283309
 30
0.0
 11
28.1557155152
 21
20.957914659
 31
0.0
 12
28.2677197219
 22
20.957914659
 32
0.0
 13
28.2677197219
 23
20.957914659
 33
0.0
  0
SOLID
  5
BD
330
B9
100
AcDbEntity
  8
DIMS
100
AcDbTrace
 10
28.2117176186
 20
1.0093151502
 30
0.0
 11
28.2677197219
 21
1.3733288221
 31
0.0
 12
28.1557155152
 22
1.3733288221
 32
0.0
 13
28.1557155152
 23
1.3733288221
 33
0.0
  0
LINE
  5
BE
330
B9
100
AcDbEntity
  8
DIMS
100
AcDbLine
 10
27.9030370761
 20
17.8380345414
 30
0.0
 11
28.5648426342
 21
17.8380345414
 31
0.0
  0
LINE
  5
BF
330
B9
100
AcDbEntity
  8
DIMS
100
AcDbLine
 10
27.6908842915
 20
17.2122012352
 30
0.0
 11
27.6075509592
 21
17.2122012352
 31
0.0
  0
LINE
  5
C0
330
B9
100
AcDbEntity
  8
DIMS
100
AcDbLine
 10
27.6075509592
 20
17.2122012352
 30
0.0
 11
27.6075509592
 21
16.6531734665
 31
0.0
  0
LINE
  5
C1
330
B9
100
AcDbEntity
  8
DIMS
100
AcDbLine
 10
27.6075509592
 20
16.6531734665
 30
0.0
 11
27.6908842915
 21
16.6531734665
 31
0.0
  0
LINE
  5
C2
330
B9
100
AcDbEntity
  8
DIMS
100
AcDbLine
 10
28.7325509823
 20
17.2122012352
 30
0.0
 11
28.8158843146
 21
17.2122012352
 31
0.0
  0
LINE
  5
C3
330
B9
100
AcDbEntity
  8
DIMS
100
AcDbLine
 10
28.8158843146
 20
17.2122012352
 30
0.0
 11
28.8158843146
 21
16.6531734665
 31
0.0
  0
LINE
  5
C4
330
B9
100
AcDbEntity
  8
DIMS
100
AcDbLine
 10
28.8158843146
 20
16.6531734665
 30
0.0
 11
28.7325509823
 21
16.6531734665
 31
0.0
  0
LINE
  5
C5
330
B9
100
AcDbEntity
  8
DIMS
100
AcDbLine
 10
16.8169733521
 20
21.3219283309
 30
0.0
 11
28.3367176186
 21
21.3219283309
 31
0.0
  0
LINE
  5
C6
330
B9
100
AcDbEntity
  8
DIMS
100
AcDbLine
 10
28.2117176186
 20
21.3219283309
 30
0.0
 11
28.2117176186
 21
18.3061595344
 31
0.0
  0
LINE
  5
C7
330
B9
100
AcDbEntity
  8
DIMS
100
AcDbLine
 10
28.2117176186
 20
1.0093151502
 30
0.0
 11
28.2117176186
 21
16.5698401525
 31
0.0
  0
MTEXT
  5
C8
330
B9
100
AcDbEntity
  8
DIMS
100
AcDbMText
 10
27.2943565227
 20
18.0340824767
 30
0.0039370079
 40
0.375
 41
0.0
 71
     1
 72
     1
  1
20
  7
SLDTEXTSTYLE0
 73
     1
 44
1.0
  0
MTEXT
  5
C9
330
B9
100
AcDbEntity
  8
DIMS
100
AcDbMText
 10
28.095050968
 20
18.289559952
 30
0.0039370079
 40
0.375
 41
0.0
 71
     1
 72
     1
  1
5
  7
SLDTEXTSTYLE0
 73
     1
 44
1.0
  0
MTEXT
  5
CA
330
B9
100
AcDbEntity
  8
DIMS
100
AcDbMText
 10
27.9561620808
 20
17.7789349574
 30
0.0039370079
 40
0.375
 41
0.0
 71
     1
 72
     1
  1
16
  7
SLDTEXTSTYLE0
 73
     1
 44
1.0
  0
MTEXT
  5
CB
330
B9
100
AcDbEntity
  8
DIMS
100
AcDbMText
 10
28.6179677122
 20
18.0340824767
 30
0.0039370079
 40
0.375
 41
0.0
 71
     1
 72
     1
  1
"
  7
SLDTEXTSTYLE0
 73
     1
 44
1.0
  0
MTEXT
  5
CC
330
B9
100
AcDbEntity
  8
DIMS
100
AcDbMText
 10
27.7950509569
 20
17.1365738781
 30
0.0039370079
 40
0.375
 41
0.0
 71
     1
 72
     1
  1
516
  7
SLDTEXTSTYLE0
 73
     1
 44
1.0
  0
ENDBLK
  5
BB
330
B9
100
AcDbEntity
  8
0
100
AcDbBlockEnd
  0
BLOCK
  5
D0
330
CF
100
AcDbEntity
  8
0
100
AcDbBlockBegin
  2
_D_2
 70
     0
 10
0.0
 20
0.0
 30
0.0
  3
_D_2
  1

  0
SOLID
  5
D2
330
CF
100
AcDbEntity
  8
DIMS
100
AcDbTrace
 10
1.3947344055
 20
1.1444962508
 30
0.0
 11
1.6680769039
 21
1.3913283141
 31
0.0
 12
1.5812444919
 22
1.4620748656
 32
0.0
 13
1.5812444919
 23
1.4620748656
 33
0.0
  0
LINE
  5
D3
330
CF
100
AcDbEntity
  8
DIMS
100
AcDbLine
 10
3.1138832885
 20
2.748953071
 30
0.0
 11
3.4979110722
 21
2.748953071
 31
0.0
  0
LINE
  5
D4
330
CF
100
AcDbEntity
  8
DIMS
100
AcDbLine
 10
2.9989526975
 20
2.1231197648
 30
0.0
 11
2.9156193651
 21
2.1231197648
 31
0.0
  0
LINE
  5
D5
330
CF
100
AcDbEntity
  8
DIMS
100
AcDbLine
 10
2.9156193651
 20
2.1231197648
 30
0.0
 11
2.9156193651
 21
1.5640919961
 31
0.0
  0
LINE
  5
D6
330
CF
100
AcDbEntity
  8
DIMS
100
AcDbLine
 10
2.9156193651
 20
1.5640919961
 30
0.0
 11
2.9989526975
 21
1.5640919961
 31
0.0
  0
LINE
  5
D7
330
CF
100
AcDbEntity
  8
DIMS
100
AcDbLine
 10
3.7628415771
 20
2.1231197648
 30
0.0
 11
3.8461749094
 21
2.1231197648
 31
0.0
  0
LINE
  5
D8
330
CF
100
AcDbEntity
  8
DIMS
100
AcDbLine
 10
3.8461749094
 20
2.1231197648
 30
0.0
 11
3.8461749094
 21
1.5640919961
 31
0.0
  0
LINE
  5
D9
330
CF
100
AcDbEntity
  8
DIMS
100
AcDbLine
 10
3.8461749094
 20
1.5640919961
 30
0.0
 11
3.7628415771
 21
1.5640919961
 31
0.0
  0
LINE
  5
DA
330
CF
100
AcDbEntity
  8
DIMS
100
AcDbLine
 10
1.3947344055
 20
1.1444962508
 30
0.0
 11
2.4496471588
 21
2.4392677543
 31
0.0
  0
LINE
  5
DB
330
CF
100
AcDbEntity
  8
DIMS
100
AcDbLine
 10
2.4496471588
 20
2.4392677543
 30
0.0
 11
2.6996471588
 21
2.4392677543
 31
0.0
  0
MTEXT
  5
DC
330
CF
100
AcDbEntity
  8
DIMS
100
AcDbMText
 10
2.6996471588
 20
2.9450010063
 30
0.0039370079
 40
0.375
 41
0.0
 71
     1
 72
     1
  1
R
  7
SLDTEXTSTYLE0
 73
     1
 44
1.0
  0
MTEXT
  5
DD
330
CF
100
AcDbEntity
  8
DIMS
100
AcDbMText
 10
3.1670082931
 20
3.2004784816
 30
0.0039370079
 40
0.375
 41
0.0
 71
     1
 72
     1
  1
5
  7
SLDTEXTSTYLE0
 73
     1
 44
1.0
  0
MTEXT
  5
DE
330
CF
100
AcDbEntity
  8
DIMS
100
AcDbMText
 10
3.1670082931
 20
2.689853487
 30
0.0039370079
 40
0.375
 41
0.0
 71
     1
 72
     1
  1
8
  7
SLDTEXTSTYLE0
 73
     1
 44
1.0
  0
MTEXT
  5
DF
330
CF
100
AcDbEntity
  8
DIMS
100
AcDbMText
 10
3.5510360768
 20
2.9450010063
 30
0.0039370079
 40
0.375
 41
0.0
 71
     1
 72
     1
  1
"
  7
SLDTEXTSTYLE0
 73
     1
 44
1.0
  0
MTEXT
  5
E0
330
CF
100
AcDbEntity
  8
DIMS
100
AcDbMText
 10
3.1031193629
 20
2.0474924077
 30
0.0039370079
 40
0.375
 41
0.0
 71
     1
 72
     1
  1
15
  7
SLDTEXTSTYLE0
 73
     1
 44
1.0
  0
ENDBLK
  5
D1
330
CF
100
AcDbEntity
  8
0
100
AcDbBlockEnd
  0
BLOCK
  5
E4
330
E3
100
AcDbEntity
  8
0
100
AcDbBlockBegin
  2
_D_3
 70
     0
 10
0.0
 20
0.0
 30
0.0
  3
_D_3
  1

  0
SOLID
  5
E6
330
E3
100
AcDbEntity
  8
DIMS
100
AcDbTrace
 10
11.8655932938
 20
21.1722844393
 30
0.0
 11
11.8319021787
 21
20.8055323464
 31
0.0
 12
11.9436977726
 22
20.8123651716
 32
0.0
 13
11.9436977726
 23
20.8123651716
 33
0.0
  0
LINE
  5
E7
330
E3
100
AcDbEntity
  8
DIMS
100
AcDbLine
 10
11.9837556883
 20
19.8151136869
 30
0.0
 11
12.367783472
 21
19.8151136869
 31
0.0
  0
LINE
  5
E8
330
E3
100
AcDbEntity
  8
DIMS
100
AcDbLine
 10
11.313269585
 20
19.1892803808
 30
0.0
 11
11.2299362527
 21
19.1892803808
 31
0.0
  0
LINE
  5
E9
330
E3
100
AcDbEntity
  8
DIMS
100
AcDbLine
 10
11.2299362527
 20
19.1892803808
 30
0.0
 11
11.2299362527
 21
18.630252612
 31
0.0
  0
LINE
  5
EA
330
E3
100
AcDbEntity
  8
DIMS
100
AcDbLine
 10
11.2299362527
 20
18.630252612
 30
0.0
 11
11.313269585
 21
18.630252612
 31
0.0
  0
LINE
  5
EB
330
E3
100
AcDbEntity
  8
DIMS
100
AcDbLine
 10
12.6327140135
 20
19.1892803808
 30
0.0
 11
12.7160473459
 21
19.1892803808
 31
0.0
  0
LINE
  5
EC
330
E3
100
AcDbEntity
  8
DIMS
100
AcDbLine
 10
12.7160473459
 20
19.1892803808
 30
0.0
 11
12.7160473459
 21
18.630252612
 31
0.0
  0
LINE
  5
ED
330
E3
100
AcDbEntity
  8
DIMS
100
AcDbLine
 10
12.7160473459
 20
18.630252612
 30
0.0
 11
12.6327140135
 21
18.630252612
 31
0.0
  0
LINE
  5
EE
330
E3
100
AcDbEntity
  8
DIMS
100
AcDbLine
 10
12.0721950168
 20
17.7919605332
 30
0.0
 11
12.0260527576
 21
18.546919298
 31
0.0
  0
LINE
  5
EF
330
E3
100
AcDbEntity
  8
DIMS
100
AcDbLine
 10
11.8655932938
 20
21.1722844393
 30
0.0
 11
11.9199308043
 21
20.2832386799
 31
0.0
  0
LINE
  5
F0
330
E3
100
AcDbEntity
  8
DIMS
100
AcDbLine
 10
12.0721950168
 20
17.7919605332
 30
0.0
 11
13.4197898597
 21
18.1541553926
 31
0.0
  0
LINE
  5
F1
330
E3
100
AcDbEntity
  8
DIMS
100
AcDbLine
 10
13.4197898597
 20
18.1541553926
 30
0.0
 11
13.506592274
 21
16.7339335666
 31
0.0
  0
LINE
  5
F2
330
E3
100
AcDbEntity
  8
DIMS
100
AcDbLine
 10
13.506592274
 20
17.74454601
 30
0.0
 11
13.506592274
 21
15.7233211233
 31
0.0
  0
LINE
  5
F3
330
E3
100
AcDbEntity
  8
DIMS
100
AcDbLine
 10
12.4959798307
 20
16.7339335666
 30
0.0
 11
14.5172047173
 21
16.7339335666
 31
0.0
  0
MTEXT
  5
F4
330
E3
100
AcDbEntity
  8
DIMS
100
AcDbMText
 10
11.0139640464
 20
20.0111616222
 30
0.0039370079
 40
0.375
 41
0.0
 71
     1
 72
     1
  1
R80
  7
SLDTEXTSTYLE0
 73
     1
 44
1.0
  0
MTEXT
  5
F5
330
E3
100
AcDbEntity
  8
DIMS
100
AcDbMText
 10
12.0368806929
 20
20.2666390976
 30
0.0039370079
 40
0.375
 41
0.0
 71
     1
 72
     1
  1
3
  7
SLDTEXTSTYLE0
 73
     1
 44
1.0
  0
MTEXT
  5
F6
330
E3
100
AcDbEntity
  8
DIMS
100
AcDbMText
 10
12.0368806929
 20
19.7560141029
 30
0.0039370079
 40
0.375
 41
0.0
 71
     1
 72
     1
  1
8
  7
SLDTEXTSTYLE0
 73
     1
 44
1.0
  0
MTEXT
  5
F7
330
E3
100
AcDbEntity
  8
DIMS
100
AcDbMText
 10
12.4209085133
 20
20.0111616222
 30
0.0039370079
 40
0.375
 41
0.0
 71
     1
 72
     1
  1
"
  7
SLDTEXTSTYLE0
 73
     1
 44
1.0
  0
MTEXT
  5
F8
330
E3
100
AcDbEntity
  8
DIMS
100
AcDbMText
 10
11.4174362504
 20
19.1136530236
 30
0.0039370079
 40
0.375
 41
0.0
 71
     1
 72
     1
  1
2041
  7
SLDTEXTSTYLE0
 73
     1
 44
1.0
  0
ENDBLK
  5
E5
330
E3
100
AcDbEntity
  8
0
100
AcDbBlockEnd
  0
BLOCK
  5
FA
330
F9
100
AcDbEntity
  8
0
100
AcDbBlockBegin
  2
SW_NOTE_0
 70
     0
 10
0.0
 20
0.0
 30
0.0
  3
SW_NOTE_0
  1

  0
MTEXT
  5
FC
330
F9
100
AcDbEntity
  8
NOTES
 62
     0
100
AcDbMText
 10
0.0
 20
0.2685557791
 30
0.0
 40
0.2083333333
 41
0.0
 71
     1
 72
     1
  1
NOTES:
  7
SLDTEXTSTYLE0
 73
     1
 44
1.0
  0
MTEXT
  5
FD
330
F9
100
AcDbEntity
  8
NOTES
 62
     0
100
AcDbMText
 10
0.3937007786
 20
-0.2869997697
 30
0.0
 40
0.2083333333
 41
0.0
 71
     1
 72
     1
  1
THOROUGHLY READ ALL  INSTALLATION INSTRUCTIONS
  7
SLDTEXTSTYLE0
 73
     1
 44
1.0
  0
MTEXT
  5
FE
330
F9
100
AcDbEntity
  8
NOTES
 62
     0
100
AcDbMText
 10
0.0
 20
-0.2869997697
 30
0.0
 40
0.2083333333
 41
0.0
 71
     1
 72
     1
  1
1.
  7
SLDTEXTSTYLE0
 73
     1
 44
1.0
  0
MTEXT
  5
FF
330
F9
100
AcDbEntity
  8
NOTES
 62
     0
100
AcDbMText
 10
0.0
 20
-0.5647775441
 30
0.0
 40
0.2083333333
 41
0.0
 71
     1
 72
     1
  1
BEFORE CUTTING COUNTERTOP.
  7
SLDTEXTSTYLE0
 73
     1
 44
1.0
  0
MTEXT
  5
100
330
F9
100
AcDbEntity
  8
NOTES
 62
     0
100
AcDbMText
 10
0.0
 20
-1.120333093
 30
0.0
 40
0.2083333333
 41
0.0
 71
     1
 72
     1
  1
2.  DIMENSIONS ARE IN INCHES [MM].
  7
SLDTEXTSTYLE0
 73
     1
 44
1.0
  0
MTEXT
  5
101
330
F9
100
AcDbEntity
  8
NOTES
 62
     0
100
AcDbMText
 10
0.0
 20
-1.9536664162
 30
0.0
 40
0.2083333333
 41
0.0
 71
     1
 72
     1
  1
PLEASE CHECK TEMPLATE AGAINST PHYSICAL SINK FOR MOST ACCURATE CUT.
  7
SLDTEXTSTYLE0
 73
     1
 44
1.0
  0
MTEXT
  5
102
330
F9
100
AcDbEntity
  8
NOTES
 62
     0
100
AcDbMText
 10
0.0
 20
-3.0647775139
 30
0.0
 40
0.2083333333
 41
0.0
 71
     1
 72
     1
  1
NOTAS:
  7
SLDTEXTSTYLE0
 73
     1
 44
1.0
  0
MTEXT
  5
103
330
F9
100
AcDbEntity
  8
NOTES
 62
     0
100
AcDbMText
 10
0.0
 20
-3.6203330628
 30
0.0
 40
0.2083333333
 41
0.0
 71
     1
 72
     1
  1
1.  LEA ATENTAMENTE LAS INSTRUCCIONES DE INSTALACIÓN ANTES DE CORTAR LA ENCIMERA.
  7
SLDTEXTSTYLE0
 73
     1
 44
1.0
  0
MTEXT
  5
104
330
F9
100
AcDbEntity
  8
NOTES
 62
     0
100
AcDbMText
 10
0.0
 20
-4.1758886116
 30
0.0
 40
0.2083333333
 41
0.0
 71
     1
 72
     1
  1
2.  DIMENSIONES EN PULGADAS [MM].
  7
SLDTEXTSTYLE0
 73
     1
 44
1.0
  0
MTEXT
  5
105
330
F9
100
AcDbEntity
  8
NOTES
 62
     0
100
AcDbMText
 10
0.0
 20
-5.0092219349
 30
0.0
 40
0.2083333333
 41
0.0
 71
     1
 72
     1
  1
POR FAVOR COMPRUEBE PLANTILLA CONTRA FREGADERO FÍSICO PARA CORTE MÁS EXACTO.
  7
SLDTEXTSTYLE0
 73
     1
 44
1.0
  0
ENDBLK
  5
FB
330
F9
100
AcDbEntity
  8
0
100
AcDbBlockEnd
  0
BLOCK
  5
108
330
107
100
AcDbEntity
  8
0
100
AcDbBlockBegin
  2
SW_NOTE_1
 70
     0
 10
0.0
 20
0.0
 30
0.0
  3
SW_NOTE_1
  1

  0
MTEXT
  5
10A
330
107
100
AcDbEntity
  8
NOTES
 62
     0
100
AcDbMText
 10
-0.8915204571
 20
0.6874561189
 30
0.0
 40
0.2083333333
 41
0.0
 71
     2
 72
     1
  1
TEMPLATE
  7
SLDTEXTSTYLE0
 73
     1
 44
1.0
  0
MTEXT
  5
10B
330
107
100
AcDbEntity
  8
NOTES
 62
     0
100
AcDbMText
 10
-0.8883857868
 20
0.4096783444
 30
0.0
 40
0.2083333333
 41
0.0
 71
     2
 72
     1
  1
CENTERLINE
  7
SLDTEXTSTYLE0
 73
     1
 44
1.0
  0
MTEXT
  5
10C
330
107
100
AcDbEntity
  8
NOTES
 62
     0
100
AcDbMText
 10
-0.8882652487
 20
-0.1458772044
 30
0.0
 40
0.2083333333
 41
0.0
 71
     2
 72
     1
  1
PLANTILLA
  7
SLDTEXTSTYLE0
 73
     1
 44
1.0
  0
MTEXT
  5
10D
330
107
100
AcDbEntity
  8
NOTES
 62
     0
100
AcDbMText
 10
-0.8912793142
 20
-0.4236549788
 30
0.0
 40
0.2083333333
 41
0.0
 71
     2
 72
     1
  1
CENTRAL
  7
SLDTEXTSTYLE0
 73
     1
 44
1.0
  0
ENDBLK
  5
109
330
107
100
AcDbEntity
  8
0
100
AcDbBlockEnd
  0
BLOCK
  5
113
330
112
100
AcDbEntity
  8
0
100
AcDbBlockBegin
  2
SW_NOTE_2
 70
     0
 10
0.0
 20
0.0
 30
0.0
  3
SW_NOTE_2
  1

  0
MTEXT
  5
115
330
112
100
AcDbEntity
  8
NOTES
 62
     0
100
AcDbMText
 10
6.0042317708
 20
0.9399452269
 30
0.0
 40
0.7291666667
 41
0.0
 71
     2
 72
     1
  1
TEMPLATE #: 1000001417
  7
SLDTEXTSTYLE0
 73
     1
 44
1.0
  0
MTEXT
  5
116
330
112
100
AcDbEntity
  8
NOTES
 62
     0
100
AcDbMText
 10
5.9841462446
 20
-0.0161384826
 30
0.0
 40
0.3645833333
 41
0.0
 71
     2
 72
     1
  1
REVEAL UNDERMOUNT TEMPLATE 33" X 22"
  7
SLDTEXTSTYLE0
 73
     1
 44
1.0
  0
ENDBLK
  5
114
330
112
100
AcDbEntity
  8
0
100
AcDbBlockEnd
  0
BLOCK
  5
119
330
118
100
AcDbEntity
  8
0
100
AcDbBlockBegin
  2
SW_NOTE_3
 70
     0
 10
0.0
 20
0.0
 30
0.0
  3
SW_NOTE_3
  1

  0
MTEXT
  5
11B
330
118
100
AcDbEntity
  8
NOTES
 62
     0
100
AcDbMText
 10
0.0220653979
 20
0.2705603234
 30
0.0
 40
0.2083333333
 41
0.0
 71
     1
 72
     1
  1
1/2" REVEAL
  7
SLDTEXTSTYLE0
 73
     1
 44
1.0
  0
MTEXT
  5
11C
330
118
100
AcDbEntity
  8
NOTES
 62
     0
100
AcDbMText
 10
0.0220653979
 20
-0.007217451
 30
0.0
 40
0.2083333333
 41
0.0
 71
     1
 72
     1
  1
[12.7 REVELADO]
  7
SLDTEXTSTYLE0
 73
     1
 44
1.0
  0
ENDBLK
  5
11A
330
118
100
AcDbEntity
  8
0
100
AcDbBlockEnd
  0
ENDSEC
  0
SECTION
  2
ENTITIES
  0
LINE
  5
95
330
1F
100
AcDbEntity
  8
OBJECTS
100
AcDbLine
 10
1.1731667618
 20
1.6108158422
 30
0.0
 11
1.1731667618
 21
16.1031217406
 31
0.0
  0
LINE
  5
96
330
1F
100
AcDbEntity
  8
OBJECTS
100
AcDbLine
 10
31.7592792505
 20
1.0093151502
 30
0.0
 11
1.7746674537
 21
1.0093151502
 31
0.0
  0
LINE
  5
97
330
1F
100
AcDbEntity
  8
OBJECTS
100
AcDbLine
 10
32.3607799424
 20
16.1031217406
 30
0.0
 11
32.3607799424
 21
1.6108158422
 31
0.0
  0
LINE
  5
98
330
1F
100
AcDbEntity
  8
OBJECTS
100
AcDbLine
 10
16.7669733521
 20
1.0093151502
 30
0.0
 11
16.7669733521
 21
3.0093151502
 31
0.0
  0
LINE
  5
99
330
1F
100
AcDbEntity
  8
OBJECTS
  6
CENTERX2
100
AcDbLine
 10
16.7669733521
 20
21.3219283309
 30
0.0
 11
16.7669733521
 21
19.3219283309
 31
0.0
  0
LINE
  5
9A
330
1F
100
AcDbEntity
  8
OBJECTS
  6
CENTERX2
100
AcDbLine
 10
32.3607799424
 20
11.1752955738
 30
0.0
 11
30.3607925511
 21
11.1681938553
 31
0.0
  0
LINE
  5
9B
330
1F
100
AcDbEntity
  8
OBJECTS
  6
CENTERX2
100
AcDbLine
 10
3.1731667618
 20
11.1656217406
 30
0.0
 11
1.1731667618
 21
11.1656217406
 31
0.0
  0
ARC
  5
9C
330
1F
100
AcDbEntity
  8
OBJECTS
100
AcDbCircle
 10
1.7746674537
 20
1.6108158422
 30
0.0
 40
0.6015006919272665
100
AcDbArc
 50
180.0
 51
270.0
  0
ARC
  5
9D
330
1F
100
AcDbEntity
  8
OBJECTS
100
AcDbCircle
 10
31.7592792505
 20
1.6108158422
 30
0.0
 40
0.6015006919272672
100
AcDbArc
 50
270.0
 51
0.0
  0
ARC
  5
9E
330
1F
100
AcDbEntity
  8
OBJECTS
100
AcDbCircle
 10
16.7669733521
 20
-59.0218782594
 30
0.0
 40
80.34380659032618
100
AcDbArc
 50
83.6430685972
 51
96.3569314028
  0
SPLINE
  5
9F
330
1F
100
AcDbEntity
  8
OBJECTS
100
AcDbSpline
210
0.0
220
0.0
230
1.0
 70
     8
 71
     3
 72
    50
 73
    46
 74
     0
 42
0.00000001
 43
0.00000001
 12
1.0
 22
0.0
 32
0.0
 13
1.0
 23
0.0
 33
0.0
 40
0.0
 40
0.0
 40
0.0
 40
0.0
 40
0.0625000000000009
 40
0.0625000000000009
 40
0.1250000000000017
 40
0.1250000000000017
 40
0.2500000000000034
 40
0.2500000000000034
 40
0.3125000000000043
 40
0.3125000000000043
 40
0.3437500000000047
 40
0.3437500000000047
 40
0.3750000000000051
 40
0.3750000000000051
 40
0.4375000000000057
 40
0.4375000000000057
 40
0.5000000000000063
 40
0.5000000000000063
 40
0.562500000000007
 40
0.562500000000007
 40
0.5781250000000072
 40
0.5781250000000072
 40
0.5937500000000074
 40
0.5937500000000074
 40
0.6250000000000071
 40
0.6250000000000071
 40
0.6875000000000063
 40
0.6875000000000063
 40
0.7500000000000056
 40
0.7500000000000056
 40
0.781250000000005
 40
0.781250000000005
 40
0.7968750000000047
 40
0.7968750000000047
 40
0.8125000000000043
 40
0.8125000000000043
 40
0.8750000000000028
 40
0.8750000000000028
 40
0.9062500000000021
 40
0.9062500000000021
 40
0.9375000000000014
 40
0.9375000000000014
 40
0.9687500000000008
 40
0.9687500000000008
 40
1.0
 40
1.0
 40
1.0
 40
1.0
 10
25.66279199339165
 20
20.82792867912152
 30
0.0
 10
25.85459359893754
 20
20.80656065879112
 30
0.0
 10
26.04617455480881
 20
20.78347662223523
 30
0.0
 10
26.42882723551078
 20
20.73334820461072
 30
0.0
 10
26.61994826704131
 20
20.70629721263941
 30
0.0
 10
27.19202812017203
 20
20.61828297137512
 30
0.0
 10
27.57163439412059
 20
20.55061799866466
 30
0.0
 10
28.13727288461284
 20
20.4300809433376
 30
0.0
 10
28.32518479230951
 20
20.38669953052099
 30
0.0
 10
28.60588740150738
 20
20.31574398451991
 30
0.0
 10
28.69928607931077
 20
20.29109965999357
 30
0.0
 10
28.88515115958619
 20
20.23975401148249
 30
0.0
 10
28.97767397141737
 20
20.21303921042091
 30
0.0
 10
29.25387621763297
 20
20.12942046212124
 30
0.0
 10
29.43619954081047
 20
20.06906779923067
 30
0.0
 10
29.79628912243199
 20
19.93677343827619
 30
0.0
 10
29.97406497359125
 20
19.86485613537036
 30
0.0
 10
30.32368913763386
 20
19.70594725399146
 30
0.0
 10
30.49555192277847
 20
19.6189924798112
 30
0.0
 10
30.70536804979292
 20
19.49755213333195
 30
0.0
 10
30.74712780016532
 20
19.47258732319502
 30
0.0
 10
30.82964576966916
 20
19.42153902448951
 30
0.0
 10
30.8704446695583
 20
19.39543388968552
 30
0.0
 10
30.99137447144741
 20
19.31526611772879
 30
0.0
 10
31.07004121163842
 20
19.25935456795566
 30
0.0
 10
31.29939774264501
 20
19.08323040771582
 30
0.0
 10
31.44356473500993
 20
18.95467062248617
 30
0.0
 10
31.70875623202717
 20
18.66877031480585
 30
0.0
 10
31.82531517887384
 20
18.5158442873962
 30
0.0
 10
31.97451486104011
 20
18.27050637971866
 30
0.0
 10
32.01998028766523
 20
18.1860722435003
 30
0.0
 10
32.08154112868495
 20
18.05529223242908
 30
0.0
 10
32.10095850597349
 20
18.01101282210771
 30
0.0
 10
32.13758511339797
 20
17.92108039859315
 30
0.0
 10
32.15483423863173
 20
17.87529900332199
 30
0.0
 10
32.23474602506778
 20
17.6454600993979
 30
0.0
 10
32.27892762588662
 20
17.45744082069972
 30
0.0
 10
32.3226603434493
 20
17.17067730031892
 30
0.0
 10
32.3335062357533
 20
17.07430559728934
 30
0.0
 10
32.34933213579431
 20
16.88033002527918
 30
0.0
 10
32.35426844731541
 20
16.78323870613901
 30
0.0
 10
32.36018040201554
 20
16.58900787714248
 30
0.0
 10
32.36116152425545
 20
16.49184942019784
 30
0.0
 10
32.3614646906608
 20
16.2974963462993
 30
0.0
 10
32.3607799424418
 20
16.20030158130373
 30
0.0
 10
32.36077994244179
 20
16.10312174056176
 30
0.0
  0
SPLINE
  5
A0
330
1F
100
AcDbEntity
  8
OBJECTS
100
AcDbSpline
210
0.0
220
0.0
230
1.0
 70
     8
 71
     3
 72
    52
 73
    48
 74
     0
 42
0.00000001
 43
0.00000001
 12
1.0
 22
0.0
 32
0.0
 13
1.0
 23
0.0
 33
0.0
 40
0.0
 40
0.0
 40
0.0
 40
0.0
 40
0.0312500000000011
 40
0.0312500000000011
 40
0.0625000000000021
 40
0.0625000000000021
 40
0.0937500000000032
 40
0.0937500000000032
 40
0.1250000000000042
 40
0.1250000000000042
 40
0.187500000000006
 40
0.187500000000006
 40
0.2031250000000063
 40
0.2031250000000063
 40
0.2187500000000066
 40
0.2187500000000066
 40
0.2500000000000066
 40
0.2500000000000066
 40
0.3125000000000061
 40
0.3125000000000061
 40
0.3281250000000058
 40
0.3281250000000058
 40
0.3437500000000056
 40
0.3437500000000056
 40
0.3750000000000056
 40
0.3750000000000056
 40
0.4375000000000057
 40
0.4375000000000057
 40
0.4687500000000054
 40
0.4687500000000054
 40
0.4843750000000052
 40
0.4843750000000052
 40
0.5000000000000051
 40
0.5000000000000051
 40
0.5625000000000044
 40
0.5625000000000044
 40
0.6250000000000037
 40
0.6250000000000037
 40
0.6875000000000029
 40
0.6875000000000029
 40
0.7500000000000021
 40
0.7500000000000021
 40
0.8125000000000014
 40
0.8125000000000014
 40
0.8750000000000007
 40
0.8750000000000007
 40
1.0
 40
1.0
 40
1.0
 40
1.0
 10
1.173166761789467
 20
16.10312174056177
 30
0.0
 10
1.173166761789467
 20
16.20053347711633
 30
0.0
 10
1.17247339125647
 20
16.29796716236703
 30
0.0
 10
1.17277009809138
 20
16.49278124319907
 30
0.0
 10
1.173771525502219
 20
16.59016127949397
 30
0.0
 10
1.179750212370754
 20
16.78479549682264
 30
0.0
 10
1.184723523081988
 20
16.88204980285429
 30
0.0
 10
1.200670288948139
 20
17.07636847989599
 30
0.0
 10
1.21167893318507
 20
17.17359137965014
 30
0.0
 10
1.25584465779658
 20
17.46162417433214
 30
0.0
 10
1.300285400737474
 20
17.64963153267086
 30
0.0
 10
1.380123894238726
 20
17.87813922877433
 30
0.0
 10
1.397300245772556
 20
17.92351722552983
 30
0.0
 10
1.434162854574286
 20
18.01360134613733
 30
0.0
 10
1.453888685485754
 20
18.058394274409
 30
0.0
 10
1.516685850210846
 20
18.19115569910662
 30
0.0
 10
1.562885231393268
 20
18.2765244531905
 30
0.0
 10
1.713938649519751
 20
18.52361134792451
 30
0.0
 10
1.831375468415879
 20
18.67621778781701
 30
0.0
 10
1.996746446404651
 20
18.85352496279359
 30
0.0
 10
2.030748370523229
 20
18.88831459208662
 30
0.0
 10
2.100549518682946
 20
18.95659235318758
 30
0.0
 10
2.13627676149078
 20
18.99000343435148
 30
0.0
 10
2.244951202077575
 20
19.08742743986834
 30
0.0
 10
2.319709282178562
 20
19.14895786455628
 30
0.0
 10
2.549960340695181
 20
19.32469722911054
 30
0.0
 10
2.711386004398019
 20
19.43011962211633
 30
0.0
 10
2.962555334766252
 20
19.5748781800093
 30
0.0
 10
3.04779603523441
 20
19.6208834199591
 30
0.0
 10
3.177664876984461
 20
19.68691766013596
 30
0.0
 10
3.221343236116766
 20
19.70845774468509
 30
0.0
 10
3.308966769821436
 20
19.75043213187855
 30
0.0
 10
3.352929409769982
 20
19.77087729503189
 30
0.0
 10
3.573439084448971
 20
19.87060093759477
 30
0.0
 10
3.752057802825373
 20
19.94243663473634
 30
0.0
 10
4.112617278245529
 20
20.07417319015784
 30
0.0
 10
4.294564273590471
 20
20.13405163656153
 30
0.0
 10
4.661053796836145
 20
20.24448375445947
 30
0.0
 10
4.845599532072034
 20
20.29502590320153
 30
0.0
 10
5.216787271778007
 20
20.38857909162102
 30
0.0
 10
5.403431246209874
 20
20.43158305396469
 30
0.0
 10
5.778451110231227
 20
20.5113688571182
 30
0.0
 10
5.966827920125408
 20
20.54814739161847
 30
0.0
 10
6.345040085664724
 20
20.61646445282473
 30
0.0
 10
6.53491677337105
 20
20.64800337561592
 30
0.0
 10
7.106172391011938
 20
20.73583580634112
 30
0.0
 10
7.488216006520827
 20
20.78526666909354
 30
0.0
 10
7.871154710839602
 20
20.82792867912152
 30
0.0
  0
INSERT
  5
A1
330
1F
100
AcDbEntity
  8
BLOCKS
100
AcDbBlockReference
  2
REVEAL- .500
 10
-12.5964377692
 20
-11.4658874682
 30
0.0
  0
POINT
  5
A2
330
1F
100
AcDbEntity
  8
OBJECTS
100
AcDbPoint
 10
16.7669733521
 20
21.3219283309
 30
0.0
  0
DIMENSION
  5
A3
330
1F
100
AcDbEntity
  8
DIMS
100
AcDbDimension
  2
_D
 10
32.3607799424
 20
14.5536855498
 30
0.0
 11
6.4502653859
 21
14.5536855498
 31
0.0
 70
   160
  1
<>
 71
     2
 42
-1.0
  3
SLDDIMSTYLE0
100
AcDbAlignedDimension
 13
1.1731667618
 23
16.1031217406
 33
0.0
 14
32.3607799424
 24
16.1031217406
 34
0.0
 50
0.0
100
AcDbRotatedDimension
  0
DIMENSION
  5
B8
330
1F
100
AcDbEntity
  8
DIMS
100
AcDbDimension
  2
_D_1
 10
28.2117176186
 20
1.0093151502
 30
0.0
 11
28.2117176186
 21
17.4379998435
 31
0.0
 70
   160
  1
<>
 71
     2
 42
-1.0
  3
SLDDIMSTYLE0
100
AcDbAlignedDimension
 13
16.7669733521
 23
21.3219283309
 33
0.0
 14
31.7592792505
 24
1.0093151502
 34
0.0
 50
90.0
100
AcDbRotatedDimension
  0
DIMENSION
  5
CD
330
1F
100
AcDbEntity
  8
DIMS
100
AcDbDimension
  2
_D_2
 10
1.7746674537
 20
1.6108158422
 30
0.0
 11
3.3808971556
 21
2.3489183731
 31
0.0
 70
   164
  1
<>
 71
     1
 42
-1.0
  3
SLDDIMSTYLE1
100
AcDbRadialDimension
 15
1.3947344055
 25
1.1444962508
 35
0.0
 40
0.0
  0
LARGE_RADIAL_DIMENSION
  5
E1
330
1F
100
AcDbEntity
  8
DIMS
 92
     2084
310
24080000180000000C00000012000000000000000C0000001400000001000000A000000009000000040000004F0D510B2FBB2740FF4B40D51A2C35400000000000000000C0E51515EFA92740887F2B5E37CE34400000000000000000688DBD5A2CE327409237F429F7CF34400000000000000000688DBD5A2CE327409237F4
310
29F7CF34400000000000000000050000000400000000000000010000000200000003000000200000000100000002000000030000000400000000000000000000000C00000012000000FF7F00000C000000140000000200000054000000200000000200000082D358D3AEF72740DFD2634AABD0334000000000000000001F22
310
801D4EBC2840DFD2634AABD03340000000000000000000000000000000000000000000000000000000000000F03F540000002000000002000000332CFDDE64A026408425D5AD7430334000000000000000002B285B34BA7526408425D5AD743033400000000000000000000000000000000000000000000000000000000000
310
00F03F5400000020000000020000002B285B34BA7526408425D5AD7430334000000000000000002B285B34BA75264003E5343C58A13240000000000000000000000000000000000000000000000000000000000000F03F5400000020000000020000002B285B34BA75264003E5343C58A132400000000000000000332CFDDE
310
64A0264003E5343C58A13240000000000000000000000000000000000000000000000000000000000000F03F5400000020000000020000005DC15717F34329408425D5AD74303340000000000000000066C5F9C19D6E29408425D5AD74303340000000000000000000000000000000000000000000000000000000000000F0
310
3F54000000200000000200000066C5F9C19D6E29408425D5AD74303340000000000000000066C5F9C19D6E294003E5343C58A13240000000000000000000000000000000000000000000000000000000000000F03F54000000200000000200000066C5F9C19D6E294003E5343C58A1324000000000000000005DC15717F343
310
294003E5343C58A13240000000000000000000000000000000000000000000000000000000000000F03F5400000020000000020000005BC3C7BEF624284094D2EDECBDCA31400000000000000000F5077CC9560D284079A032E7028C3240000000000000000000000000000000000000000000000000000000000000F03F54
310
00000020000000020000004F0D510B2FBB2740FF4B40D51A2C35400000000000000000B0EF9D2B01D72740BD41835482483440000000000000000000000000000000000000000000000000000000000000F03F5400000020000000020000005BC3C7BEF624284094D2EDECBDCA314000000000000000007B094DB2EED62A40
310
B5CF51BA76273240000000000000000000000000000000000000000000000000000000000000F03F5400000020000000020000007B094DB2EED62A40B5CF51BA762732400000000000000000A26E021060032B40592AFA11E3BB3040000000000000000000000000000000000000000000000000000000000000F03F540000
310
002000000002000000A26E021060032B404D3E3B919ABE31400000000000000000A26E021060032B40CC2C722557722F40000000000000000000000000000000000000000000000000000000000000F03F540000002000000002000000BB468011F1FD2840592AFA11E3BB304000000000000000008896840ECF082D40592A
310
FA11E3BB3040000000000000000000000000000000000000000000000000000000000000F03F0C0000001200000000000000980000000B0000001320695407F52540FC26EE26CDA13340080402814020703F00000000000000000000000000000000000000000000F03F000000000000F03F00000000000000000000000000
310
000000523830000300000001000000FFFFFFFFFFFFD73F5C8FC2F5285CE33F0000000000000000000000000000F03F00000000000000000000000000000000000000000000000000000000980000000B000000FF817BD96900284022BAB71F34E33340080402814020703F0000000000000000000000000000000000000000
310
0000F03F000000000000F03F00000000000000000000000000000000330000000100000001000000FFFFFFFFFFFFD73F5C8FC2F5285CE33F0000000000000000000000000000F03F00000000000000000000000000000000000000000000000000000000980000000B0000004EBD770FC3002840042BE3CD7B603340080402
310
814020703F00000000000000000000000000000000000000000000F03F000000000000F03F00000000000000000000000000000000380000000100000001000000FFFFFFFFFFFFD73F5C8FC2F5285CE33F0000000000000000000000000000F03F000000000000000000000000000000000000000000000000000000009800
310
00000B000000BD98309E44C528407B91AA9B60A23340080402814020703F00000000000000000000000000000000000000000000F03F000000000000F03F00000000000000000000000000000000220000000100000001000000FFFFFFFFFFFFD73F5C8FC2F5285CE33F0000000000000000000000000000F03F0000000000
310
00000000000000000000000000000000000000000000009C0000000B0000001DA50B3D9BC326405A38475BEDB93240080402814020703F00000000000000000000000000000000000000000000F03F000000000000F03F0000000000000000000000000000000032303431000000000400000001000000FFFFFFFFFFFFD73F
310
5C8FC2F5285CE33F0000000000000000000000000000F03F00000000000000000000000000000000000000000000000000000000
100
AcDbDimension
  2
_D_3
 10
27.0
 20
11.28
 30
0.0
 11
11.972991781
 21
19.415078989
 31
0.0
 70
   169
  1
<>
 71
     1
 42
-1.0
  3
SLDDIMSTYLE2
100
AcDbRadialDimensionLarge
 13
27.0
 23
11.28
 33
0.0
 14
27.07
 24
12.1
 34
0.0
 15
27.15
 25
13.0
 35
0.0
 40
0.0
  0
INSERT
  5
106
330
1F
100
AcDbEntity
  8
NOTES
100
AcDbBlockReference
  2
SW_NOTE_0
 10
5.3486661141
 20
10.2799492588
 30
0.0
  0
INSERT
  5
10E
102
{ACAD_REACTORS
330
110
330
111
102
}
330
1F
100
AcDbEntity
  8
NOTES
100
AcDbBlockReference
  2
SW_NOTE_1
 10
26.8639454862
 20
8.5752811826
 30
0.0
  0
LEADER
  5
110
330
1F
100
AcDbEntity
  8
NOTES
100
AcDbLeader
  3
SLDDIMSTYLE3
 73
     2
 76
     3
 10
31.1691163101
 20
11.1710641173
 30
0.0
 10
27.1139454862
 20
8.5752811826
 30
0.0
 10
26.8639454862
 20
8.5752811826
 30
0.0
340
10E
  0
LEADER
  5
111
330
1F
100
AcDbEntity
  8
NOTES
100
AcDbLeader
  3
SLDDIMSTYLE3
 73
     2
 76
     3
 10
16.7669733521
 20
2.0310025653
 30
0.0
 10
24.815774639
 20
8.5752811826
 30
0.0
 10
25.065774639
 20
8.5752811826
 30
0.0
340
10E
212
-1.798170847200801
222
0.0
232
0.0
  0
INSERT
  5
117
330
1F
100
AcDbEntity
  8
NOTES
100
AcDbBlockReference
  2
SW_NOTE_2
 10
11.0618440717
 20
12.5936594189
 30
0.0
  0
INSERT
  5
11D
102
{ACAD_REACTORS
330
11E
102
}
330
1F
100
AcDbEntity
  8
NOTES
100
AcDbBlockReference
  2
SW_NOTE_3
 10
5.6197517836
 20
18.7379928024
 30
0.0
  0
LEADER
  5
11E
330
1F
100
AcDbEntity
  8
NOTES
100
AcDbLeader
  3
SLDDIMSTYLE3
 73
     2
 76
     3
 10
4.0020763001
 20
20.0334598947
 30
0.0
 10
5.3697517836
 20
18.7379928024
 30
0.0
 10
5.6197517836
 20
18.7379928024
 30
0.0
340
11D
  0
MTEXT
  5
11F
330
1F
100
AcDbEntity
  8
NOTES
100
AcDbMText
 10
21.8707814389
 20
1.7772986941
 30
0.0
 40
0.2083333333
 41
0.0
 71
     1
 72
     1
  1
REV_D  8/15
  7
SLDTEXTSTYLE0
 73
     1
 44
1.0
  0
ENDSEC
  0
SECTION
  2
OBJECTS
  0
DICTIONARY
  5
C
330
0
100
AcDbDictionary
281
     1
  3
ACAD_GROUP
350
D
  3
ACAD_LAYOUT
350
1A
  3
ACAD_MLINESTYLE
350
17
  3
ACAD_PLOTSETTINGS
350
19
  3
ACAD_PLOTSTYLENAME
350
E
  0
DICTIONARY
  5
D
102
{ACAD_REACTORS
330
C
102
}
330
C
100
AcDbDictionary
281
     1
  0
DICTIONARY
  5
1A
102
{ACAD_REACTORS
330
C
102
}
330
C
100
AcDbDictionary
281
     1
  3
Layout1
350
1E
  3
Layout2
350
26
  3
Model
350
22
  0
DICTIONARY
  5
17
102
{ACAD_REACTORS
330
C
102
}
330
C
100
AcDbDictionary
281
     1
  3
Standard
350
18
  0
DICTIONARY
  5
19
102
{ACAD_REACTORS
330
C
102
}
330
C
100
AcDbDictionary
281
     1
  0
ACDBDICTIONARYWDFLT
  5
E
102
{ACAD_REACTORS
330
C
102
}
330
C
100
AcDbDictionary
281
     1
  3
Normal
350
F
100
AcDbDictionaryWithDefault
340
F
  0
LAYOUT
  5
1E
102
{ACAD_REACTORS
330
1A
102
}
330
1A
100
AcDbPlotSettings
  1

  2
none_device
  4

  6

 40
0.0
 41
0.0
 42
0.0
 43
0.0
 44
0.0
 45
0.0
 46
0.0
 47
0.0
 48
0.0
 49
0.0
140
0.0
141
0.0
142
1.0
143
1.0
 70
   688
 72
     0
 73
     0
 74
     5
  7

 75
    16
147
1.0
148
0.0
149
0.0
100
AcDbLayout
  1
Layout1
 70
     1
 71
     1
 10
0.0
 20
0.0
 11
12.0
 21
9.0
 12
0.0
 22
0.0
 32
0.0
 14
1.0000000000E+20
 24
1.0000000000E+20
 34
1.0000000000E+20
 15
-1.0000000000E+20
 25
-1.0000000000E+20
 35
-1.0000000000E+20
146
0.0
 13
0.0
 23
0.0
 33
0.0
 16
1.0
 26
0.0
 36
0.0
 17
0.0
 27
1.0
 37
0.0
 76
     0
330
1B
  0
LAYOUT
  5
26
102
{ACAD_REACTORS
330
1A
102
}
330
1A
100
AcDbPlotSettings
  1

  2
none_device
  4

  6

 40
0.0
 41
0.0
 42
0.0
 43
0.0
 44
0.0
 45
0.0
 46
0.0
 47
0.0
 48
0.0
 49
0.0
140
0.0
141
0.0
142
1.0
143
1.0
 70
   688
 72
     0
 73
     0
 74
     5
  7

 75
    16
147
1.0
148
0.0
149
0.0
100
AcDbLayout
  1
Layout2
 70
     1
 71
     2
 10
0.0
 20
0.0
 11
0.0
 21
0.0
 12
0.0
 22
0.0
 32
0.0
 14
0.0
 24
0.0
 34
0.0
 15
0.0
 25
0.0
 35
0.0
146
0.0
 13
0.0
 23
0.0
 33
0.0
 16
1.0
 26
0.0
 36
0.0
 17
0.0
 27
1.0
 37
0.0
 76
     0
330
23
  0
LAYOUT
  5
22
102
{ACAD_REACTORS
330
1A
102
}
330
1A
100
AcDbPlotSettings
  1

  2
none_device
  4

  6

 40
0.0
 41
0.0
 42
0.0
 43
0.0
 44
0.0
 45
0.0
 46
0.0
 47
0.0
 48
0.0
 49
0.0
140
0.0
141
0.0
142
1.0
143
1.0
 70
  1712
 72
     0
 73
     0
 74
     0
  7

 75
     0
147
1.0
148
0.0
149
0.0
100
AcDbLayout
  1
Model
 70
     1
 71
     0
 10
0.0
 20
0.0
 11
34.0
 21
22.0
 12
0.0
 22
0.0
 32
0.0
 14
0.0
 24
0.0
 34
0.0
 15
34.0
 25
22.0
 35
0.0
146
0.0
 13
0.0
 23
0.0
 33
0.0
 16
1.0
 26
0.0
 36
0.0
 17
0.0
 27
1.0
 37
0.0
 76
     0
330
1F
331
29
  0
MLINESTYLE
  5
18
102
{ACAD_REACTORS
330
17
102
}
330
17
100
AcDbMlineStyle
  2
Standard
 70
     0
  3

 62
   256
 51
90.0
 52
90.0
 71
     2
 49
0.5
 62
   256
  6
BYLAYER
 49
-0.5
 62
   256
  6
BYLAYER
  0
ACDBPLACEHOLDER
  5
F
102
{ACAD_REACTORS
330
E
102
}
330
E
  0
ENDSEC
  0
EOF
