  0
SECTION
  2
HEADER
  9
$ACADVER
  1
AC1015
  9
$ACADMAINTVER
 70
     6
  9
$DWGCODEPAGE
  3
ANSI_1252
  9
$INSBASE
 10
0.0
 20
0.0
 30
0.0
  9
$EXTMIN
 10
0.0
 20
0.0
 30
0.0
  9
$EXTMAX
 10
34.0
 20
26.0
 30
0.0
  9
$LIMMIN
 10
0.0
 20
0.0
  9
$LIMMAX
 10
34.0
 20
26.0
  9
$ORTHOMODE
 70
     0
  9
$REGENMODE
 70
     1
  9
$FILLMODE
 70
     1
  9
$QTEXTMODE
 70
     0
  9
$MIRRTEXT
 70
     1
  9
$LTSCALE
 40
1.0
  9
$ATTMODE
 70
     1
  9
$TEXTSIZE
 40
0.2777777778
  9
$TRACEWID
 40
0.05
  9
$TEXTSTYLE
  7
Standard
  9
$CLAYER
  8
0
  9
$CELTYPE
  6
ByLayer
  9
$CECOLOR
 62
   256
  9
$CELTSCALE
 40
1.0
  9
$DISPSILH
 70
     0
  9
$DIMSCALE
 40
1.0
  9
$DIMASZ
 40
0.3640136719
  9
$DIMEXO
 40
0.05
  9
$DIMDLI
 40
0.38
  9
$DIMRND
 40
0.0
  9
$DIMDLE
 40
0.0
  9
$DIMEXE
 40
0.125
  9
$DIMTP
 40
0.0
  9
$DIMTM
 40
0.0
  9
$DIMTXT
 40
0.5
  9
$DIMCEN
 40
0.09
  9
$DIMTSZ
 40
0.0
  9
$DIMTOL
 70
     0
  9
$DIMLIM
 70
     0
  9
$DIMTIH
 70
     1
  9
$DIMTOH
 70
     1
  9
$DIMSE1
 70
     0
  9
$DIMSE2
 70
     0
  9
$DIMTAD
 70
     0
  9
$DIMZIN
 70
     0
  9
$DIMBLK
  1

  9
$DIMASO
 70
     1
  9
$DIMSHO
 70
     1
  9
$DIMPOST
  1

  9
$DIMAPOST
  1

  9
$DIMALT
 70
     0
  9
$DIMALTD
 70
     2
  9
$DIMALTF
 40
25.4
  9
$DIMLFAC
 40
1.0
  9
$DIMTOFL
 70
     0
  9
$DIMTVP
 40
0.0
  9
$DIMTIX
 70
     0
  9
$DIMSOXD
 70
     0
  9
$DIMSAH
 70
     0
  9
$DIMBLK1
  1

  9
$DIMBLK2
  1

  9
$DIMSTYLE
  2
Standard
  9
$DIMCLRD
 70
     0
  9
$DIMCLRE
 70
     0
  9
$DIMCLRT
 70
     0
  9
$DIMTFAC
 40
1.0
  9
$DIMGAP
 40
0.06
  9
$DIMJUST
 70
     0
  9
$DIMSD1
 70
     0
  9
$DIMSD2
 70
     0
  9
$DIMTOLJ
 70
     1
  9
$DIMTZIN
 70
     0
  9
$DIMALTZ
 70
     0
  9
$DIMALTTZ
 70
     0
  9
$DIMUPT
 70
     0
  9
$DIMDEC
 70
     3
  9
$DIMTDEC
 70
     3
  9
$DIMALTU
 70
     2
  9
$DIMALTTD
 70
     2
  9
$DIMTXSTY
  7
Standard
  9
$DIMAUNIT
 70
     0
  9
$DIMADEC
 70
     1
  9
$DIMALTRND
 40
0.0
  9
$DIMAZIN
 70
     0
  9
$DIMDSEP
 70
    46
  9
$DIMATFIT
 70
     3
  9
$DIMFRAC
 70
     0
  9
$DIMLDRBLK
  1

  9
$DIMLUNIT
 70
     2
  9
$DIMLWD
 70
    -2
  9
$DIMLWE
 70
    -2
  9
$DIMTMOVE
 70
     0
  9
$LUNITS
 70
     2
  9
$LUPREC
 70
     3
  9
$SKETCHINC
 40
0.1
  9
$FILLETRAD
 40
0.5
  9
$AUNITS
 70
     0
  9
$AUPREC
 70
     1
  9
$MENU
  1
.
  9
$ELEVATION
 40
0.0
  9
$PELEVATION
 40
0.0
  9
$THICKNESS
 40
0.0
  9
$LIMCHECK
 70
     0
  9
$CHAMFERA
 40
0.5
  9
$CHAMFERB
 40
0.5
  9
$CHAMFERC
 40
1.0
  9
$CHAMFERD
 40
0.0
  9
$SKPOLY
 70
     0
  9
$TDCREATE
 40
2456786.467883414
  9
$TDUCREATE
 40
2456786.676216748
  9
$TDUPDATE
 40
2456786.467883866
  9
$TDUUPDATE
 40
2456786.676217199
  9
$TDINDWG
 40
0.0000000116
  9
$TDUSRTIMER
 40
0.0000000116
  9
$USRTIMER
 70
     1
  9
$ANGBASE
 50
0.0
  9
$ANGDIR
 70
     0
  9
$PDMODE
 70
     0
  9
$PDSIZE
 40
-1.0
  9
$PLINEWID
 40
0.0
  9
$SPLFRAME
 70
     0
  9
$SPLINETYPE
 70
     6
  9
$SPLINESEGS
 70
     8
  9
$HANDSEED
  5
B5
  9
$SURFTAB1
 70
     6
  9
$SURFTAB2
 70
     6
  9
$SURFTYPE
 70
     6
  9
$SURFU
 70
     6
  9
$SURFV
 70
     6
  9
$UCSBASE
  2

  9
$UCSNAME
  2

  9
$UCSORG
 10
0.0
 20
0.0
 30
0.0
  9
$UCSXDIR
 10
1.0
 20
0.0
 30
0.0
  9
$UCSYDIR
 10
0.0
 20
1.0
 30
0.0
  9
$UCSORTHOREF
  2

  9
$UCSORTHOVIEW
 70
     0
  9
$UCSORGTOP
 10
0.0
 20
0.0
 30
0.0
  9
$UCSORGBOTTOM
 10
0.0
 20
0.0
 30
0.0
  9
$UCSORGLEFT
 10
0.0
 20
0.0
 30
0.0
  9
$UCSORGRIGHT
 10
0.0
 20
0.0
 30
0.0
  9
$UCSORGFRONT
 10
0.0
 20
0.0
 30
0.0
  9
$UCSORGBACK
 10
0.0
 20
0.0
 30
0.0
  9
$PUCSBASE
  2

  9
$PUCSNAME
  2

  9
$PUCSORG
 10
0.0
 20
0.0
 30
0.0
  9
$PUCSXDIR
 10
1.0
 20
0.0
 30
0.0
  9
$PUCSYDIR
 10
0.0
 20
1.0
 30
0.0
  9
$PUCSORTHOREF
  2

  9
$PUCSORTHOVIEW
 70
     0
  9
$PUCSORGTOP
 10
0.0
 20
0.0
 30
0.0
  9
$PUCSORGBOTTOM
 10
0.0
 20
0.0
 30
0.0
  9
$PUCSORGLEFT
 10
0.0
 20
0.0
 30
0.0
  9
$PUCSORGRIGHT
 10
0.0
 20
0.0
 30
0.0
  9
$PUCSORGFRONT
 10
0.0
 20
0.0
 30
0.0
  9
$PUCSORGBACK
 10
0.0
 20
0.0
 30
0.0
  9
$USERI1
 70
     0
  9
$USERI2
 70
     0
  9
$USERI3
 70
     0
  9
$USERI4
 70
     0
  9
$USERI5
 70
     0
  9
$USERR1
 40
0.0
  9
$USERR2
 40
0.0
  9
$USERR3
 40
0.0
  9
$USERR4
 40
0.0
  9
$USERR5
 40
0.0
  9
$WORLDVIEW
 70
     1
  9
$SHADEDGE
 70
     3
  9
$SHADEDIF
 70
    70
  9
$TILEMODE
 70
     1
  9
$MAXACTVP
 70
    64
  9
$PINSBASE
 10
0.0
 20
0.0
 30
0.0
  9
$PLIMCHECK
 70
     0
  9
$PEXTMIN
 10
1.0000000000E+20
 20
1.0000000000E+20
 30
1.0000000000E+20
  9
$PEXTMAX
 10
-1.0000000000E+20
 20
-1.0000000000E+20
 30
-1.0000000000E+20
  9
$PLIMMIN
 10
0.0
 20
0.0
  9
$PLIMMAX
 10
12.0
 20
9.0
  9
$UNITMODE
 70
     0
  9
$VISRETAIN
 70
     1
  9
$PLINEGEN
 70
     0
  9
$PSLTSCALE
 70
     1
  9
$TREEDEPTH
 70
  3020
  9
$CMLSTYLE
  2
Standard
  9
$CMLJUST
 70
     0
  9
$CMLSCALE
 40
1.0
  9
$PROXYGRAPHICS
 70
     1
  9
$MEASUREMENT
 70
     0
  9
$CELWEIGHT
370
    -1
  9
$ENDCAPS
280
     0
  9
$JOINSTYLE
280
     0
  9
$LWDISPLAY
290
     1
  9
$INSUNITS
 70
     1
  9
$HYPERLINKBASE
  1

  9
$STYLESHEET
  1

  9
$XEDIT
290
     1
  9
$CEPSNTYPE
380
     0
  9
$PSTYLEMODE
290
     1
  9
$FINGERPRINTGUID
  2
{CB35F8C7-ADEF-464D-9C55-FD9B4DE83339}
  9
$VERSIONGUID
  2
{FAEB1C32-E019-11D5-929B-00C0DF256EC4}
  9
$EXTNAMES
290
     1
  9
$PSVPSCALE
 40
0.0
  9
$OLESTARTUP
290
     0
  0
ENDSEC
  0
SECTION
  2
CLASSES
  0
CLASS
  1
ACDBDICTIONARYWDFLT
  2
AcDbDictionaryWithDefault
  3
ObjectDBX Classes
 90
        0
280
     0
281
     0
  0
CLASS
  1
VISUALSTYLE
  2
AcDbVisualStyle
  3
ObjectDBX Classes
 90
     4095
280
     0
281
     0
  0
CLASS
  1
MATERIAL
  2
AcDbMaterial
  3
ObjectDBX Classes
 90
     1153
280
     0
281
     0
  0
CLASS
  1
ACDBPLACEHOLDER
  2
AcDbPlaceHolder
  3
ObjectDBX Classes
 90
        0
280
     0
281
     0
  0
CLASS
  1
LAYOUT
  2
AcDbLayout
  3
ObjectDBX Classes
 90
        0
280
     0
281
     0
  0
ENDSEC
  0
SECTION
  2
TABLES
  0
TABLE
  2
VPORT
  5
8
330
0
100
AcDbSymbolTable
 70
     1
  0
VPORT
  5
29
330
8
100
AcDbSymbolTableRecord
100
AcDbViewportTableRecord
  2
*Active
 70
     0
 10
0.0
 20
0.0
 11
1.0
 21
1.0
 12
17.0
 22
13.0
 13
0.0
 23
0.0
 14
0.5
 24
0.5
 15
0.5
 25
0.5
 16
0.0
 26
0.0
 36
1.0
 17
0.0
 27
0.0
 37
0.0
 40
26.0
 41
1.3076923077
 42
50.0
 43
0.0
 44
0.0
 50
0.0
 51
0.0
 71
     0
 72
  2000
 73
     1
 74
     3
 75
     0
 76
     0
 77
     0
 78
     0
281
     0
 65
     1
110
0.0
120
0.0
130
0.0
111
1.0
121
0.0
131
0.0
112
0.0
122
1.0
132
0.0
 79
     0
146
0.0
  0
ENDTAB
  0
TABLE
  2
LTYPE
  5
5
330
0
100
AcDbSymbolTable
 70
     6
  0
LTYPE
  5
14
330
5
100
AcDbSymbolTableRecord
100
AcDbLinetypeTableRecord
  2
ByBlock
 70
     0
  3

 72
    65
 73
     0
 40
0.0
  0
LTYPE
  5
15
330
5
100
AcDbSymbolTableRecord
100
AcDbLinetypeTableRecord
  2
ByLayer
 70
     0
  3

 72
    65
 73
     0
 40
0.0
  0
LTYPE
  5
16
330
5
100
AcDbSymbolTableRecord
100
AcDbLinetypeTableRecord
  2
Continuous
 70
     0
  3
Solid line
 72
    65
 73
     0
 40
0.0
  0
LTYPE
  5
3F
330
5
100
AcDbSymbolTableRecord
100
AcDbLinetypeTableRecord
  2
HIDDEN
 70
     0
  3
Hidden __ __ __ __ __ __ __ __ __ __ __ __ __ __
 72
    65
 73
     2
 40
0.075
 49
0.05
 74
     0
 49
-0.025
 74
     0
  0
LTYPE
  5
40
330
5
100
AcDbSymbolTableRecord
100
AcDbLinetypeTableRecord
  2
PHANTOM
 70
     0
  3
Phantom ______  __  __  ______  __  __  ______
 72
    65
 73
     6
 40
0.5
 49
0.25
 74
     0
 49
-0.05
 74
     0
 49
0.05
 74
     0
 49
-0.05
 74
     0
 49
0.05
 74
     0
 49
-0.05
 74
     0
  0
LTYPE
  5
41
330
5
100
AcDbSymbolTableRecord
100
AcDbLinetypeTableRecord
  2
CENTER
 70
     0
  3
Center ____ _ ____ _ ____ _ ____ _ ____ _ ____
 72
    65
 73
     4
 40
0.4
 49
0.25
 74
     0
 49
-0.05
 74
     0
 49
0.05
 74
     0
 49
-0.05
 74
     0
  0
LTYPE
  5
42
330
5
100
AcDbSymbolTableRecord
100
AcDbLinetypeTableRecord
  2
CENTERX2
 70
     0
  3
Center (2x) ________  __  ________  __  _____
 72
    65
 73
     4
 40
0.8
 49
0.5
 74
     0
 49
-0.1
 74
     0
 49
0.1
 74
     0
 49
-0.1
 74
     0
  0
LTYPE
  5
43
330
5
100
AcDbSymbolTableRecord
100
AcDbLinetypeTableRecord
  2
DOT2
 70
     0
  3
Dot (.5x) ........................................
 72
    65
 73
     2
 40
0.025
 49
0.0
 74
     0
 49
-0.025
 74
     0
  0
ENDTAB
  0
TABLE
  2
LAYER
  5
2
330
0
100
AcDbSymbolTable
 70
     8
  0
LAYER
  5
10
330
2
100
AcDbSymbolTableRecord
100
AcDbLayerTableRecord
  2
0
 70
     0
 62
     7
  6
Continuous
370
    -3
390
F
  0
LAYER
  5
44
330
2
100
AcDbSymbolTableRecord
100
AcDbLayerTableRecord
  2
SLD-0
 70
     0
 62
   179
  6
Continuous
370
    -3
390
F
  0
LAYER
  5
45
330
2
100
AcDbSymbolTableRecord
100
AcDbLayerTableRecord
  2
OBJECTS
 70
     0
 62
     5
  6
Continuous
370
    -3
390
F
  0
LAYER
  5
46
330
2
100
AcDbSymbolTableRecord
100
AcDbLayerTableRecord
  2
DIMS
 70
     0
 62
     1
  6
Continuous
370
    -3
390
F
  0
LAYER
  5
47
330
2
100
AcDbSymbolTableRecord
100
AcDbLayerTableRecord
  2
NOTES
 70
     0
 62
     7
  6
Continuous
370
    -3
390
F
  0
LAYER
  5
48
330
2
100
AcDbSymbolTableRecord
100
AcDbLayerTableRecord
  2
IMAGES
 70
     0
 62
     7
  6
Continuous
370
    -3
390
F
  0
LAYER
  5
49
330
2
100
AcDbSymbolTableRecord
100
AcDbLayerTableRecord
  2
CENTERLINES
 70
     0
 62
     7
  6
HIDDEN
370
    -3
390
F
  0
LAYER
  5
4A
330
2
100
AcDbSymbolTableRecord
100
AcDbLayerTableRecord
  2
BLOCKS
 70
     0
 62
    16
  6
Continuous
370
    -3
390
F
  0
ENDTAB
  0
TABLE
  2
STYLE
  5
3
330
0
100
AcDbSymbolTable
 70
     2
  0
STYLE
  5
11
330
3
100
AcDbSymbolTableRecord
100
AcDbTextStyleTableRecord
  2
Standard
 70
     0
 40
0.0
 41
1.0
 50
0.0
 71
     0
 42
0.2777777778
  3
txt
  4

  0
STYLE
  5
58
330
3
100
AcDbSymbolTableRecord
100
AcDbTextStyleTableRecord
  2
SLDTEXTSTYLE0
 70
     0
 40
0.0
 41
0.605
 50
0.0
 71
     0
 42
0.2
  3
TXT
  4

  0
ENDTAB
  0
TABLE
  2
VIEW
  5
6
330
0
100
AcDbSymbolTable
 70
     0
  0
ENDTAB
  0
TABLE
  2
UCS
  5
7
330
0
100
AcDbSymbolTable
 70
     0
  0
ENDTAB
  0
TABLE
  2
APPID
  5
9
330
0
100
AcDbSymbolTable
 70
     1
  0
APPID
  5
12
330
9
100
AcDbSymbolTableRecord
100
AcDbRegAppTableRecord
  2
ACAD
 70
     0
  0
ENDTAB
  0
TABLE
  2
DIMSTYLE
  5
A
330
0
100
AcDbSymbolTable
 70
     4
100
AcDbDimStyleTable
  0
DIMSTYLE
105
27
330
A
100
AcDbSymbolTableRecord
100
AcDbDimStyleTableRecord
  2
Standard
 70
     0
178
     0
340
11
  0
DIMSTYLE
105
59
102
{ACAD_REACTORS
330
57
330
80
102
}
330
A
100
AcDbSymbolTableRecord
100
AcDbDimStyleTableRecord
  2
SLDDIMSTYLE0
 70
     0
 41
0.3640136719
 44
0.0
 45
0.000000001
 78
    12
 79
     3
140
0.3640136719
147
0.091003418
148
0.000000001
170
     1
171
     0
173
     1
178
     0
271
     3
272
     3
274
     0
276
     2
277
     5
284
    12
340
58
  0
DIMSTYLE
105
6E
102
{ACAD_REACTORS
330
6D
102
}
330
A
100
AcDbSymbolTableRecord
100
AcDbDimStyleTableRecord
  2
SLDDIMSTYLE1
 70
     0
 41
0.3640136719
 44
0.0
 45
0.000000001
 78
    12
 79
     3
140
0.3640136719
141
0.0
147
0.091003418
148
0.000000001
170
     1
171
     0
173
     1
178
     0
271
     3
272
     3
274
     0
276
     2
277
     5
284
    12
340
58
  0
DIMSTYLE
105
AC
330
A
100
AcDbSymbolTableRecord
100
AcDbDimStyleTableRecord
  2
SLDDIMSTYLE2
 70
     0
 41
0.3640136719
 44
0.0
 45
0.000000001
140
0.0
146
0.3640136719
147
0.0
173
     1
178
     0
271
     0
272
     0
276
     2
277
     5
340
11
  0
ENDTAB
  0
TABLE
  2
BLOCK_RECORD
  5
1
330
0
100
AcDbSymbolTable
 70
     7
  0
BLOCK_RECORD
  5
1F
330
1
100
AcDbSymbolTableRecord
100
AcDbBlockTableRecord
  2
*Model_Space
340
22
  0
BLOCK_RECORD
  5
1B
330
1
100
AcDbSymbolTableRecord
100
AcDbBlockTableRecord
  2
*Paper_Space
340
1E
  0
BLOCK_RECORD
  5
23
330
1
100
AcDbSymbolTableRecord
100
AcDbBlockTableRecord
  2
*Paper_Space0
340
26
  0
BLOCK_RECORD
  5
5A
330
1
100
AcDbSymbolTableRecord
100
AcDbBlockTableRecord
  2
_D
340
0
  0
BLOCK_RECORD
  5
6F
330
1
100
AcDbSymbolTableRecord
100
AcDbBlockTableRecord
  2
_D_1
340
0
  0
BLOCK_RECORD
  5
81
330
1
100
AcDbSymbolTableRecord
100
AcDbBlockTableRecord
  2
_D_2
340
0
  0
BLOCK_RECORD
  5
94
330
1
100
AcDbSymbolTableRecord
100
AcDbBlockTableRecord
  2
SW_NOTE_0
340
0
102
{BLKREFS
331
A3
102
}
  0
BLOCK_RECORD
  5
A4
330
1
100
AcDbSymbolTableRecord
100
AcDbBlockTableRecord
  2
SW_NOTE_1
340
0
102
{BLKREFS
331
AB
102
}
  0
BLOCK_RECORD
  5
AF
330
1
100
AcDbSymbolTableRecord
100
AcDbBlockTableRecord
  2
SW_NOTE_2
340
0
102
{BLKREFS
331
B4
102
}
  0
ENDTAB
  0
ENDSEC
  0
SECTION
  2
BLOCKS
  0
BLOCK
  5
20
330
1F
100
AcDbEntity
  8
0
100
AcDbBlockBegin
  2
*Model_Space
 70
     0
 10
0.0
 20
0.0
 30
0.0
  3
*Model_Space
  1

  0
ENDBLK
  5
21
330
1F
100
AcDbEntity
  8
0
100
AcDbBlockEnd
  0
BLOCK
  5
1C
330
1B
100
AcDbEntity
 67
     1
  8
0
100
AcDbBlockBegin
  2
*Paper_Space
 70
     0
 10
0.0
 20
0.0
 30
0.0
  3
*Paper_Space
  1

  0
ENDBLK
  5
1D
330
1B
100
AcDbEntity
 67
     1
  8
0
100
AcDbBlockEnd
  0
BLOCK
  5
24
330
23
100
AcDbEntity
  8
0
100
AcDbBlockBegin
  2
*Paper_Space0
 70
     0
 10
0.0
 20
0.0
 30
0.0
  3
*Paper_Space0
  1

  0
ENDBLK
  5
25
330
23
100
AcDbEntity
  8
0
100
AcDbBlockEnd
  0
BLOCK
  5
5B
330
5A
100
AcDbEntity
  8
0
100
AcDbBlockBegin
  2
_D
 70
     0
 10
0.0
 20
0.0
 30
0.0
  3
_D
  1

  0
SOLID
  5
5D
330
5A
100
AcDbEntity
  8
DIMS
100
AcDbTrace
 10
17.5383902875
 20
18.3528451531
 30
0.0
 11
17.4823881842
 21
17.9888314813
 31
0.0
 12
17.5943923909
 22
17.9888314813
 32
0.0
 13
17.5943923909
 23
17.9888314813
 33
0.0
  0
SOLID
  5
5E
330
5A
100
AcDbEntity
  8
DIMS
100
AcDbTrace
 10
17.5383902875
 20
2.9778451531
 30
0.0
 11
17.5943923909
 21
3.341858825
 31
0.0
 12
17.4823881842
 22
3.341858825
 32
0.0
 13
17.4823881842
 23
3.341858825
 33
0.0
  0
LINE
  5
5F
330
5A
100
AcDbEntity
  8
DIMS
100
AcDbLine
 10
17.3685986873
 20
8.6217680182
 30
0.0
 11
17.752626471
 21
8.6217680182
 31
0.0
  0
LINE
  5
60
330
5A
100
AcDbEntity
  8
DIMS
100
AcDbLine
 10
17.0175569605
 20
7.9959347121
 30
0.0
 11
16.9342236282
 21
7.9959347121
 31
0.0
  0
LINE
  5
61
330
5A
100
AcDbEntity
  8
DIMS
100
AcDbLine
 10
16.9342236282
 20
7.9959347121
 30
0.0
 11
16.9342236282
 21
7.4369069433
 31
0.0
  0
LINE
  5
62
330
5A
100
AcDbEntity
  8
DIMS
100
AcDbLine
 10
16.9342236282
 20
7.4369069433
 30
0.0
 11
17.0175569605
 21
7.4369069433
 31
0.0
  0
LINE
  5
63
330
5A
100
AcDbEntity
  8
DIMS
100
AcDbLine
 10
18.0592236512
 20
7.9959347121
 30
0.0
 11
18.1425569836
 21
7.9959347121
 31
0.0
  0
LINE
  5
64
330
5A
100
AcDbEntity
  8
DIMS
100
AcDbLine
 10
18.1425569836
 20
7.9959347121
 30
0.0
 11
18.1425569836
 21
7.4369069433
 31
0.0
  0
LINE
  5
65
330
5A
100
AcDbEntity
  8
DIMS
100
AcDbLine
 10
18.1425569836
 20
7.4369069433
 30
0.0
 11
18.0592236512
 21
7.4369069433
 31
0.0
  0
LINE
  5
66
330
5A
100
AcDbEntity
  8
DIMS
100
AcDbLine
 10
17.5383902875
 20
18.3528451531
 30
0.0
 11
17.5383902875
 21
9.0898930112
 31
0.0
  0
LINE
  5
67
330
5A
100
AcDbEntity
  8
DIMS
100
AcDbLine
 10
17.5383902875
 20
2.9778451531
 30
0.0
 11
17.5383902875
 21
7.3535736293
 31
0.0
  0
MTEXT
  5
68
330
5A
100
AcDbEntity
  8
DIMS
100
AcDbMText
 10
16.7599181339
 20
8.8178159535
 30
0.0039370079
 40
0.375
 41
0.0
 71
     1
 72
     1
  1
15
  7
SLDTEXTSTYLE0
 73
     1
 44
1.0
  0
MTEXT
  5
69
330
5A
100
AcDbEntity
  8
DIMS
100
AcDbMText
 10
17.421723692
 20
9.0732934289
 30
0.0039370079
 40
0.375
 41
0.0
 71
     1
 72
     1
  1
3
  7
SLDTEXTSTYLE0
 73
     1
 44
1.0
  0
MTEXT
  5
6A
330
5A
100
AcDbEntity
  8
DIMS
100
AcDbMText
 10
17.421723692
 20
8.5626684342
 30
0.0039370079
 40
0.375
 41
0.0
 71
     1
 72
     1
  1
8
  7
SLDTEXTSTYLE0
 73
     1
 44
1.0
  0
MTEXT
  5
6B
330
5A
100
AcDbEntity
  8
DIMS
100
AcDbMText
 10
17.805751439
 20
8.8178159535
 30
0.0039370079
 40
0.375
 41
0.0
 71
     1
 72
     1
  1
"
  7
SLDTEXTSTYLE0
 73
     1
 44
1.0
  0
MTEXT
  5
6C
330
5A
100
AcDbEntity
  8
DIMS
100
AcDbMText
 10
17.1217236259
 20
7.9203073549
 30
0.0039370079
 40
0.375
 41
0.0
 71
     1
 72
     1
  1
391
  7
SLDTEXTSTYLE0
 73
     1
 44
1.0
  0
ENDBLK
  5
5C
330
5A
100
AcDbEntity
  8
0
100
AcDbBlockEnd
  0
BLOCK
  5
70
330
6F
100
AcDbEntity
  8
0
100
AcDbBlockBegin
  2
_D_1
 70
     0
 10
0.0
 20
0.0
 30
0.0
  3
_D_1
  1

  0
SOLID
  5
72
330
6F
100
AcDbEntity
  8
DIMS
100
AcDbTrace
 10
7.2402157618
 20
17.9191990905
 30
0.0
 11
7.4564110589
 21
17.6210350712
 31
0.0
 12
7.5360351434
 22
17.6998065602
 32
0.0
 13
7.5360351434
 23
17.6998065602
 33
0.0
  0
LINE
  5
73
330
6F
100
AcDbEntity
  8
DIMS
100
AcDbLine
 10
8.0917956126
 20
17.3289249135
 30
0.0
 11
8.4758233963
 21
17.3289249135
 31
0.0
  0
LINE
  5
74
330
6F
100
AcDbEntity
  8
DIMS
100
AcDbLine
 10
7.8379761893
 20
16.7030916074
 30
0.0
 11
7.754642857
 21
16.7030916074
 31
0.0
  0
LINE
  5
75
330
6F
100
AcDbEntity
  8
DIMS
100
AcDbLine
 10
7.754642857
 20
16.7030916074
 30
0.0
 11
7.754642857
 21
16.1440638386
 31
0.0
  0
LINE
  5
76
330
6F
100
AcDbEntity
  8
DIMS
100
AcDbLine
 10
7.754642857
 20
16.1440638386
 30
0.0
 11
7.8379761893
 21
16.1440638386
 31
0.0
  0
LINE
  5
77
330
6F
100
AcDbEntity
  8
DIMS
100
AcDbLine
 10
8.601865069
 20
16.7030916074
 30
0.0
 11
8.6851984013
 21
16.7030916074
 31
0.0
  0
LINE
  5
78
330
6F
100
AcDbEntity
  8
DIMS
100
AcDbLine
 10
8.6851984013
 20
16.7030916074
 30
0.0
 11
8.6851984013
 21
16.1440638386
 31
0.0
  0
LINE
  5
79
330
6F
100
AcDbEntity
  8
DIMS
100
AcDbLine
 10
8.6851984013
 20
16.1440638386
 30
0.0
 11
8.601865069
 21
16.1440638386
 31
0.0
  0
LINE
  5
7A
330
6F
100
AcDbEntity
  8
DIMS
100
AcDbLine
 10
7.2402157618
 20
17.9191990905
 30
0.0
 11
7.3610570017
 21
17.7970499065
 31
0.0
  0
MTEXT
  5
7B
330
6F
100
AcDbEntity
  8
DIMS
100
AcDbMText
 10
7.3997817085
 20
17.5249728488
 30
0.0039370079
 40
0.375
 41
0.0
 71
     1
 72
     1
  1
R1
  7
SLDTEXTSTYLE0
 73
     1
 44
1.0
  0
MTEXT
  5
7C
330
6F
100
AcDbEntity
  8
DIMS
100
AcDbMText
 10
8.1449206173
 20
17.7804503242
 30
0.0039370079
 40
0.375
 41
0.0
 71
     1
 72
     1
  1
1
  7
SLDTEXTSTYLE0
 73
     1
 44
1.0
  0
MTEXT
  5
7D
330
6F
100
AcDbEntity
  8
DIMS
100
AcDbMText
 10
8.1449206173
 20
17.2698253295
 30
0.0039370079
 40
0.375
 41
0.0
 71
     1
 72
     1
  1
2
  7
SLDTEXTSTYLE0
 73
     1
 44
1.0
  0
MTEXT
  5
7E
330
6F
100
AcDbEntity
  8
DIMS
100
AcDbMText
 10
8.5289484376
 20
17.5249728488
 30
0.0039370079
 40
0.375
 41
0.0
 71
     1
 72
     1
  1
"
  7
SLDTEXTSTYLE0
 73
     1
 44
1.0
  0
MTEXT
  5
7F
330
6F
100
AcDbEntity
  8
DIMS
100
AcDbMText
 10
7.9421428548
 20
16.6274642502
 30
0.0039370079
 40
0.375
 41
0.0
 71
     1
 72
     1
  1
38
  7
SLDTEXTSTYLE0
 73
     1
 44
1.0
  0
ENDBLK
  5
71
330
6F
100
AcDbEntity
  8
0
100
AcDbBlockEnd
  0
BLOCK
  5
82
330
81
100
AcDbEntity
  8
0
100
AcDbBlockBegin
  2
_D_2
 70
     0
 10
0.0
 20
0.0
 30
0.0
  3
_D_2
  1

  0
SOLID
  5
84
330
81
100
AcDbEntity
  8
DIMS
100
AcDbTrace
 10
6.7951514377
 20
5.9860808784
 30
0.0
 11
7.1591651096
 21
5.930078775
 31
0.0
 12
7.1591651096
 22
6.0420829817
 32
0.0
 13
7.1591651096
 23
6.0420829817
 33
0.0
  0
SOLID
  5
85
330
81
100
AcDbEntity
  8
DIMS
100
AcDbTrace
 10
19.1701514377
 20
5.9860808784
 30
0.0
 11
18.8061377658
 21
6.0420829817
 31
0.0
 12
18.8061377658
 22
5.930078775
 32
0.0
 13
18.8061377658
 23
5.930078775
 33
0.0
  0
LINE
  5
86
330
81
100
AcDbEntity
  8
DIMS
100
AcDbLine
 10
14.2673166455
 20
6.3861155763
 30
0.0
 11
14.6513444292
 21
6.3861155763
 31
0.0
  0
LINE
  5
87
330
81
100
AcDbEntity
  8
DIMS
100
AcDbLine
 10
13.9162749187
 20
5.7602822701
 30
0.0
 11
13.8329415864
 21
5.7602822701
 31
0.0
  0
LINE
  5
88
330
81
100
AcDbEntity
  8
DIMS
100
AcDbLine
 10
13.8329415864
 20
5.7602822701
 30
0.0
 11
13.8329415864
 21
5.2012545014
 31
0.0
  0
LINE
  5
89
330
81
100
AcDbEntity
  8
DIMS
100
AcDbLine
 10
13.8329415864
 20
5.2012545014
 30
0.0
 11
13.9162749187
 21
5.2012545014
 31
0.0
  0
LINE
  5
8A
330
81
100
AcDbEntity
  8
DIMS
100
AcDbLine
 10
14.9579416094
 20
5.7602822701
 30
0.0
 11
15.0412749418
 21
5.7602822701
 31
0.0
  0
LINE
  5
8B
330
81
100
AcDbEntity
  8
DIMS
100
AcDbLine
 10
15.0412749418
 20
5.7602822701
 30
0.0
 11
15.0412749418
 21
5.2012545014
 31
0.0
  0
LINE
  5
8C
330
81
100
AcDbEntity
  8
DIMS
100
AcDbLine
 10
15.0412749418
 20
5.2012545014
 30
0.0
 11
14.9579416094
 21
5.2012545014
 31
0.0
  0
LINE
  5
8D
330
81
100
AcDbEntity
  8
DIMS
100
AcDbLine
 10
6.7951514377
 20
5.9860808784
 30
0.0
 11
13.5752996346
 21
5.9860808784
 31
0.0
  0
LINE
  5
8E
330
81
100
AcDbEntity
  8
DIMS
100
AcDbLine
 10
19.1701514377
 20
5.9860808784
 30
0.0
 11
15.2989168568
 21
5.9860808784
 31
0.0
  0
MTEXT
  5
8F
330
81
100
AcDbEntity
  8
DIMS
100
AcDbMText
 10
13.658636092
 20
6.5821635116
 30
0.0039370079
 40
0.375
 41
0.0
 71
     1
 72
     1
  1
12
  7
SLDTEXTSTYLE0
 73
     1
 44
1.0
  0
MTEXT
  5
90
330
81
100
AcDbEntity
  8
DIMS
100
AcDbMText
 10
14.3204416501
 20
6.8376409869
 30
0.0039370079
 40
0.375
 41
0.0
 71
     1
 72
     1
  1
3
  7
SLDTEXTSTYLE0
 73
     1
 44
1.0
  0
MTEXT
  5
91
330
81
100
AcDbEntity
  8
DIMS
100
AcDbMText
 10
14.3204416501
 20
6.3270159923
 30
0.0039370079
 40
0.375
 41
0.0
 71
     1
 72
     1
  1
8
  7
SLDTEXTSTYLE0
 73
     1
 44
1.0
  0
MTEXT
  5
92
330
81
100
AcDbEntity
  8
DIMS
100
AcDbMText
 10
14.7044693972
 20
6.5821635116
 30
0.0039370079
 40
0.375
 41
0.0
 71
     1
 72
     1
  1
"
  7
SLDTEXTSTYLE0
 73
     1
 44
1.0
  0
MTEXT
  5
93
330
81
100
AcDbEntity
  8
DIMS
100
AcDbMText
 10
14.0204415841
 20
5.684654913
 30
0.0039370079
 40
0.375
 41
0.0
 71
     1
 72
     1
  1
314
  7
SLDTEXTSTYLE0
 73
     1
 44
1.0
  0
ENDBLK
  5
83
330
81
100
AcDbEntity
  8
0
100
AcDbBlockEnd
  0
BLOCK
  5
95
330
94
100
AcDbEntity
  8
0
100
AcDbBlockBegin
  2
SW_NOTE_0
 70
     0
 10
0.0
 20
0.0
 30
0.0
  3
SW_NOTE_0
  1

  0
MTEXT
  5
97
330
94
100
AcDbEntity
  8
NOTES
 62
     0
100
AcDbMText
 10
0.0
 20
0.1611334675
 30
0.0
 40
0.125
 41
0.0
 71
     1
 72
     1
  1
NOTES:
  7
SLDTEXTSTYLE0
 73
     1
 44
1.0
  0
MTEXT
  5
98
330
94
100
AcDbEntity
  8
NOTES
 62
     0
100
AcDbMText
 10
0.3937007786
 20
-0.1721998618
 30
0.0
 40
0.125
 41
0.0
 71
     1
 72
     1
  1
THOROUGHLY READ ALL  INSTALLATION INSTRUCTIONS
  7
SLDTEXTSTYLE0
 73
     1
 44
1.0
  0
MTEXT
  5
99
330
94
100
AcDbEntity
  8
NOTES
 62
     0
100
AcDbMText
 10
0.0
 20
-0.1721998618
 30
0.0
 40
0.125
 41
0.0
 71
     1
 72
     1
  1
1.
  7
SLDTEXTSTYLE0
 73
     1
 44
1.0
  0
MTEXT
  5
9A
330
94
100
AcDbEntity
  8
NOTES
 62
     0
100
AcDbMText
 10
0.0
 20
-0.3388665265
 30
0.0
 40
0.125
 41
0.0
 71
     1
 72
     1
  1
BEFORE CUTTING COUNTERTOP.
  7
SLDTEXTSTYLE0
 73
     1
 44
1.0
  0
MTEXT
  5
9B
330
94
100
AcDbEntity
  8
NOTES
 62
     0
100
AcDbMText
 10
0.0
 20
-0.6721998558
 30
0.0
 40
0.125
 41
0.0
 71
     1
 72
     1
  1
2.  DIMENSIONS ARE IN INCHES [MM].
  7
SLDTEXTSTYLE0
 73
     1
 44
1.0
  0
MTEXT
  5
9C
330
94
100
AcDbEntity
  8
NOTES
 62
     0
100
AcDbMText
 10
0.0
 20
-1.1721998497
 30
0.0
 40
0.125
 41
0.0
 71
     1
 72
     1
  1
PLEASE CHECK TEMPLATE AGAINST PHYSICAL SINK FOR MOST ACCURATE CUT.
  7
SLDTEXTSTYLE0
 73
     1
 44
1.0
  0
MTEXT
  5
9D
330
94
100
AcDbEntity
  8
NOTES
 62
     0
100
AcDbMText
 10
0.0
 20
-1.8388665084
 30
0.0
 40
0.125
 41
0.0
 71
     1
 72
     1
  1
NOTAS:
  7
SLDTEXTSTYLE0
 73
     1
 44
1.0
  0
MTEXT
  5
9E
330
94
100
AcDbEntity
  8
NOTES
 62
     0
100
AcDbMText
 10
0.0
 20
-2.1721998377
 30
0.0
 40
0.125
 41
0.0
 71
     1
 72
     1
  1
1.  LEA ATENTAMENTE LAS INSTRUCCIONES DE INSTALACIÓN ANTES DE CORTAR LA
  7
SLDTEXTSTYLE0
 73
     1
 44
1.0
  0
MTEXT
  5
9F
330
94
100
AcDbEntity
  8
NOTES
 62
     0
100
AcDbMText
 10
0.0
 20
-2.3388665023
 30
0.0
 40
0.125
 41
0.0
 71
     1
 72
     1
  1
ENCIMERA.
  7
SLDTEXTSTYLE0
 73
     1
 44
1.0
  0
MTEXT
  5
A0
330
94
100
AcDbEntity
  8
NOTES
 62
     0
100
AcDbMText
 10
0.0
 20
-2.6721998316
 30
0.0
 40
0.125
 41
0.0
 71
     1
 72
     1
  1
2.  DIMENSIONES EN PULGADAS [MM].
  7
SLDTEXTSTYLE0
 73
     1
 44
1.0
  0
MTEXT
  5
A1
330
94
100
AcDbEntity
  8
NOTES
 62
     0
100
AcDbMText
 10
0.0
 20
-3.1721998256
 30
0.0
 40
0.125
 41
0.0
 71
     1
 72
     1
  1
POR FAVOR COMPRUEBE PLANTILLA CONTRA FREGADERO FÍSICO PARA CORTE MÁS
  7
SLDTEXTSTYLE0
 73
     1
 44
1.0
  0
MTEXT
  5
A2
330
94
100
AcDbEntity
  8
NOTES
 62
     0
100
AcDbMText
 10
0.0
 20
-3.3388664902
 30
0.0
 40
0.125
 41
0.0
 71
     1
 72
     1
  1
EXACTO.
  7
SLDTEXTSTYLE0
 73
     1
 44
1.0
  0
ENDBLK
  5
96
330
94
100
AcDbEntity
  8
0
100
AcDbBlockEnd
  0
BLOCK
  5
A5
330
A4
100
AcDbEntity
  8
0
100
AcDbBlockBegin
  2
SW_NOTE_1
 70
     0
 10
0.0
 20
0.0
 30
0.0
  3
SW_NOTE_1
  1

  0
MTEXT
  5
A7
330
A4
100
AcDbEntity
  8
NOTES
 62
     0
100
AcDbMText
 10
-0.892264454
 20
0.6863653963
 30
0.0
 40
0.2083333333
 41
0.0
 71
     2
 72
     1
  1
TEMPLATE
  7
SLDTEXTSTYLE0
 73
     1
 44
1.0
  0
MTEXT
  5
A8
330
A4
100
AcDbEntity
  8
NOTES
 62
     0
100
AcDbMText
 10
-0.8891297837
 20
0.4085876219
 30
0.0
 40
0.2083333333
 41
0.0
 71
     2
 72
     1
  1
CENTERLINE
  7
SLDTEXTSTYLE0
 73
     1
 44
1.0
  0
MTEXT
  5
A9
330
A4
100
AcDbEntity
  8
NOTES
 62
     0
100
AcDbMText
 10
-0.8890092457
 20
-0.1469679269
 30
0.0
 40
0.2083333333
 41
0.0
 71
     2
 72
     1
  1
PLANTILLA
  7
SLDTEXTSTYLE0
 73
     1
 44
1.0
  0
MTEXT
  5
AA
330
A4
100
AcDbEntity
  8
NOTES
 62
     0
100
AcDbMText
 10
-0.8920233112
 20
-0.4247457014
 30
0.0
 40
0.2083333333
 41
0.0
 71
     2
 72
     1
  1
CENTRAL
  7
SLDTEXTSTYLE0
 73
     1
 44
1.0
  0
ENDBLK
  5
A6
330
A4
100
AcDbEntity
  8
0
100
AcDbBlockEnd
  0
BLOCK
  5
B0
330
AF
100
AcDbEntity
  8
0
100
AcDbBlockBegin
  2
SW_NOTE_2
 70
     0
 10
0.0
 20
0.0
 30
0.0
  3
SW_NOTE_2
  1

  0
MTEXT
  5
B2
330
AF
100
AcDbEntity
  8
NOTES
 62
     0
100
AcDbMText
 10
4.2887369792
 20
0.6713894478
 30
0.0
 40
0.5208333333
 41
0.0
 71
     2
 72
     1
  1
TEMPLATE #: 1000001313
  7
SLDTEXTSTYLE0
 73
     1
 44
1.0
  0
MTEXT
  5
B3
330
AF
100
AcDbEntity
  8
NOTES
 62
     0
100
AcDbMText
 10
4.2673755915
 20
-0.0175217819
 30
0.0
 40
0.3958333333
 41
0.0
 71
     2
 72
     1
  1
TOP MOUNT TEMPLATE 13" X 16"
  7
SLDTEXTSTYLE0
 73
     1
 44
1.0
  0
ENDBLK
  5
B1
330
AF
100
AcDbEntity
  8
0
100
AcDbBlockEnd
  0
ENDSEC
  0
SECTION
  2
ENTITIES
  0
LINE
  5
4B
330
1F
100
AcDbEntity
  8
OBJECTS
  6
CENTERX2
100
AcDbLine
 10
19.1701514377
 20
10.6653451531
 30
0.0
 11
17.0758524225
 21
10.6653451531
 31
0.0
  0
LINE
  5
4C
330
1F
100
AcDbEntity
  8
OBJECTS
  6
CENTERX2
100
AcDbLine
 10
8.8894504529
 20
10.6653451531
 30
0.0
 11
6.7951514377
 21
10.6653451531
 31
0.0
  0
LINE
  5
4D
330
1F
100
AcDbEntity
  8
OBJECTS
100
AcDbLine
 10
19.1701514377
 20
4.4778451531
 30
0.0
 11
19.1701514377
 21
16.8528451531
 31
0.0
  0
LINE
  5
4E
330
1F
100
AcDbEntity
  8
OBJECTS
100
AcDbLine
 10
17.6701514377
 20
18.3528451531
 30
0.0
 11
8.2951514377
 21
18.3528451531
 31
0.0
  0
LINE
  5
4F
330
1F
100
AcDbEntity
  8
OBJECTS
100
AcDbLine
 10
6.7951514377
 20
16.8528451531
 30
0.0
 11
6.7951514377
 21
4.4778451531
 31
0.0
  0
LINE
  5
50
330
1F
100
AcDbEntity
  8
OBJECTS
100
AcDbLine
 10
8.2951514377
 20
2.9778451531
 30
0.0
 11
17.6701514377
 21
2.9778451531
 31
0.0
  0
LINE
  5
51
330
1F
100
AcDbEntity
  8
OBJECTS
  6
CENTERX2
100
AcDbLine
 10
12.9826514377
 20
2.9778451531
 30
0.0
 11
12.9826514377
 21
5.0721441684
 31
0.0
  0
LINE
  5
52
330
1F
100
AcDbEntity
  8
OBJECTS
  6
CENTERX2
100
AcDbLine
 10
12.9826514377
 20
18.3528451531
 30
0.0
 11
12.9826514377
 21
16.2585461379
 31
0.0
  0
ARC
  5
53
330
1F
100
AcDbEntity
  8
OBJECTS
100
AcDbCircle
 10
17.6701514377
 20
16.8528451531
 30
0.0
 40
1.5
100
AcDbArc
 50
0.0
 51
90.0
  0
ARC
  5
54
330
1F
100
AcDbEntity
  8
OBJECTS
100
AcDbCircle
 10
8.2951514377
 20
16.8528451531
 30
0.0
 40
1.499999999999998
100
AcDbArc
 50
90.0
 51
180.0
  0
ARC
  5
55
330
1F
100
AcDbEntity
  8
OBJECTS
100
AcDbCircle
 10
8.2951514377
 20
4.4778451531
 30
0.0
 40
1.500000000000001
100
AcDbArc
 50
180.0
 51
270.0
  0
ARC
  5
56
330
1F
100
AcDbEntity
  8
OBJECTS
100
AcDbCircle
 10
17.6701514377
 20
4.4778451531
 30
0.0
 40
1.5
100
AcDbArc
 50
270.0
 51
0.0
  0
DIMENSION
  5
57
330
1F
100
AcDbEntity
  8
DIMS
100
AcDbDimension
  2
_D
 10
17.5383902875
 20
2.9778451531
 30
0.0
 11
17.5383902875
 21
8.2217333203
 31
0.0
 70
   160
  1
<>
 71
     2
 42
-1.0
  3
SLDDIMSTYLE0
100
AcDbAlignedDimension
 13
17.6701514377
 23
18.3528451531
 33
0.0
 14
17.6701514377
 24
2.9778451531
 34
0.0
 50
90.0
100
AcDbRotatedDimension
  0
DIMENSION
  5
6D
330
1F
100
AcDbEntity
  8
DIMS
100
AcDbDimension
  2
_D_1
 10
8.2951514377
 20
16.8528451531
 30
0.0
 11
8.2199210412
 21
16.9288906093
 31
0.0
 70
   164
  1
<>
 71
     1
 42
-1.0
  3
SLDDIMSTYLE1
100
AcDbRadialDimension
 15
7.2402157618
 25
17.9191990905
 35
0.0
 40
0.0
  0
DIMENSION
  5
80
330
1F
100
AcDbEntity
  8
DIMS
100
AcDbDimension
  2
_D_2
 10
19.1701514377
 20
5.9860808784
 30
0.0
 11
14.4371082457
 21
5.9860808784
 31
0.0
 70
   160
  1
<>
 71
     2
 42
-1.0
  3
SLDDIMSTYLE0
100
AcDbAlignedDimension
 13
6.7951514377
 23
4.4778451531
 33
0.0
 14
19.1701514377
 24
4.4778451531
 34
0.0
 50
0.0
100
AcDbRotatedDimension
  0
INSERT
  5
A3
330
1F
100
AcDbEntity
  8
NOTES
100
AcDbBlockReference
  2
SW_NOTE_0
 10
8.2199206475
 20
15.4965838656
 30
0.0
  0
INSERT
  5
AB
102
{ACAD_REACTORS
330
AD
330
AE
102
}
330
1F
100
AcDbEntity
  8
NOTES
100
AcDbBlockReference
  2
SW_NOTE_1
 10
16.8455457243
 20
15.1662743188
 30
0.0
  0
LEADER
  5
AD
330
1F
100
AcDbEntity
  8
NOTES
100
AcDbLeader
  3
SLDDIMSTYLE2
 73
     2
 76
     3
 10
18.05803073
 20
10.6653451531
 30
0.0
 10
17.0955457243
 20
15.1662743188
 30
0.0
 10
16.8455457243
 20
15.1662743188
 30
0.0
340
AB
  0
LEADER
  5
AE
330
1F
100
AcDbEntity
  8
NOTES
100
AcDbLeader
  3
SLDDIMSTYLE2
 73
     2
 76
     3
 10
12.9826514377
 20
16.918933621
 30
0.0
 10
14.7973748771
 20
15.1662743188
 30
0.0
 10
15.0473748771
 20
15.1662743188
 30
0.0
340
AB
212
-1.798170847200801
222
0.0
232
0.0
  0
INSERT
  5
B4
330
1F
100
AcDbEntity
  8
NOTES
100
AcDbBlockReference
  2
SW_NOTE_2
 10
8.7076163283
 20
10.5629292369
 30
0.0
  0
ENDSEC
  0
SECTION
  2
OBJECTS
  0
DICTIONARY
  5
C
330
0
100
AcDbDictionary
281
     1
  3
ACAD_GROUP
350
D
  3
ACAD_LAYOUT
350
1A
  3
ACAD_MLINESTYLE
350
17
  3
ACAD_PLOTSETTINGS
350
19
  3
ACAD_PLOTSTYLENAME
350
E
  0
DICTIONARY
  5
D
102
{ACAD_REACTORS
330
C
102
}
330
C
100
AcDbDictionary
281
     1
  0
DICTIONARY
  5
1A
102
{ACAD_REACTORS
330
C
102
}
330
C
100
AcDbDictionary
281
     1
  3
Layout1
350
1E
  3
Layout2
350
26
  3
Model
350
22
  0
DICTIONARY
  5
17
102
{ACAD_REACTORS
330
C
102
}
330
C
100
AcDbDictionary
281
     1
  3
Standard
350
18
  0
DICTIONARY
  5
19
102
{ACAD_REACTORS
330
C
102
}
330
C
100
AcDbDictionary
281
     1
  0
ACDBDICTIONARYWDFLT
  5
E
102
{ACAD_REACTORS
330
C
102
}
330
C
100
AcDbDictionary
281
     1
  3
Normal
350
F
100
AcDbDictionaryWithDefault
340
F
  0
LAYOUT
  5
1E
102
{ACAD_REACTORS
330
1A
102
}
330
1A
100
AcDbPlotSettings
  1

  2
none_device
  4

  6

 40
0.0
 41
0.0
 42
0.0
 43
0.0
 44
0.0
 45
0.0
 46
0.0
 47
0.0
 48
0.0
 49
0.0
140
0.0
141
0.0
142
1.0
143
1.0
 70
   688
 72
     0
 73
     0
 74
     5
  7

 75
    16
147
1.0
148
0.0
149
0.0
100
AcDbLayout
  1
Layout1
 70
     1
 71
     1
 10
0.0
 20
0.0
 11
12.0
 21
9.0
 12
0.0
 22
0.0
 32
0.0
 14
1.0000000000E+20
 24
1.0000000000E+20
 34
1.0000000000E+20
 15
-1.0000000000E+20
 25
-1.0000000000E+20
 35
-1.0000000000E+20
146
0.0
 13
0.0
 23
0.0
 33
0.0
 16
1.0
 26
0.0
 36
0.0
 17
0.0
 27
1.0
 37
0.0
 76
     0
330
1B
  0
LAYOUT
  5
26
102
{ACAD_REACTORS
330
1A
102
}
330
1A
100
AcDbPlotSettings
  1

  2
none_device
  4

  6

 40
0.0
 41
0.0
 42
0.0
 43
0.0
 44
0.0
 45
0.0
 46
0.0
 47
0.0
 48
0.0
 49
0.0
140
0.0
141
0.0
142
1.0
143
1.0
 70
   688
 72
     0
 73
     0
 74
     5
  7

 75
    16
147
1.0
148
0.0
149
0.0
100
AcDbLayout
  1
Layout2
 70
     1
 71
     2
 10
0.0
 20
0.0
 11
0.0
 21
0.0
 12
0.0
 22
0.0
 32
0.0
 14
0.0
 24
0.0
 34
0.0
 15
0.0
 25
0.0
 35
0.0
146
0.0
 13
0.0
 23
0.0
 33
0.0
 16
1.0
 26
0.0
 36
0.0
 17
0.0
 27
1.0
 37
0.0
 76
     0
330
23
  0
LAYOUT
  5
22
102
{ACAD_REACTORS
330
1A
102
}
330
1A
100
AcDbPlotSettings
  1

  2
none_device
  4

  6

 40
0.0
 41
0.0
 42
0.0
 43
0.0
 44
0.0
 45
0.0
 46
0.0
 47
0.0
 48
0.0
 49
0.0
140
0.0
141
0.0
142
1.0
143
1.0
 70
  1712
 72
     0
 73
     0
 74
     0
  7

 75
     0
147
1.0
148
0.0
149
0.0
100
AcDbLayout
  1
Model
 70
     1
 71
     0
 10
0.0
 20
0.0
 11
34.0
 21
26.0
 12
0.0
 22
0.0
 32
0.0
 14
0.0
 24
0.0
 34
0.0
 15
34.0
 25
26.0
 35
0.0
146
0.0
 13
0.0
 23
0.0
 33
0.0
 16
1.0
 26
0.0
 36
0.0
 17
0.0
 27
1.0
 37
0.0
 76
     0
330
1F
331
29
  0
MLINESTYLE
  5
18
102
{ACAD_REACTORS
330
17
102
}
330
17
100
AcDbMlineStyle
  2
Standard
 70
     0
  3

 62
   256
 51
90.0
 52
90.0
 71
     2
 49
0.5
 62
   256
  6
BYLAYER
 49
-0.5
 62
   256
  6
BYLAYER
  0
ACDBPLACEHOLDER
  5
F
102
{ACAD_REACTORS
330
E
102
}
330
E
  0
ENDSEC
  0
EOF
