  0
SECTION
  2
HEADER
  9
$ACADVER
  1
AC1015
  9
$ACADMAINTVER
 70
     6
  9
$DWGCODEPAGE
  3
ANSI_1252
  9
$INSBASE
 10
0.0
 20
0.0
 30
0.0
  9
$EXTMIN
 10
0.0
 20
0.0
 30
0.0
  9
$EXTMAX
 10
40.0
 20
22.0
 30
0.0
  9
$LIMMIN
 10
0.0
 20
0.0
  9
$LIMMAX
 10
40.0
 20
22.0
  9
$ORTHOMODE
 70
     0
  9
$REGENMODE
 70
     1
  9
$FILLMODE
 70
     1
  9
$QTEXTMODE
 70
     0
  9
$MIRRTEXT
 70
     1
  9
$LTSCALE
 40
1.0
  9
$ATTMODE
 70
     1
  9
$TEXTSIZE
 40
0.2777777778
  9
$TRACEWID
 40
0.05
  9
$TEXTSTYLE
  7
Standard
  9
$CLAYER
  8
0
  9
$CELTYPE
  6
ByLayer
  9
$CECOLOR
 62
   256
  9
$CELTSCALE
 40
1.0
  9
$DISPSILH
 70
     0
  9
$DIMSCALE
 40
1.0
  9
$DIMASZ
 40
0.3640136719
  9
$DIMEXO
 40
0.05
  9
$DIMDLI
 40
0.38
  9
$DIMRND
 40
0.0
  9
$DIMDLE
 40
0.0
  9
$DIMEXE
 40
0.125
  9
$DIMTP
 40
0.0
  9
$DIMTM
 40
0.0
  9
$DIMTXT
 40
0.5
  9
$DIMCEN
 40
0.09
  9
$DIMTSZ
 40
0.0
  9
$DIMTOL
 70
     0
  9
$DIMLIM
 70
     0
  9
$DIMTIH
 70
     1
  9
$DIMTOH
 70
     1
  9
$DIMSE1
 70
     0
  9
$DIMSE2
 70
     0
  9
$DIMTAD
 70
     0
  9
$DIMZIN
 70
     0
  9
$DIMBLK
  1

  9
$DIMASO
 70
     1
  9
$DIMSHO
 70
     1
  9
$DIMPOST
  1

  9
$DIMAPOST
  1

  9
$DIMALT
 70
     0
  9
$DIMALTD
 70
     2
  9
$DIMALTF
 40
25.4
  9
$DIMLFAC
 40
1.0
  9
$DIMTOFL
 70
     0
  9
$DIMTVP
 40
0.0
  9
$DIMTIX
 70
     0
  9
$DIMSOXD
 70
     0
  9
$DIMSAH
 70
     0
  9
$DIMBLK1
  1

  9
$DIMBLK2
  1

  9
$DIMSTYLE
  2
Standard
  9
$DIMCLRD
 70
     0
  9
$DIMCLRE
 70
     0
  9
$DIMCLRT
 70
     0
  9
$DIMTFAC
 40
1.0
  9
$DIMGAP
 40
0.06
  9
$DIMJUST
 70
     0
  9
$DIMSD1
 70
     0
  9
$DIMSD2
 70
     0
  9
$DIMTOLJ
 70
     1
  9
$DIMTZIN
 70
     0
  9
$DIMALTZ
 70
     0
  9
$DIMALTTZ
 70
     0
  9
$DIMUPT
 70
     0
  9
$DIMDEC
 70
     3
  9
$DIMTDEC
 70
     3
  9
$DIMALTU
 70
     2
  9
$DIMALTTD
 70
     2
  9
$DIMTXSTY
  7
Standard
  9
$DIMAUNIT
 70
     0
  9
$DIMADEC
 70
     1
  9
$DIMALTRND
 40
0.0
  9
$DIMAZIN
 70
     0
  9
$DIMDSEP
 70
    46
  9
$DIMATFIT
 70
     3
  9
$DIMFRAC
 70
     0
  9
$DIMLDRBLK
  1

  9
$DIMLUNIT
 70
     2
  9
$DIMLWD
 70
    -2
  9
$DIMLWE
 70
    -2
  9
$DIMTMOVE
 70
     0
  9
$LUNITS
 70
     2
  9
$LUPREC
 70
     3
  9
$SKETCHINC
 40
0.1
  9
$FILLETRAD
 40
0.5
  9
$AUNITS
 70
     0
  9
$AUPREC
 70
     1
  9
$MENU
  1
.
  9
$ELEVATION
 40
0.0
  9
$PELEVATION
 40
0.0
  9
$THICKNESS
 40
0.0
  9
$LIMCHECK
 70
     0
  9
$CHAMFERA
 40
0.5
  9
$CHAMFERB
 40
0.5
  9
$CHAMFERC
 40
1.0
  9
$CHAMFERD
 40
0.0
  9
$SKPOLY
 70
     0
  9
$TDCREATE
 40
2457227.670796238
  9
$TDUCREATE
 40
2457227.879129572
  9
$TDUPDATE
 40
2457227.670798588
  9
$TDUUPDATE
 40
2457227.879131921
  9
$TDINDWG
 40
0.0000000116
  9
$TDUSRTIMER
 40
0.0000000116
  9
$USRTIMER
 70
     1
  9
$ANGBASE
 50
0.0
  9
$ANGDIR
 70
     0
  9
$PDMODE
 70
     0
  9
$PDSIZE
 40
-1.0
  9
$PLINEWID
 40
0.0
  9
$SPLFRAME
 70
     0
  9
$SPLINETYPE
 70
     6
  9
$SPLINESEGS
 70
     8
  9
$HANDSEED
  5
193
  9
$SURFTAB1
 70
     6
  9
$SURFTAB2
 70
     6
  9
$SURFTYPE
 70
     6
  9
$SURFU
 70
     6
  9
$SURFV
 70
     6
  9
$UCSBASE
  2

  9
$UCSNAME
  2

  9
$UCSORG
 10
0.0
 20
0.0
 30
0.0
  9
$UCSXDIR
 10
1.0
 20
0.0
 30
0.0
  9
$UCSYDIR
 10
0.0
 20
1.0
 30
0.0
  9
$UCSORTHOREF
  2

  9
$UCSORTHOVIEW
 70
     0
  9
$UCSORGTOP
 10
0.0
 20
0.0
 30
0.0
  9
$UCSORGBOTTOM
 10
0.0
 20
0.0
 30
0.0
  9
$UCSORGLEFT
 10
0.0
 20
0.0
 30
0.0
  9
$UCSORGRIGHT
 10
0.0
 20
0.0
 30
0.0
  9
$UCSORGFRONT
 10
0.0
 20
0.0
 30
0.0
  9
$UCSORGBACK
 10
0.0
 20
0.0
 30
0.0
  9
$PUCSBASE
  2

  9
$PUCSNAME
  2

  9
$PUCSORG
 10
0.0
 20
0.0
 30
0.0
  9
$PUCSXDIR
 10
1.0
 20
0.0
 30
0.0
  9
$PUCSYDIR
 10
0.0
 20
1.0
 30
0.0
  9
$PUCSORTHOREF
  2

  9
$PUCSORTHOVIEW
 70
     0
  9
$PUCSORGTOP
 10
0.0
 20
0.0
 30
0.0
  9
$PUCSORGBOTTOM
 10
0.0
 20
0.0
 30
0.0
  9
$PUCSORGLEFT
 10
0.0
 20
0.0
 30
0.0
  9
$PUCSORGRIGHT
 10
0.0
 20
0.0
 30
0.0
  9
$PUCSORGFRONT
 10
0.0
 20
0.0
 30
0.0
  9
$PUCSORGBACK
 10
0.0
 20
0.0
 30
0.0
  9
$USERI1
 70
     0
  9
$USERI2
 70
     0
  9
$USERI3
 70
     0
  9
$USERI4
 70
     0
  9
$USERI5
 70
     0
  9
$USERR1
 40
0.0
  9
$USERR2
 40
0.0
  9
$USERR3
 40
0.0
  9
$USERR4
 40
0.0
  9
$USERR5
 40
0.0
  9
$WORLDVIEW
 70
     1
  9
$SHADEDGE
 70
     3
  9
$SHADEDIF
 70
    70
  9
$TILEMODE
 70
     1
  9
$MAXACTVP
 70
    64
  9
$PINSBASE
 10
0.0
 20
0.0
 30
0.0
  9
$PLIMCHECK
 70
     0
  9
$PEXTMIN
 10
1.0000000000E+20
 20
1.0000000000E+20
 30
1.0000000000E+20
  9
$PEXTMAX
 10
-1.0000000000E+20
 20
-1.0000000000E+20
 30
-1.0000000000E+20
  9
$PLIMMIN
 10
0.0
 20
0.0
  9
$PLIMMAX
 10
12.0
 20
9.0
  9
$UNITMODE
 70
     0
  9
$VISRETAIN
 70
     1
  9
$PLINEGEN
 70
     0
  9
$PSLTSCALE
 70
     1
  9
$TREEDEPTH
 70
  3020
  9
$CMLSTYLE
  2
Standard
  9
$CMLJUST
 70
     0
  9
$CMLSCALE
 40
1.0
  9
$PROXYGRAPHICS
 70
     1
  9
$MEASUREMENT
 70
     0
  9
$CELWEIGHT
370
    -1
  9
$ENDCAPS
280
     0
  9
$JOINSTYLE
280
     0
  9
$LWDISPLAY
290
     1
  9
$INSUNITS
 70
     1
  9
$HYPERLINKBASE
  1

  9
$STYLESHEET
  1

  9
$XEDIT
290
     1
  9
$CEPSNTYPE
380
     0
  9
$PSTYLEMODE
290
     1
  9
$FINGERPRINTGUID
  2
{4DE379A8-F71B-4A78-8C6C-88ED5BAA51E7}
  9
$VERSIONGUID
  2
{FAEB1C32-E019-11D5-929B-00C0DF256EC4}
  9
$EXTNAMES
290
     1
  9
$PSVPSCALE
 40
0.0
  9
$OLESTARTUP
290
     0
  0
ENDSEC
  0
SECTION
  2
CLASSES
  0
CLASS
  1
ACDBDICTIONARYWDFLT
  2
AcDbDictionaryWithDefault
  3
ObjectDBX Classes
 90
        0
280
     0
281
     0
  0
CLASS
  1
VISUALSTYLE
  2
AcDbVisualStyle
  3
ObjectDBX Classes
 90
     4095
280
     0
281
     0
  0
CLASS
  1
MATERIAL
  2
AcDbMaterial
  3
ObjectDBX Classes
 90
     1153
280
     0
281
     0
  0
CLASS
  1
ACDBPLACEHOLDER
  2
AcDbPlaceHolder
  3
ObjectDBX Classes
 90
        0
280
     0
281
     0
  0
CLASS
  1
LAYOUT
  2
AcDbLayout
  3
ObjectDBX Classes
 90
        0
280
     0
281
     0
  0
ENDSEC
  0
SECTION
  2
TABLES
  0
TABLE
  2
VPORT
  5
8
330
0
100
AcDbSymbolTable
 70
     1
  0
VPORT
  5
29
330
8
100
AcDbSymbolTableRecord
100
AcDbViewportTableRecord
  2
*Active
 70
     0
 10
0.0
 20
0.0
 11
1.0
 21
1.0
 12
20.0
 22
11.0
 13
0.0
 23
0.0
 14
0.5
 24
0.5
 15
0.5
 25
0.5
 16
0.0
 26
0.0
 36
1.0
 17
0.0
 27
0.0
 37
0.0
 40
22.0
 41
1.8181818182
 42
50.0
 43
0.0
 44
0.0
 50
0.0
 51
0.0
 71
     0
 72
  2000
 73
     1
 74
     3
 75
     0
 76
     0
 77
     0
 78
     0
281
     0
 65
     1
110
0.0
120
0.0
130
0.0
111
1.0
121
0.0
131
0.0
112
0.0
122
1.0
132
0.0
 79
     0
146
0.0
  0
ENDTAB
  0
TABLE
  2
LTYPE
  5
5
330
0
100
AcDbSymbolTable
 70
     6
  0
LTYPE
  5
14
330
5
100
AcDbSymbolTableRecord
100
AcDbLinetypeTableRecord
  2
ByBlock
 70
     0
  3

 72
    65
 73
     0
 40
0.0
  0
LTYPE
  5
15
330
5
100
AcDbSymbolTableRecord
100
AcDbLinetypeTableRecord
  2
ByLayer
 70
     0
  3

 72
    65
 73
     0
 40
0.0
  0
LTYPE
  5
16
330
5
100
AcDbSymbolTableRecord
100
AcDbLinetypeTableRecord
  2
Continuous
 70
     0
  3
Solid line
 72
    65
 73
     0
 40
0.0
  0
LTYPE
  5
3F
330
5
100
AcDbSymbolTableRecord
100
AcDbLinetypeTableRecord
  2
HIDDEN
 70
     0
  3
Hidden __ __ __ __ __ __ __ __ __ __ __ __ __ __
 72
    65
 73
     2
 40
0.075
 49
0.05
 74
     0
 49
-0.025
 74
     0
  0
LTYPE
  5
40
330
5
100
AcDbSymbolTableRecord
100
AcDbLinetypeTableRecord
  2
PHANTOM
 70
     0
  3
Phantom ______  __  __  ______  __  __  ______
 72
    65
 73
     6
 40
0.5
 49
0.25
 74
     0
 49
-0.05
 74
     0
 49
0.05
 74
     0
 49
-0.05
 74
     0
 49
0.05
 74
     0
 49
-0.05
 74
     0
  0
LTYPE
  5
41
330
5
100
AcDbSymbolTableRecord
100
AcDbLinetypeTableRecord
  2
CENTER
 70
     0
  3
Center ____ _ ____ _ ____ _ ____ _ ____ _ ____
 72
    65
 73
     4
 40
0.4
 49
0.25
 74
     0
 49
-0.05
 74
     0
 49
0.05
 74
     0
 49
-0.05
 74
     0
  0
LTYPE
  5
42
330
5
100
AcDbSymbolTableRecord
100
AcDbLinetypeTableRecord
  2
CENTERX2
 70
     0
  3
Center (2x) ________  __  ________  __  _____
 72
    65
 73
     4
 40
0.8
 49
0.5
 74
     0
 49
-0.1
 74
     0
 49
0.1
 74
     0
 49
-0.1
 74
     0
  0
LTYPE
  5
43
330
5
100
AcDbSymbolTableRecord
100
AcDbLinetypeTableRecord
  2
DOT2
 70
     0
  3
Dot (.5x) ........................................
 72
    65
 73
     2
 40
0.025
 49
0.0
 74
     0
 49
-0.025
 74
     0
  0
ENDTAB
  0
TABLE
  2
LAYER
  5
2
330
0
100
AcDbSymbolTable
 70
     8
  0
LAYER
  5
10
330
2
100
AcDbSymbolTableRecord
100
AcDbLayerTableRecord
  2
0
 70
     0
 62
     7
  6
Continuous
370
    -3
390
F
  0
LAYER
  5
44
330
2
100
AcDbSymbolTableRecord
100
AcDbLayerTableRecord
  2
SLD-0
 70
     0
 62
   179
  6
Continuous
370
    -3
390
F
  0
LAYER
  5
45
330
2
100
AcDbSymbolTableRecord
100
AcDbLayerTableRecord
  2
OBJECTS
 70
     0
 62
     5
  6
Continuous
370
    -3
390
F
  0
LAYER
  5
46
330
2
100
AcDbSymbolTableRecord
100
AcDbLayerTableRecord
  2
DIMS
 70
     0
 62
     1
  6
Continuous
370
    -3
390
F
  0
LAYER
  5
47
330
2
100
AcDbSymbolTableRecord
100
AcDbLayerTableRecord
  2
NOTES
 70
     0
 62
     7
  6
Continuous
370
    -3
390
F
  0
LAYER
  5
48
330
2
100
AcDbSymbolTableRecord
100
AcDbLayerTableRecord
  2
IMAGES
 70
     0
 62
     7
  6
Continuous
370
    -3
390
F
  0
LAYER
  5
49
330
2
100
AcDbSymbolTableRecord
100
AcDbLayerTableRecord
  2
CENTERLINES
 70
     0
 62
     7
  6
HIDDEN
370
    -3
390
F
  0
LAYER
  5
4A
330
2
100
AcDbSymbolTableRecord
100
AcDbLayerTableRecord
  2
BLOCKS
 70
     0
 62
    16
  6
Continuous
370
    -3
390
F
  0
ENDTAB
  0
TABLE
  2
STYLE
  5
3
330
0
100
AcDbSymbolTable
 70
     2
  0
STYLE
  5
11
330
3
100
AcDbSymbolTableRecord
100
AcDbTextStyleTableRecord
  2
Standard
 70
     0
 40
0.0
 41
1.0
 50
0.0
 71
     0
 42
0.2777777778
  3
txt
  4

  0
STYLE
  5
8C
330
3
100
AcDbSymbolTableRecord
100
AcDbTextStyleTableRecord
  2
SLDTEXTSTYLE0
 70
     0
 40
0.0
 41
0.605
 50
0.0
 71
     0
 42
0.2
  3
TXT
  4

  0
ENDTAB
  0
TABLE
  2
VIEW
  5
6
330
0
100
AcDbSymbolTable
 70
     0
  0
ENDTAB
  0
TABLE
  2
UCS
  5
7
330
0
100
AcDbSymbolTable
 70
     0
  0
ENDTAB
  0
TABLE
  2
APPID
  5
9
330
0
100
AcDbSymbolTable
 70
     1
  0
APPID
  5
12
330
9
100
AcDbSymbolTableRecord
100
AcDbRegAppTableRecord
  2
ACAD
 70
     0
  0
ENDTAB
  0
TABLE
  2
DIMSTYLE
  5
A
330
0
100
AcDbSymbolTable
 70
     4
100
AcDbDimStyleTable
  0
DIMSTYLE
105
27
330
A
100
AcDbSymbolTableRecord
100
AcDbDimStyleTableRecord
  2
Standard
 70
     0
178
     0
340
11
  0
DIMSTYLE
105
F4
102
{ACAD_REACTORS
330
F3
330
104
330
118
330
128
102
}
330
A
100
AcDbSymbolTableRecord
100
AcDbDimStyleTableRecord
  2
SLDDIMSTYLE0
 70
     0
 41
0.3640136719
 44
0.0
 45
0.000000001
 78
    12
 79
     3
140
0.3640136719
147
0.091003418
148
0.000000001
170
     1
171
     0
173
     1
178
     0
271
     3
272
     3
274
     0
276
     2
277
     5
284
    12
340
8C
  0
DIMSTYLE
105
13D
102
{ACAD_REACTORS
330
13C
330
151
102
}
330
A
100
AcDbSymbolTableRecord
100
AcDbDimStyleTableRecord
  2
SLDDIMSTYLE1
 70
     0
 41
0.3640136719
 44
0.0
 45
0.000000001
 78
    12
 79
     3
140
0.3640136719
141
0.0
147
0.091003418
148
0.000000001
170
     1
171
     0
173
     1
178
     0
271
     3
272
     3
274
     0
276
     2
277
     5
279
     1
284
    12
340
8C
  0
DIMSTYLE
105
17F
330
A
100
AcDbSymbolTableRecord
100
AcDbDimStyleTableRecord
  2
SLDDIMSTYLE2
 70
     0
 41
0.3640136719
 44
0.0
 45
0.000000001
140
0.0
146
0.3640136719
147
0.0
173
     1
178
     0
271
     0
272
     0
276
     2
277
     5
340
11
  0
ENDTAB
  0
TABLE
  2
BLOCK_RECORD
  5
1
330
0
100
AcDbSymbolTable
 70
    16
  0
BLOCK_RECORD
  5
1F
330
1
100
AcDbSymbolTableRecord
100
AcDbBlockTableRecord
  2
*Model_Space
340
22
  0
BLOCK_RECORD
  5
1B
330
1
100
AcDbSymbolTableRecord
100
AcDbBlockTableRecord
  2
*Paper_Space
340
1E
  0
BLOCK_RECORD
  5
23
330
1
100
AcDbSymbolTableRecord
100
AcDbBlockTableRecord
  2
*Paper_Space0
340
26
  0
BLOCK_RECORD
  5
4B
330
1
100
AcDbSymbolTableRecord
100
AcDbBlockTableRecord
  2
OVERHANG - .125
340
0
102
{BLKREFS
331
F2
102
}
  0
BLOCK_RECORD
  5
7D
330
1
100
AcDbSymbolTableRecord
100
AcDbBlockTableRecord
  2
SW_BLOCK_DIMENSION_0
340
0
102
{BLKREFS
331
93
102
}
  0
BLOCK_RECORD
  5
94
330
1
100
AcDbSymbolTableRecord
100
AcDbBlockTableRecord
  2
REVEAL- .500
340
0
102
{BLKREFS
331
F1
102
}
  0
BLOCK_RECORD
  5
C6
330
1
100
AcDbSymbolTableRecord
100
AcDbBlockTableRecord
  2
SW_BLOCK_DIMENSION_1
340
0
102
{BLKREFS
331
DC
102
}
  0
BLOCK_RECORD
  5
F5
330
1
100
AcDbSymbolTableRecord
100
AcDbBlockTableRecord
  2
_D
340
0
  0
BLOCK_RECORD
  5
105
330
1
100
AcDbSymbolTableRecord
100
AcDbBlockTableRecord
  2
_D_1
340
0
  0
BLOCK_RECORD
  5
119
330
1
100
AcDbSymbolTableRecord
100
AcDbBlockTableRecord
  2
_D_2
340
0
  0
BLOCK_RECORD
  5
129
330
1
100
AcDbSymbolTableRecord
100
AcDbBlockTableRecord
  2
_D_3
340
0
  0
BLOCK_RECORD
  5
13E
330
1
100
AcDbSymbolTableRecord
100
AcDbBlockTableRecord
  2
_D_4
340
0
  0
BLOCK_RECORD
  5
152
330
1
100
AcDbSymbolTableRecord
100
AcDbBlockTableRecord
  2
_D_5
340
0
  0
BLOCK_RECORD
  5
163
330
1
100
AcDbSymbolTableRecord
100
AcDbBlockTableRecord
  2
SW_NOTE_0
340
0
102
{BLKREFS
331
168
102
}
  0
BLOCK_RECORD
  5
169
330
1
100
AcDbSymbolTableRecord
100
AcDbBlockTableRecord
  2
SW_NOTE_1
340
0
102
{BLKREFS
331
178
102
}
  0
BLOCK_RECORD
  5
179
330
1
100
AcDbSymbolTableRecord
100
AcDbBlockTableRecord
  2
SW_NOTE_2
340
0
102
{BLKREFS
331
17E
102
}
  0
BLOCK_RECORD
  5
181
330
1
100
AcDbSymbolTableRecord
100
AcDbBlockTableRecord
  2
SW_NOTE_3
340
0
102
{BLKREFS
331
188
102
}
  0
BLOCK_RECORD
  5
18B
330
1
100
AcDbSymbolTableRecord
100
AcDbBlockTableRecord
  2
SW_NOTE_4
340
0
102
{BLKREFS
331
190
102
}
  0
ENDTAB
  0
ENDSEC
  0
SECTION
  2
BLOCKS
  0
BLOCK
  5
20
330
1F
100
AcDbEntity
  8
0
100
AcDbBlockBegin
  2
*Model_Space
 70
     0
 10
0.0
 20
0.0
 30
0.0
  3
*Model_Space
  1

  0
ENDBLK
  5
21
330
1F
100
AcDbEntity
  8
0
100
AcDbBlockEnd
  0
BLOCK
  5
1C
330
1B
100
AcDbEntity
 67
     1
  8
0
100
AcDbBlockBegin
  2
*Paper_Space
 70
     0
 10
0.0
 20
0.0
 30
0.0
  3
*Paper_Space
  1

  0
ENDBLK
  5
1D
330
1B
100
AcDbEntity
 67
     1
  8
0
100
AcDbBlockEnd
  0
BLOCK
  5
24
330
23
100
AcDbEntity
  8
0
100
AcDbBlockBegin
  2
*Paper_Space0
 70
     0
 10
0.0
 20
0.0
 30
0.0
  3
*Paper_Space0
  1

  0
ENDBLK
  5
25
330
23
100
AcDbEntity
  8
0
100
AcDbBlockEnd
  0
BLOCK
  5
4C
330
4B
100
AcDbEntity
  8
0
100
AcDbBlockBegin
  2
OVERHANG - .125
 70
     0
 10
0.0
 20
0.0
 30
0.0
  3
OVERHANG - .125
  1

  0
ARC
  5
4E
330
4B
100
AcDbEntity
  8
0
  6
Continuous
 62
    16
370
     0
100
AcDbCircle
 10
21.0247390722
 20
26.9140495115
 30
0.0
 40
0.0659795528056719
100
AcDbArc
 50
0.0
 51
90.0
  0
ARC
  5
4F
330
4B
100
AcDbEntity
  8
0
  6
Continuous
 62
    16
370
     0
100
AcDbCircle
 10
20.0403577083
 20
26.4212514943
 30
0.0
 40
0.0881257319589152
100
AcDbArc
 50
200.9822712638
 51
339.0177287362
  0
ARC
  5
50
330
4B
100
AcDbEntity
  8
0
  6
Continuous
 62
    16
370
     0
100
AcDbCircle
 10
20.731618625
 20
26.3139893982
 30
0.0
 40
0.1880000000000024
100
AcDbArc
 50
0.0
 51
90.0
  0
ARC
  5
51
330
4B
100
AcDbEntity
  8
0
  6
Continuous
 62
    16
370
     0
100
AcDbCircle
 10
20.731618625
 20
26.3139893982
 30
0.0
 40
0.2341000000000015
100
AcDbArc
 50
0.0
 51
90.0
  0
ARC
  5
52
330
4B
100
AcDbEntity
  8
BLOCKS
100
AcDbCircle
 10
21.3249668066
 20
26.3001927866
 30
0.0
 40
0.3686452378780193
100
AcDbArc
 50
129.4518716023
 51
170.6861521435
  0
LINE
  5
53
330
4B
100
AcDbEntity
  8
0
  6
Continuous
 62
    16
370
     0
100
AcDbLine
 10
19.4314231162
 20
26.5192257655
 30
0.0
 11
19.3788703567
 21
26.5738454846
 31
0.0
  0
LINE
  5
54
330
4B
100
AcDbEntity
  8
0
  6
Continuous
 62
    16
370
     0
100
AcDbLine
 10
20.0408120814
 20
26.8351846327
 30
0.0
 11
20.0797389734
 21
26.7799952517
 31
0.0
  0
LINE
  5
55
330
4B
100
AcDbEntity
  8
0
  6
Continuous
 62
    16
370
     0
100
AcDbLine
 10
19.3788703567
 20
26.5738454846
 30
0.0
 11
19.3364639969
 21
26.5330438976
 31
0.0
  0
LINE
  5
56
330
4B
100
AcDbEntity
  8
0
  6
Continuous
 62
    16
370
     0
100
AcDbLine
 10
20.6725806187
 20
26.4527516548
 30
0.0
 11
20.7252404088
 21
26.5034186543
 31
0.0
  0
LINE
  5
57
330
4B
100
AcDbEntity
  8
0
  6
Continuous
 62
    16
370
     0
100
AcDbLine
 10
20.0797389734
 20
26.7799952517
 30
0.0
 11
20.0797389734
 21
26.3896955151
 31
0.0
  0
LINE
  5
58
330
4B
100
AcDbEntity
  8
0
  6
Continuous
 62
    16
370
     0
100
AcDbLine
 10
19.9814774532
 20
26.8652076206
 30
0.0
 11
19.9814774532
 21
26.5848453834
 31
0.0
  0
LINE
  5
59
330
4B
100
AcDbEntity
  8
0
  6
Continuous
 62
    16
370
     0
100
AcDbLine
 10
20.7678769055
 20
26.4591052159
 30
0.0
 11
20.6989695496
 21
26.392805503
 31
0.0
  0
LINE
  5
5A
330
4B
100
AcDbEntity
  8
0
  6
Continuous
 62
    16
370
     0
100
AcDbLine
 10
21.0247390722
 20
26.9800290643
 30
0.0
 11
19.2446660374
 21
26.9800290643
 31
0.0
  0
LINE
  5
5B
330
4B
100
AcDbEntity
  8
0
  6
Continuous
 62
    16
370
     0
100
AcDbLine
 10
19.9670675999
 20
26.4905376331
 30
0.0
 11
19.9670675999
 21
26.4354028898
 31
0.0
  0
LINE
  5
5C
330
4B
100
AcDbEntity
  8
0
  6
Continuous
 62
    16
370
     0
100
AcDbLine
 10
20.1524880148
 20
26.4213577706
 30
0.0
 11
20.1506182011
 21
26.3892309097
 31
0.0
  0
LINE
  5
5D
330
4B
100
AcDbEntity
  8
0
  6
Continuous
 62
    16
370
     0
100
AcDbLine
 10
19.3364639969
 20
26.5330438976
 30
0.0
 11
19.3985753063
 21
26.4684896798
 31
0.0
  0
LINE
  5
5E
330
4B
100
AcDbEntity
  8
0
  6
Continuous
 62
    16
370
     0
100
AcDbLine
 10
20.2906117643
 20
26.5019893982
 30
0.0
 11
20.2906117643
 21
26.5480893982
 31
0.0
  0
LINE
  5
5F
330
4B
100
AcDbEntity
  8
0
  6
Continuous
 62
    16
370
     0
100
AcDbLine
 10
19.4314231162
 20
26.5192257655
 30
0.0
 11
20.6725806187
 21
26.4527516548
 31
0.0
  0
LINE
  5
60
330
4B
100
AcDbEntity
  8
0
  6
Continuous
 62
    16
370
     0
100
AcDbLine
 10
19.9400720233
 20
26.4337205825
 30
0.0
 11
20.1524880148
 21
26.4213577706
 31
0.0
  0
LINE
  5
61
330
4B
100
AcDbEntity
  8
0
  6
Continuous
 62
    16
370
     0
100
AcDbLine
 10
21.090718625
 20
26.5848453834
 30
0.0
 11
21.090718625
 21
26.9140495115
 31
0.0
  0
LINE
  5
62
330
4B
100
AcDbEntity
  8
0
  6
Continuous
 62
    16
370
     0
100
AcDbLine
 10
20.731618625
 20
26.5019893982
 30
0.0
 11
20.2906117643
 21
26.5019893982
 31
0.0
  0
LINE
  5
63
330
4B
100
AcDbEntity
  8
0
  6
Continuous
 62
    16
370
     0
100
AcDbLine
 10
20.919618625
 20
25.9230893982
 30
0.0
 11
20.919618625
 21
26.3139893982
 31
0.0
  0
LINE
  5
64
330
4B
100
AcDbEntity
  8
0
  6
Continuous
 62
    16
370
     0
100
AcDbLine
 10
19.9580754817
 20
26.3896955151
 30
0.0
 11
20.1226399348
 21
26.3896955151
 31
0.0
  0
LINE
  5
65
330
4B
100
AcDbEntity
  8
0
  6
Continuous
 62
    16
370
     0
100
AcDbLine
 10
20.1506182011
 20
26.3892309097
 30
0.0
 11
19.9382022095
 21
26.4015937216
 31
0.0
  0
LINE
  5
66
330
4B
100
AcDbEntity
  8
0
  6
Continuous
 62
    16
370
     0
100
AcDbLine
 10
20.965718625
 20
25.9230893982
 30
0.0
 11
20.919618625
 21
25.9230893982
 31
0.0
  0
LINE
  5
67
330
4B
100
AcDbEntity
  8
0
  6
Continuous
 62
    16
370
     0
100
AcDbLine
 10
20.965718625
 20
26.3139893982
 30
0.0
 11
20.965718625
 21
25.9230893982
 31
0.0
  0
LINE
  5
68
330
4B
100
AcDbEntity
  8
0
  6
Continuous
 62
    16
370
     0
100
AcDbLine
 10
20.6989695496
 20
26.392805503
 30
0.0
 11
19.3985753063
 21
26.4684896798
 31
0.0
  0
LINE
  5
69
330
4B
100
AcDbEntity
  8
0
  6
Continuous
 62
    16
370
     0
100
AcDbLine
 10
19.2743496911
 20
26.5848453834
 30
0.0
 11
21.090718625
 21
26.5848453834
 31
0.0
  0
LINE
  5
6A
330
4B
100
AcDbEntity
  8
0
  6
Continuous
 62
    16
370
     0
100
AcDbLine
 10
20.0028471016
 20
26.7799952517
 30
0.0
 11
20.0408120814
 21
26.8351846327
 31
0.0
  0
LINE
  5
6B
330
4B
100
AcDbEntity
  8
0
  6
Continuous
 62
    16
370
     0
100
AcDbLine
 10
20.2906117643
 20
26.5480893982
 30
0.0
 11
20.731618625
 21
26.5480893982
 31
0.0
  0
LINE
  5
6C
330
4B
100
AcDbEntity
  8
0
  6
Continuous
 62
    16
370
     0
100
AcDbLine
 10
20.0028471016
 20
26.7799952517
 30
0.0
 11
20.0028471016
 21
26.3896955151
 31
0.0
  0
LINE
  5
6D
330
4B
100
AcDbEntity
  8
0
  6
Continuous
 62
    16
370
     0
100
AcDbLine
 10
20.1080144451
 20
26.8652076206
 30
0.0
 11
19.9814774532
 21
26.8652076206
 31
0.0
  0
LINE
  5
6E
330
4B
100
AcDbEntity
  8
0
  6
Continuous
 62
    16
370
     0
100
AcDbLine
 10
20.7252404088
 20
26.5034186543
 30
0.0
 11
20.7678769055
 21
26.4591052159
 31
0.0
  0
LINE
  5
6F
330
4B
100
AcDbEntity
  8
0
  6
Continuous
 62
    16
370
     0
100
AcDbLine
 10
19.9400720233
 20
26.4337205825
 30
0.0
 11
19.9382022095
 21
26.4015937216
 31
0.0
  0
LINE
  5
70
330
4B
100
AcDbEntity
  8
0
  6
Continuous
 62
    16
370
     0
100
AcDbLine
 10
20.1080144451
 20
26.5848453834
 30
0.0
 11
20.1080144451
 21
26.8652076206
 31
0.0
  0
LINE
  5
71
330
4B
100
AcDbEntity
  8
0
  6
Continuous
 62
    16
370
     0
100
AcDbLine
 10
20.1216872784
 20
26.4822564878
 30
0.0
 11
20.1216872784
 21
26.426403878
 31
0.0
  0
LINE
  5
72
330
4B
100
AcDbEntity
  8
BLOCKS
100
AcDbLine
 10
20.2906117643
 20
26.5480893982
 30
0.0
 11
20.2368944426
 21
26.5848453834
 31
0.0
  0
SPLINE
  5
73
330
4B
100
AcDbEntity
  8
0
  6
Continuous
 62
    16
370
     0
100
AcDbSpline
210
0.0
220
0.0
230
1.0
 70
     8
 71
     3
 72
     9
 73
     5
 74
     0
 42
0.00000001
 43
0.00000001
 12
1.0
 22
0.0
 32
0.0
 13
1.0
 23
0.0
 33
0.0
 40
0.0
 40
0.0
 40
0.0
 40
0.0
 40
0.5928291688347104
 40
1.0
 40
1.0
 40
1.0
 40
1.0
 10
19.27434969107827
 20
26.58484538338648
 30
0.0
 10
19.22977403886498
 20
26.67067982455945
 30
0.0
 10
19.3092570011885
 20
26.78990333849607
 30
0.0
 10
19.29114417973896
 20
26.9441515837284
 30
0.0
 10
19.24466603742839
 20
26.98002906431008
 30
0.0
  0
HATCH
  5
74
330
4B
100
AcDbEntity
  8
BLOCKS
 62
    16
100
AcDbHatch
 10
0.0
 20
0.0
 30
0.0
210
0.0
220
0.0
230
1.0
  2
ANSI36
 70
     0
 71
     0
 91
        1
 92
        0
 93
       10
 72
     4
 94
        3
 73
     1
 74
     0
 95
        9
 96
        5
 40
0.0
 40
0.0
 40
0.0
 40
0.0
 40
0.4071708311652896
 40
1.0
 40
1.0
 40
1.0
 40
1.0
 10
19.24466603742839
 20
26.98002906431008
 42
1.0
 10
19.29114417973896
 20
26.9441515837284
 42
1.0
 10
19.3092570011885
 20
26.78990333849607
 42
1.0
 10
19.22977403886498
 20
26.67067982455945
 42
1.0
 10
19.27434969107827
 20
26.58484538338648
 42
1.0
 72
     1
 10
19.27434969107827
 20
26.58484538338648
 11
19.98147745321076
 21
26.58484538338648
 72
     1
 10
19.98147745321076
 20
26.58484538338648
 11
19.98147745321076
 21
26.86520762058046
 72
     1
 10
19.98147745321076
 20
26.86520762058046
 11
20.10801444514525
 21
26.86520762058046
 72
     1
 10
20.10801444514525
 20
26.86520762058046
 11
20.10801444514525
 21
26.58484538338648
 72
     1
 10
20.10801444514525
 20
26.58484538338648
 11
20.23689444261453
 21
26.58484538338649
 72
     1
 10
20.23689444261453
 20
26.58484538338649
 11
21.0907186249667
 21
26.58484538338648
 72
     1
 10
21.0907186249667
 20
26.58484538338648
 11
21.0907186249667
 21
26.9140495115044
 72
     2
 10
21.02473907216103
 20
26.9140495115044
 40
0.0659795528056717
 50
0.0
 51
90.0
 73
     1
 72
     1
 10
21.02473907216103
 20
26.98002906431007
 11
19.24466603742839
 21
26.98002906431008
 97
        0
 75
     0
 76
     1
 52
0.0
 41
0.5
 77
     0
 78
     1
 53
45.0
 43
0.0
 44
0.0
 45
0.0331456303681194
 46
0.1215339780164378
 79
     4
 49
0.15625
 49
-0.03125
 49
0.0
 49
-0.03125
 98
        1
 10
0.0
 20
0.0
  0
HATCH
  5
75
330
4B
100
AcDbEntity
  8
BLOCKS
 62
    16
100
AcDbHatch
 10
0.0
 20
0.0
 30
0.0
210
0.0
220
0.0
230
1.0
  2
ANSI32
 70
     0
 71
     0
 91
        1
 92
        0
 93
        4
 72
     1
 10
20.07973897339712
 20
26.58484538338648
 11
20.00284710159458
 21
26.58484538338648
 72
     1
 10
20.00284710159458
 20
26.58484538338648
 11
20.00284710159458
 21
26.48862134888004
 72
     1
 10
20.00284710159458
 20
26.48862134888004
 11
20.07973897339712
 21
26.4845031617958
 72
     1
 10
20.07973897339712
 20
26.4845031617958
 11
20.07973897339712
 21
26.58484538338648
 97
        0
 75
     0
 76
     1
 52
0.0
 41
0.2
 77
     0
 78
     2
 53
45.0
 43
0.0
 44
0.0
 45
-0.0530330085889911
 46
0.0530330085889911
 79
     0
 53
45.0
 43
0.035355339
 44
0.0
 45
-0.0530330085889911
 46
0.0530330085889911
 79
     0
 98
        1
 10
0.0
 20
0.0
  0
HATCH
  5
76
330
4B
100
AcDbEntity
  8
BLOCKS
 62
    16
100
AcDbHatch
 10
0.0
 20
0.0
 30
0.0
210
0.0
220
0.0
230
1.0
  2
ANSI32
 70
     0
 71
     0
 91
        1
 92
        0
 93
        5
 72
     1
 10
20.04081208140756
 20
26.8351846326727
 11
20.00284710159458
 21
26.77999525166031
 72
     1
 10
20.00284710159458
 20
26.77999525166031
 11
20.00284710159458
 21
26.58484538338648
 72
     1
 10
20.00284710159458
 20
26.58484538338648
 11
20.07973897339712
 21
26.58484538338648
 72
     1
 10
20.07973897339712
 20
26.58484538338648
 11
20.07973897339712
 21
26.77999525166031
 72
     1
 10
20.07973897339712
 20
26.77999525166031
 11
20.04081208140756
 21
26.8351846326727
 97
        0
 75
     0
 76
     1
 52
0.0
 41
0.2
 77
     0
 78
     2
 53
45.0
 43
0.0
 44
0.0
 45
-0.0530330085889911
 46
0.0530330085889911
 79
     0
 53
45.0
 43
0.035355339
 44
0.0
 45
-0.0530330085889911
 46
0.0530330085889911
 79
     0
 98
        1
 10
0.0
 20
0.0
  0
HATCH
  5
77
330
4B
100
AcDbEntity
  8
BLOCKS
 62
    16
100
AcDbHatch
 10
0.0
 20
0.0
 30
0.0
210
0.0
220
0.0
230
1.0
  2
ANSI32
 70
     0
 71
     0
 91
        1
 92
        0
 93
        4
 72
     1
 10
20.07973897339712
 20
26.4845031617958
 11
20.00284710159458
 21
26.48862134888004
 72
     1
 10
20.00284710159458
 20
26.48862134888004
 11
20.00284710159458
 21
26.43332048887584
 72
     1
 10
20.00284710159458
 20
26.43332048887584
 11
20.07973897339712
 21
26.42884530909641
 72
     1
 10
20.07973897339712
 20
26.42884530909641
 11
20.07973897339712
 21
26.4845031617958
 97
        0
 75
     0
 76
     1
 52
0.0
 41
0.2
 77
     0
 78
     2
 53
45.0
 43
0.0
 44
0.0
 45
-0.0530330085889911
 46
0.0530330085889911
 79
     0
 53
45.0
 43
0.035355339
 44
0.0
 45
-0.0530330085889911
 46
0.0530330085889911
 79
     0
 98
        1
 10
0.0
 20
0.0
  0
HATCH
  5
78
330
4B
100
AcDbEntity
  8
BLOCKS
 62
    16
100
AcDbHatch
 10
0.0
 20
0.0
 30
0.0
210
0.0
220
0.0
230
1.0
  2
ANSI32
 70
     0
 71
     0
 91
        1
 92
        0
 93
        4
 72
     1
 10
20.00284710159458
 20
26.43006701346352
 11
19.94007202325873
 21
26.43372058249019
 72
     1
 10
19.94007202325873
 20
26.43372058249019
 11
19.93820220952023
 21
26.40159372159039
 72
     1
 10
19.93820220952023
 20
26.40159372159039
 11
20.00284710159458
 21
26.39783132763285
 72
     1
 10
20.00284710159458
 20
26.39783132763285
 11
20.00284710159458
 21
26.43006701346352
 97
        0
 75
     0
 76
     1
 52
0.0
 41
0.2
 77
     0
 78
     2
 53
45.0
 43
0.0
 44
0.0
 45
-0.0530330085889911
 46
0.0530330085889911
 79
     0
 53
45.0
 43
0.035355339
 44
0.0
 45
-0.0530330085889911
 46
0.0530330085889911
 79
     0
 98
        1
 10
0.0
 20
0.0
  0
HATCH
  5
79
330
4B
100
AcDbEntity
  8
BLOCKS
 62
    16
100
AcDbHatch
 10
0.0
 20
0.0
 30
0.0
210
0.0
220
0.0
230
1.0
  2
ANSI32
 70
     0
 71
     0
 91
        1
 92
        0
 93
        4
 72
     1
 10
20.07973897339712
 20
26.42559183368408
 11
20.00284710159458
 21
26.43006701346352
 72
     1
 10
20.00284710159458
 20
26.43006701346352
 11
20.00284710159458
 21
26.39783132763285
 72
     1
 10
20.00284710159458
 20
26.39783132763285
 11
20.07973897339712
 21
26.39335614785342
 72
     1
 10
20.07973897339712
 20
26.39335614785342
 11
20.07973897339712
 21
26.42559183368408
 97
        0
 75
     0
 76
     1
 52
0.0
 41
0.2
 77
     0
 78
     2
 53
45.0
 43
0.0
 44
0.0
 45
-0.0530330085889911
 46
0.0530330085889911
 79
     0
 53
45.0
 43
0.035355339
 44
0.0
 45
-0.0530330085889911
 46
0.0530330085889911
 79
     0
 98
        1
 10
0.0
 20
0.0
  0
HATCH
  5
7A
330
4B
100
AcDbEntity
  8
BLOCKS
 62
    16
100
AcDbHatch
 10
0.0
 20
0.0
 30
0.0
210
0.0
220
0.0
230
1.0
  2
ANSI32
 70
     0
 71
     0
 91
        1
 92
        0
 93
        4
 72
     1
 10
20.07973897339712
 20
26.39335614785342
 11
20.15061820105523
 21
26.38923090965904
 72
     1
 10
20.15061820105523
 20
26.38923090965904
 11
20.15248801479373
 21
26.42135777055884
 72
     1
 10
20.15248801479373
 20
26.42135777055884
 11
20.07973897339712
 21
26.42559183368408
 72
     1
 10
20.07973897339712
 20
26.42559183368408
 11
20.07973897339712
 21
26.39335614785342
 97
        0
 75
     0
 76
     1
 52
0.0
 41
0.2
 77
     0
 78
     2
 53
45.0
 43
0.0
 44
0.0
 45
-0.0530330085889911
 46
0.0530330085889911
 79
     0
 53
45.0
 43
0.035355339
 44
0.0
 45
-0.0530330085889911
 46
0.0530330085889911
 79
     0
 98
        1
 10
0.0
 20
0.0
  0
HATCH
  5
7B
330
4B
100
AcDbEntity
  8
BLOCKS
 62
    16
100
AcDbHatch
 10
0.0
 20
0.0
 30
0.0
210
0.0
220
0.0
230
1.0
  2
ANSI32
 70
     0
 71
     0
 91
        1
 92
        0
 93
        4
 72
     1
 10
20.00284710159458
 20
26.38969551511265
 11
19.95807548170848
 21
26.38969551511265
 72
     2
 10
20.04035770827806
 20
26.42125149432493
 40
0.0881257319589163
 50
200.9822712637957
 51
339.0177287362059
 73
     1
 72
     1
 10
20.12263993484765
 20
26.38969551511265
 11
20.07973897339712
 21
26.38969551511265
 72
     1
 10
20.07973897339712
 20
26.38969551511265
 11
20.00284710159458
 21
26.38969551511265
 97
        0
 75
     0
 76
     1
 52
0.0
 41
0.2
 77
     0
 78
     2
 53
45.0
 43
0.0
 44
0.0
 45
-0.0530330085889911
 46
0.0530330085889911
 79
     0
 53
45.0
 43
0.035355339
 44
0.0
 45
-0.0530330085889911
 46
0.0530330085889911
 79
     0
 98
        1
 10
0.0
 20
0.0
  0
HATCH
  5
7C
330
4B
100
AcDbEntity
  8
BLOCKS
100
AcDbHatch
 10
0.0
 20
0.0
 30
0.0
210
0.0
220
0.0
230
1.0
  2
SOLID
 70
     1
 71
     0
 91
        1
 92
        0
 93
        5
 72
     2
 10
21.32496680656287
 20
26.30019278664964
 40
0.3686452378780171
 50
189.3138478564999
 51
230.5481283977412
 73
     0
 72
     1
 10
21.0907186249667
 20
26.58484538338648
 11
20.23689444261453
 21
26.58484538338649
 72
     1
 10
20.23689444261453
 20
26.58484538338649
 11
20.29061176430621
 21
26.54808939823214
 72
     1
 10
20.29061176430621
 20
26.54808939823214
 11
20.7316186249667
 21
26.54808939823214
 72
     2
 10
20.7316186249667
 20
26.31398939823214
 40
0.2341000000000018
 50
270.0000000000008
 51
348.7012977589557
 73
     0
 97
        0
 75
     0
 76
     1
 98
        1
 10
0.0
 20
0.0
  0
INSERT
  5
93
330
4B
100
AcDbEntity
  8
BLOCKS
100
AcDbBlockReference
  2
SW_BLOCK_DIMENSION_0
 10
20.4093907351
 20
26.145611376
 30
0.0
  0
ENDBLK
  5
4D
330
4B
100
AcDbEntity
  8
0
100
AcDbBlockEnd
  0
BLOCK
  5
7E
330
7D
100
AcDbEntity
  8
0
100
AcDbBlockBegin
  2
SW_BLOCK_DIMENSION_0
 70
     0
 10
0.0
 20
0.0
 30
0.0
  3
SW_BLOCK_DIMENSION_0
  1

  0
SOLID
  5
80
330
7D
100
AcDbEntity
  8
BLOCKS
 62
     0
100
AcDbTrace
 10
0.5563278898
 20
-0.0313006311
 30
0.0
 11
0.455212981
 21
-0.0157444913
 31
0.0
 12
0.455212981
 22
-0.0468567709
 32
0.0
 13
0.455212981
 23
-0.0468567709
 33
0.0
  0
SOLID
  5
81
330
7D
100
AcDbEntity
  8
BLOCKS
 62
     0
100
AcDbTrace
 10
0.6813278898
 20
-0.0313006311
 30
0.0
 11
0.7824427987
 21
-0.0468567709
 31
0.0
 12
0.7824427987
 22
-0.0157444913
 32
0.0
 13
0.7824427987
 23
-0.0157444913
 33
0.0
  0
LINE
  5
82
330
7D
100
AcDbEntity
  8
BLOCKS
 62
     0
100
AcDbLine
 10
0.0533371922
 20
0.0798201425
 30
0.0
 11
0.1600115765
 21
0.0798201425
 31
0.0
  0
LINE
  5
83
330
7D
100
AcDbEntity
  8
BLOCKS
 62
     0
100
AcDbLine
 10
0.1101466042
 20
-0.0940224566
 30
0.0
 11
0.0869984556
 21
-0.0940224566
 31
0.0
  0
LINE
  5
84
330
7D
100
AcDbEntity
  8
BLOCKS
 62
     0
100
AcDbLine
 10
0.0869984556
 20
-0.0940224566
 30
0.0
 11
0.0869984556
 21
-0.249307956
 31
0.0
  0
LINE
  5
85
330
7D
100
AcDbEntity
  8
BLOCKS
 62
     0
100
AcDbLine
 10
0.0869984556
 20
-0.249307956
 30
0.0
 11
0.1101466042
 21
-0.249307956
 31
0.0
  0
LINE
  5
86
330
7D
100
AcDbEntity
  8
BLOCKS
 62
     0
100
AcDbLine
 10
0.2451774694
 20
-0.0940224566
 30
0.0
 11
0.268325618
 21
-0.0940224566
 31
0.0
  0
LINE
  5
87
330
7D
100
AcDbEntity
  8
BLOCKS
 62
     0
100
AcDbLine
 10
0.268325618
 20
-0.0940224566
 30
0.0
 11
0.268325618
 21
-0.249307956
 31
0.0
  0
LINE
  5
88
330
7D
100
AcDbEntity
  8
BLOCKS
 62
     0
100
AcDbLine
 10
0.268325618
 20
-0.249307956
 30
0.0
 11
0.2451774694
 21
-0.249307956
 31
0.0
  0
LINE
  5
89
330
7D
100
AcDbEntity
  8
BLOCKS
 62
     0
100
AcDbLine
 10
0.6813278898
 20
0.3892340074
 30
0.0
 11
0.6813278898
 21
-0.1563006311
 31
0.0
  0
LINE
  5
8A
330
7D
100
AcDbEntity
  8
BLOCKS
 62
     0
100
AcDbLine
 10
0.5563278898
 20
-0.0313006311
 30
0.0
 11
0.355823901
 21
-0.0313006311
 31
0.0
  0
LINE
  5
8B
330
7D
100
AcDbEntity
  8
BLOCKS
 62
     0
100
AcDbLine
 10
0.6813278898
 20
-0.0313006311
 30
0.0
 11
0.8757796376
 21
-0.0313006311
 31
0.0
  0
MTEXT
  5
8D
330
7D
100
AcDbEntity
  8
BLOCKS
 62
     0
100
AcDbMText
 10
0.0390625
 20
0.1342778896
 30
0.0039370079
 40
0.1041666667
 41
0.0
 71
     1
 72
     1
  1

  7
SLDTEXTSTYLE0
 73
     1
 44
1.0
  0
MTEXT
  5
8E
330
7D
100
AcDbEntity
  8
BLOCKS
 62
     0
100
AcDbMText
 10
0.0680941359
 20
0.2052438631
 30
0.0039370079
 40
0.1041666667
 41
0.0
 71
     1
 72
     1
  1
1
  7
SLDTEXTSTYLE0
 73
     1
 44
1.0
  0
MTEXT
  5
8F
330
7D
100
AcDbEntity
  8
BLOCKS
 62
     0
100
AcDbMText
 10
0.0680941359
 20
0.0634035871
 30
0.0039370079
 40
0.1041666667
 41
0.0
 71
     1
 72
     1
  1
8
  7
SLDTEXTSTYLE0
 73
     1
 44
1.0
  0
MTEXT
  5
90
330
7D
100
AcDbEntity
  8
BLOCKS
 62
     0
100
AcDbMText
 10
0.1747685202
 20
0.1342778896
 30
0.0039370079
 40
0.1041666667
 41
0.0
 71
     1
 72
     1
  1
"
  7
SLDTEXTSTYLE0
 73
     1
 44
1.0
  0
MTEXT
  5
91
330
7D
100
AcDbEntity
  8
BLOCKS
 62
     0
100
AcDbMText
 10
0.1390817883
 20
-0.1150300596
 30
0.0039370079
 40
0.1041666667
 41
0.0
 71
     1
 72
     1
  1
3
  7
SLDTEXTSTYLE0
 73
     1
 44
1.0
  0
MTEXT
  5
92
330
7D
100
AcDbEntity
  8
BLOCKS
 62
     0
100
AcDbMText
 10
0.3558063343
 20
0.1342778896
 30
0.0039370079
 40
0.1041666667
 41
0.0
 71
     1
 72
     1
  1

  7
SLDTEXTSTYLE0
 73
     1
 44
1.0
  0
ENDBLK
  5
7F
330
7D
100
AcDbEntity
  8
0
100
AcDbBlockEnd
  0
BLOCK
  5
95
330
94
100
AcDbEntity
  8
0
100
AcDbBlockBegin
  2
REVEAL- .500
 70
     0
 10
0.0
 20
0.0
 30
0.0
  3
REVEAL- .500
  1

  0
ARC
  5
97
330
94
100
AcDbEntity
  8
BLOCKS
100
AcDbCircle
 10
20.1601934329
 20
28.8878838846
 30
0.0
 40
0.2338576391325233
100
AcDbArc
 50
0.0
 51
90.0
  0
ARC
  5
98
330
94
100
AcDbEntity
  8
BLOCKS
100
AcDbCircle
 10
19.8280715192
 20
29.4726468145
 30
0.0
 40
0.0659795528056719
100
AcDbArc
 50
0.0
 51
90.0
  0
ARC
  5
99
330
94
100
AcDbEntity
  8
BLOCKS
100
AcDbCircle
 10
19.0470381676
 20
28.990848696
 30
0.0
 40
0.0881257319589152
100
AcDbArc
 50
200.9822712638
 51
339.0177287362
  0
ARC
  5
9A
330
94
100
AcDbEntity
  8
BLOCKS
100
AcDbCircle
 10
20.1601934329
 20
28.8878838846
 30
0.0
 40
0.1878262552218324
100
AcDbArc
 50
0.0
 51
90.0
  0
LINE
  5
9B
330
94
100
AcDbEntity
  8
BLOCKS
100
AcDbLine
 10
19.8280715192
 20
29.5386263673
 30
0.0
 11
18.2509355515
 21
29.5386263673
 31
0.0
  0
LINE
  5
9C
330
94
100
AcDbEntity
  8
BLOCKS
100
AcDbLine
 10
18.2806192052
 20
29.1434426864
 30
0.0
 11
19.894051072
 21
29.1434426864
 31
0.0
  0
LINE
  5
9D
330
94
100
AcDbEntity
  8
BLOCKS
100
AcDbLine
 10
19.3470309437
 20
29.1217415238
 30
0.0
 11
20.1601934329
 21
29.1217415238
 31
0.0
  0
LINE
  5
9E
330
94
100
AcDbEntity
  8
BLOCKS
100
AcDbLine
 10
20.394051072
 20
28.8878838846
 30
0.0
 11
20.394051072
 21
28.4971795949
 31
0.0
  0
LINE
  5
9F
330
94
100
AcDbEntity
  8
BLOCKS
100
AcDbLine
 10
20.394051072
 20
28.4971795949
 30
0.0
 11
20.3480196881
 21
28.4971795949
 31
0.0
  0
LINE
  5
A0
330
94
100
AcDbEntity
  8
BLOCKS
100
AcDbLine
 10
20.3480196881
 20
28.4971795949
 30
0.0
 11
20.3480196881
 21
28.8878838846
 31
0.0
  0
LINE
  5
A1
330
94
100
AcDbEntity
  8
BLOCKS
100
AcDbLine
 10
20.1601934329
 20
29.0757101398
 30
0.0
 11
19.3470309437
 21
29.0757101398
 31
0.0
  0
LINE
  5
A2
330
94
100
AcDbEntity
  8
BLOCKS
100
AcDbLine
 10
19.3470309437
 20
29.0757101398
 30
0.0
 11
19.3470309437
 21
29.1217415238
 31
0.0
  0
LINE
  5
A3
330
94
100
AcDbEntity
  8
BLOCKS
100
AcDbLine
 10
19.679261078
 20
29.0223488565
 30
0.0
 11
19.7319208682
 21
29.073015856
 31
0.0
  0
LINE
  5
A4
330
94
100
AcDbEntity
  8
BLOCKS
100
AcDbLine
 10
19.7319208682
 20
29.073015856
 30
0.0
 11
19.7745573648
 21
29.0287024176
 31
0.0
  0
LINE
  5
A5
330
94
100
AcDbEntity
  8
BLOCKS
100
AcDbLine
 10
19.7745573648
 20
29.0287024176
 30
0.0
 11
19.705650009
 21
28.9624027047
 31
0.0
  0
LINE
  5
A6
330
94
100
AcDbEntity
  8
BLOCKS
100
AcDbLine
 10
18.4381035755
 20
29.0888229672
 30
0.0
 11
18.385550816
 21
29.1434426864
 31
0.0
  0
LINE
  5
A7
330
94
100
AcDbEntity
  8
BLOCKS
100
AcDbLine
 10
18.385550816
 20
29.1434426864
 30
0.0
 11
18.3431444562
 21
29.1026410993
 31
0.0
  0
LINE
  5
A8
330
94
100
AcDbEntity
  8
BLOCKS
100
AcDbLine
 10
18.3431444562
 20
29.1026410993
 30
0.0
 11
18.4052557657
 21
29.0380868815
 31
0.0
  0
LINE
  5
A9
330
94
100
AcDbEntity
  8
BLOCKS
100
AcDbLine
 10
18.4381035755
 20
29.0888229672
 30
0.0
 11
19.679261078
 21
29.0223488565
 31
0.0
  0
LINE
  5
AA
330
94
100
AcDbEntity
  8
BLOCKS
100
AcDbLine
 10
19.705650009
 20
28.9624027047
 30
0.0
 11
18.4052557657
 21
29.0380868815
 31
0.0
  0
LINE
  5
AB
330
94
100
AcDbEntity
  8
BLOCKS
100
AcDbLine
 10
19.1283677378
 20
29.0518536895
 30
0.0
 11
19.1283677378
 21
28.9960010797
 31
0.0
  0
LINE
  5
AC
330
94
100
AcDbEntity
  8
BLOCKS
100
AcDbLine
 10
18.9737480593
 20
29.0601348348
 30
0.0
 11
18.9737480593
 21
29.0050000915
 31
0.0
  0
LINE
  5
AD
330
94
100
AcDbEntity
  8
BLOCKS
100
AcDbLine
 10
18.964755941
 20
28.9592927168
 30
0.0
 11
19.1293203942
 21
28.9592927168
 31
0.0
  0
LINE
  5
AE
330
94
100
AcDbEntity
  8
BLOCKS
100
AcDbLine
 10
19.0095275609
 20
29.3495924534
 30
0.0
 11
19.0095275609
 21
28.9592927168
 31
0.0
  0
LINE
  5
AF
330
94
100
AcDbEntity
  8
BLOCKS
100
AcDbLine
 10
19.0864194327
 20
29.3495924534
 30
0.0
 11
19.0864194327
 21
28.9592927168
 31
0.0
  0
LINE
  5
B0
330
94
100
AcDbEntity
  8
BLOCKS
100
AcDbLine
 10
18.9467524826
 20
29.0033177842
 30
0.0
 11
19.1591684741
 21
28.9909549723
 31
0.0
  0
LINE
  5
B1
330
94
100
AcDbEntity
  8
BLOCKS
100
AcDbLine
 10
19.0095275609
 20
29.3495924534
 30
0.0
 11
19.0474925407
 21
29.4047818344
 31
0.0
  0
LINE
  5
B2
330
94
100
AcDbEntity
  8
BLOCKS
100
AcDbLine
 10
19.0474925407
 20
29.4047818344
 30
0.0
 11
19.0864194327
 21
29.3495924534
 31
0.0
  0
LINE
  5
B3
330
94
100
AcDbEntity
  8
BLOCKS
100
AcDbLine
 10
19.1572986604
 20
28.9588281114
 30
0.0
 11
18.9448826689
 21
28.9711909233
 31
0.0
  0
LINE
  5
B4
330
94
100
AcDbEntity
  8
BLOCKS
100
AcDbLine
 10
19.1591684741
 20
28.9909549723
 30
0.0
 11
19.1572986604
 21
28.9588281114
 31
0.0
  0
LINE
  5
B5
330
94
100
AcDbEntity
  8
BLOCKS
100
AcDbLine
 10
18.9467524826
 20
29.0033177842
 30
0.0
 11
18.9448826689
 21
28.9711909233
 31
0.0
  0
LINE
  5
B6
330
94
100
AcDbEntity
  8
BLOCKS
100
AcDbLine
 10
19.1142839592
 20
29.1434426864
 30
0.0
 11
19.1142839592
 21
29.4238049236
 31
0.0
  0
LINE
  5
B7
330
94
100
AcDbEntity
  8
BLOCKS
100
AcDbLine
 10
19.1142839592
 20
29.4238049236
 30
0.0
 11
18.9877469673
 21
29.4238049236
 31
0.0
  0
LINE
  5
B8
330
94
100
AcDbEntity
  8
BLOCKS
100
AcDbLine
 10
18.9877469673
 20
29.4238049236
 30
0.0
 11
18.9877469673
 21
29.1434426864
 31
0.0
  0
LINE
  5
B9
330
94
100
AcDbEntity
  8
BLOCKS
  6
Continuous
100
AcDbLine
 10
19.894051072
 20
29.1434426864
 30
0.0
 11
19.894051072
 21
29.4726468145
 31
0.0
  0
LINE
  5
BA
330
94
100
AcDbEntity
  8
BLOCKS
100
AcDbLine
 10
19.3020232313
 20
29.1434426864
 30
0.0
 11
19.3470309437
 21
29.0987258318
 31
0.0
  0
LINE
  5
BB
330
94
100
AcDbEntity
  8
BLOCKS
100
AcDbLine
 10
19.894051072
 20
29.1434426864
 30
0.0
 11
19.9068063572
 21
29.1217415238
 31
0.0
  0
SPLINE
  5
BC
330
94
100
AcDbEntity
  8
BLOCKS
100
AcDbSpline
210
0.0
220
0.0
230
1.0
 70
     8
 71
     3
 72
     9
 73
     5
 74
     0
 42
0.00000001
 43
0.00000001
 12
1.0
 22
0.0
 32
0.0
 13
1.0
 23
0.0
 33
0.0
 40
0.0
 40
0.0
 40
0.0
 40
0.0
 40
0.5928291688347104
 40
1.0
 40
1.0
 40
1.0
 40
1.0
 10
18.28061920517429
 20
29.14344268635683
 30
0.0
 10
18.23604355296101
 20
29.22927712752978
 30
0.0
 10
18.31552651528452
 20
29.34850064146643
 30
0.0
 10
18.29741369383499
 20
29.50274888669875
 30
0.0
 10
18.25093555152442
 20
29.53862636728042
 30
0.0
  0
HATCH
  5
BD
330
94
100
AcDbEntity
  8
BLOCKS
 62
    16
100
AcDbHatch
 10
0.0
 20
0.0
 30
0.0
210
0.0
220
0.0
230
1.0
  2
ANSI36
 70
     0
 71
     0
 91
        1
 92
        0
 93
       10
 72
     4
 94
        3
 73
     1
 74
     0
 95
        9
 96
        5
 40
0.0
 40
0.0
 40
0.0
 40
0.0
 40
0.4071708311652896
 40
1.0
 40
1.0
 40
1.0
 40
1.0
 10
18.25093555152442
 20
29.53862636728042
 42
1.0
 10
18.29741369383499
 20
29.50274888669875
 42
1.0
 10
18.31552651528452
 20
29.34850064146643
 42
1.0
 10
18.23604355296101
 20
29.22927712752978
 42
1.0
 10
18.28061920517429
 20
29.14344268635683
 42
1.0
 72
     1
 10
18.28061920517429
 20
29.14344268635683
 11
18.98774696730679
 21
29.14344268635683
 72
     1
 10
18.98774696730679
 20
29.14344268635683
 11
18.98774696730679
 21
29.42380492355081
 72
     1
 10
18.98774696730679
 20
29.42380492355081
 11
19.11428395924128
 21
29.42380492355081
 72
     1
 10
19.11428395924128
 20
29.42380492355081
 11
19.11428395924128
 21
29.14344268635683
 72
     1
 10
19.11428395924128
 20
29.14344268635683
 11
19.30202323130653
 21
29.14344268635683
 72
     1
 10
19.30202323130653
 20
29.14344268635683
 11
19.89405107202551
 21
29.14344268635683
 72
     1
 10
19.89405107202551
 20
29.14344268635683
 11
19.89405107202551
 21
29.47264681447475
 72
     2
 10
19.82807151921984
 20
29.47264681447475
 40
0.0659795528056717
 50
0.0
 51
90.0
 73
     1
 72
     1
 10
19.82807151921984
 20
29.53862636728042
 11
18.25093555152442
 21
29.53862636728042
 97
        0
 75
     0
 76
     1
 52
0.0
 41
0.5
 77
     0
 78
     1
 53
45.0
 43
0.0
 44
0.0
 45
0.0331456303681194
 46
0.1215339780164378
 79
     4
 49
0.15625
 49
-0.03125
 49
0.0
 49
-0.03125
 98
        1
 10
0.0
 20
0.0
  0
HATCH
  5
BE
330
94
100
AcDbEntity
  8
BLOCKS
 62
    16
100
AcDbHatch
 10
0.0
 20
0.0
 30
0.0
210
0.0
220
0.0
230
1.0
  2
ANSI32
 70
     0
 71
     0
 91
        1
 92
        0
 93
        5
 72
     1
 10
19.08641943273533
 20
29.34959245337754
 11
19.04749254074577
 21
29.40478183438993
 72
     1
 10
19.04749254074577
 20
29.40478183438993
 11
19.00952756093279
 21
29.34959245337754
 72
     1
 10
19.00952756093279
 20
29.34959245337754
 11
19.00952756093279
 21
29.14344268635683
 72
     1
 10
19.00952756093279
 20
29.14344268635683
 11
19.08641943273533
 21
29.14344268635683
 72
     1
 10
19.08641943273533
 20
29.14344268635683
 11
19.08641943273533
 21
29.34959245337754
 97
        0
 75
     0
 76
     1
 52
0.0
 41
0.1666666667
 77
     0
 78
     2
 53
45.0
 43
0.0
 44
0.0
 45
-0.0441941738241592
 46
0.0441941738241592
 79
     0
 53
45.0
 43
0.0294627825
 44
0.0
 45
-0.0441941738241592
 46
0.0441941738241592
 79
     0
 98
        1
 10
0.0
 20
0.0
  0
HATCH
  5
BF
330
94
100
AcDbEntity
  8
BLOCKS
 62
    16
100
AcDbHatch
 10
0.0
 20
0.0
 30
0.0
210
0.0
220
0.0
230
1.0
  2
ANSI32
 70
     0
 71
     0
 91
        1
 92
        0
 93
        4
 72
     1
 10
19.08641943273533
 20
29.05410036351303
 11
19.08641943273533
 21
29.14344268635683
 72
     1
 10
19.08641943273533
 20
29.14344268635683
 11
19.00952756093279
 21
29.14344268635683
 72
     1
 10
19.00952756093279
 20
29.14344268635683
 11
19.00952756093279
 21
29.05821855059726
 72
     1
 10
19.00952756093279
 20
29.05821855059726
 11
19.08641943273533
 21
29.05410036351303
 97
        0
 75
     0
 76
     1
 52
0.0
 41
0.1666666667
 77
     0
 78
     2
 53
45.0
 43
0.0
 44
0.0
 45
-0.0441941738241592
 46
0.0441941738241592
 79
     0
 53
45.0
 43
0.0294627825
 44
0.0
 45
-0.0441941738241592
 46
0.0441941738241592
 79
     0
 98
        1
 10
0.0
 20
0.0
  0
HATCH
  5
C0
330
94
100
AcDbEntity
  8
BLOCKS
 62
    16
100
AcDbHatch
 10
0.0
 20
0.0
 30
0.0
210
0.0
220
0.0
230
1.0
  2
ANSI32
 70
     0
 71
     0
 91
        1
 92
        0
 93
        4
 72
     1
 10
19.08641943273533
 20
28.99844251081363
 11
19.08641943273533
 21
29.05410036351303
 72
     1
 10
19.08641943273533
 20
29.05410036351303
 11
19.00952756093279
 21
29.05821855059726
 72
     1
 10
19.00952756093279
 20
29.05821855059726
 11
19.00952756093279
 21
29.00291769059305
 72
     1
 10
19.00952756093279
 20
29.00291769059305
 11
19.08641943273533
 21
28.99844251081363
 97
        0
 75
     0
 76
     1
 52
0.0
 41
0.1666666667
 77
     0
 78
     2
 53
45.0
 43
0.0
 44
0.0
 45
-0.0441941738241592
 46
0.0441941738241592
 79
     0
 53
45.0
 43
0.0294627825
 44
0.0
 45
-0.0441941738241592
 46
0.0441941738241592
 79
     0
 98
        1
 10
0.0
 20
0.0
  0
HATCH
  5
C1
330
94
100
AcDbEntity
  8
BLOCKS
 62
    16
100
AcDbHatch
 10
0.0
 20
0.0
 30
0.0
210
0.0
220
0.0
230
1.0
  2
ANSI32
 70
     0
 71
     0
 91
        1
 92
        0
 93
        4
 72
     1
 10
19.00952756093279
 20
28.96742852935006
 11
19.08641943273534
 21
28.96295334957064
 72
     1
 10
19.08641943273534
 20
28.96295334957064
 11
19.08641943273534
 21
28.99518903540131
 72
     1
 10
19.08641943273534
 20
28.99518903540131
 11
19.0095275609328
 21
28.99966421518074
 72
     1
 10
19.0095275609328
 20
28.99966421518074
 11
19.00952756093279
 21
28.96742852935006
 97
        0
 75
     0
 76
     1
 52
0.0
 41
0.1666666667
 77
     0
 78
     2
 53
45.0
 43
0.0
 44
0.0
 45
-0.0441941738241592
 46
0.0441941738241592
 79
     0
 53
45.0
 43
0.0294627825
 44
0.0
 45
-0.0441941738241592
 46
0.0441941738241592
 79
     0
 98
        1
 10
0.0
 20
0.0
  0
HATCH
  5
C2
330
94
100
AcDbEntity
  8
BLOCKS
 62
    16
100
AcDbHatch
 10
0.0
 20
0.0
 30
0.0
210
0.0
220
0.0
230
1.0
  2
ANSI32
 70
     0
 71
     0
 91
        1
 92
        0
 93
        4
 72
     1
 10
19.0095275609328
 20
28.99966421518074
 11
18.94675248259694
 21
29.00331778420741
 72
     1
 10
18.94675248259694
 20
29.00331778420741
 11
18.94488266885844
 21
28.97119092330762
 72
     1
 10
18.94488266885844
 20
28.97119092330762
 11
19.00952756093279
 21
28.96742852935006
 72
     1
 10
19.00952756093279
 20
28.96742852935006
 11
19.0095275609328
 21
28.99966421518074
 97
        0
 75
     0
 76
     1
 52
0.0
 41
0.1666666667
 77
     0
 78
     2
 53
45.0
 43
0.0
 44
0.0
 45
-0.0441941738241592
 46
0.0441941738241592
 79
     0
 53
45.0
 43
0.0294627825
 44
0.0
 45
-0.0441941738241592
 46
0.0441941738241592
 79
     0
 98
        1
 10
0.0
 20
0.0
  0
HATCH
  5
C3
330
94
100
AcDbEntity
  8
BLOCKS
 62
    16
100
AcDbHatch
 10
0.0
 20
0.0
 30
0.0
210
0.0
220
0.0
230
1.0
  2
ANSI32
 70
     0
 71
     0
 91
        1
 92
        0
 93
        4
 72
     1
 10
19.15729866039344
 20
28.95882811137627
 11
19.15916847413194
 21
28.99095497227606
 72
     1
 10
19.15916847413194
 20
28.99095497227606
 11
19.08641943273534
 21
28.99518903540131
 72
     1
 10
19.08641943273534
 20
28.99518903540131
 11
19.08641943273534
 21
28.96295334957064
 72
     1
 10
19.08641943273534
 20
28.96295334957064
 11
19.15729866039344
 21
28.95882811137627
 97
        0
 75
     0
 76
     1
 52
0.0
 41
0.1666666667
 77
     0
 78
     2
 53
45.0
 43
0.0
 44
0.0
 45
-0.0441941738241592
 46
0.0441941738241592
 79
     0
 53
45.0
 43
0.0294627825
 44
0.0
 45
-0.0441941738241592
 46
0.0441941738241592
 79
     0
 98
        1
 10
0.0
 20
0.0
  0
HATCH
  5
C4
330
94
100
AcDbEntity
  8
BLOCKS
 62
    16
100
AcDbHatch
 10
0.0
 20
0.0
 30
0.0
210
0.0
220
0.0
230
1.0
  2
ANSI32
 70
     0
 71
     0
 91
        1
 92
        0
 93
        4
 72
     1
 10
19.00952756093279
 20
28.95929271682988
 11
18.96475594104669
 21
28.95929271682988
 72
     2
 10
19.04703816761627
 20
28.99084869604216
 40
0.0881257319589163
 50
200.9822712637957
 51
339.0177287362059
 73
     1
 72
     1
 10
19.12932039418586
 20
28.95929271682988
 11
19.08641943273533
 21
28.95929271682988
 72
     1
 10
19.08641943273533
 20
28.95929271682988
 11
19.00952756093279
 21
28.95929271682988
 97
        0
 75
     0
 76
     1
 52
0.0
 41
0.1666666667
 77
     0
 78
     2
 53
45.0
 43
0.0
 44
0.0
 45
-0.0441941738241592
 46
0.0441941738241592
 79
     0
 53
45.0
 43
0.0294627825
 44
0.0
 45
-0.0441941738241592
 46
0.0441941738241592
 79
     0
 98
        1
 10
0.0
 20
0.0
  0
HATCH
  5
C5
330
94
100
AcDbEntity
  8
BLOCKS
 62
    16
100
AcDbHatch
 10
0.0
 20
0.0
 30
0.0
210
0.0
220
0.0
230
1.0
  2
SOLID
 70
     1
 71
     0
 91
        1
 92
        0
 93
        5
 72
     1
 10
19.90680635715495
 20
29.12174152375217
 11
19.89405107202551
 21
29.14344268635683
 72
     1
 10
19.89405107202551
 20
29.14344268635683
 11
19.30202323130653
 21
29.14344268635683
 72
     1
 10
19.30202323130653
 20
29.14344268635683
 11
19.34703094371573
 21
29.09872583179682
 72
     1
 10
19.34703094371573
 20
29.09872583179682
 11
19.34703094371572
 21
29.12174152375217
 72
     1
 10
19.34703094371572
 20
29.12174152375217
 11
19.90680635715495
 21
29.12174152375217
 97
        0
 75
     0
 76
     1
 98
        1
 10
0.0
 20
0.0
  0
INSERT
  5
DC
330
94
100
AcDbEntity
  8
BLOCKS
100
AcDbBlockReference
  2
SW_BLOCK_DIMENSION_1
 10
19.9235496329
 20
29.6493704876
 30
0.0
  0
ENDBLK
  5
96
330
94
100
AcDbEntity
  8
0
100
AcDbBlockEnd
  0
BLOCK
  5
C7
330
C6
100
AcDbEntity
  8
0
100
AcDbBlockBegin
  2
SW_BLOCK_DIMENSION_1
 70
     0
 10
0.0
 20
0.0
 30
0.0
  3
SW_BLOCK_DIMENSION_1
  1

  0
SOLID
  5
C9
330
C6
100
AcDbEntity
  8
BLOCKS
 62
     0
100
AcDbTrace
 10
0.4705014391
 20
-0.0313006311
 30
0.0
 11
0.571616348
 21
-0.0468567709
 31
0.0
 12
0.571616348
 22
-0.0157444913
 32
0.0
 13
0.571616348
 23
-0.0157444913
 33
0.0
  0
SOLID
  5
CA
330
C6
100
AcDbEntity
  8
BLOCKS
 62
     0
100
AcDbTrace
 10
-0.0294985609
 20
-0.0313006311
 30
0.0
 11
-0.1306134698
 21
-0.0157444913
 31
0.0
 12
-0.1306134698
 22
-0.0468567709
 32
0.0
 13
-0.1306134698
 23
-0.0468567709
 33
0.0
  0
LINE
  5
CB
330
C6
100
AcDbEntity
  8
BLOCKS
 62
     0
100
AcDbLine
 10
0.0608603444
 20
0.0798201425
 30
0.0
 11
0.1675347288
 21
0.0798201425
 31
0.0
  0
LINE
  5
CC
330
C6
100
AcDbEntity
  8
BLOCKS
 62
     0
100
AcDbLine
 10
0.079089508
 20
-0.0940224566
 30
0.0
 11
0.0559413594
 21
-0.0940224566
 31
0.0
  0
LINE
  5
CD
330
C6
100
AcDbEntity
  8
BLOCKS
 62
     0
100
AcDbLine
 10
0.0559413594
 20
-0.0940224566
 30
0.0
 11
0.0559413594
 21
-0.249307956
 31
0.0
  0
LINE
  5
CE
330
C6
100
AcDbEntity
  8
BLOCKS
 62
     0
100
AcDbLine
 10
0.0559413594
 20
-0.249307956
 30
0.0
 11
0.079089508
 21
-0.249307956
 31
0.0
  0
LINE
  5
CF
330
C6
100
AcDbEntity
  8
BLOCKS
 62
     0
100
AcDbLine
 10
0.2912808701
 20
-0.0940224566
 30
0.0
 11
0.3144290187
 21
-0.0940224566
 31
0.0
  0
LINE
  5
D0
330
C6
100
AcDbEntity
  8
BLOCKS
 62
     0
100
AcDbLine
 10
0.3144290187
 20
-0.0940224566
 30
0.0
 11
0.3144290187
 21
-0.249307956
 31
0.0
  0
LINE
  5
D1
330
C6
100
AcDbEntity
  8
BLOCKS
 62
     0
100
AcDbLine
 10
0.3144290187
 20
-0.249307956
 30
0.0
 11
0.2912808701
 21
-0.249307956
 31
0.0
  0
LINE
  5
D2
330
C6
100
AcDbEntity
  8
BLOCKS
 62
     0
100
AcDbLine
 10
0.4705014391
 20
-0.711486603
 30
0.0
 11
0.4705014391
 21
0.0936993689
 31
0.0
  0
LINE
  5
D3
330
C6
100
AcDbEntity
  8
BLOCKS
 62
     0
100
AcDbLine
 10
-0.0294985609
 20
-0.1267236731
 30
0.0
 11
-0.0294985609
 21
0.0936993689
 31
0.0
  0
LINE
  5
D4
330
C6
100
AcDbEntity
  8
BLOCKS
 62
     0
100
AcDbLine
 10
0.4705014391
 20
-0.0313006311
 30
0.0
 11
0.6649531869
 21
-0.0313006311
 31
0.0
  0
LINE
  5
D5
330
C6
100
AcDbEntity
  8
BLOCKS
 62
     0
100
AcDbLine
 10
-0.0294985609
 20
-0.0313006311
 30
0.0
 11
-0.2239503087
 21
-0.0313006311
 31
0.0
  0
MTEXT
  5
D6
330
C6
100
AcDbEntity
  8
BLOCKS
 62
     0
100
AcDbMText
 10
0.0390625
 20
0.1342778896
 30
0.0039370079
 40
0.1041666667
 41
0.0
 71
     1
 72
     1
  1

  7
SLDTEXTSTYLE0
 73
     1
 44
1.0
  0
MTEXT
  5
D7
330
C6
100
AcDbEntity
  8
BLOCKS
 62
     0
100
AcDbMText
 10
0.0756172881
 20
0.2052438631
 30
0.0039370079
 40
0.1041666667
 41
0.0
 71
     1
 72
     1
  1
1
  7
SLDTEXTSTYLE0
 73
     1
 44
1.0
  0
MTEXT
  5
D8
330
C6
100
AcDbEntity
  8
BLOCKS
 62
     0
100
AcDbMText
 10
0.0756172881
 20
0.0634035871
 30
0.0039370079
 40
0.1041666667
 41
0.0
 71
     1
 72
     1
  1
2
  7
SLDTEXTSTYLE0
 73
     1
 44
1.0
  0
MTEXT
  5
D9
330
C6
100
AcDbEntity
  8
BLOCKS
 62
     0
100
AcDbMText
 10
0.1822916725
 20
0.1342778896
 30
0.0039370079
 40
0.1041666667
 41
0.0
 71
     1
 72
     1
  1
"
  7
SLDTEXTSTYLE0
 73
     1
 44
1.0
  0
MTEXT
  5
DA
330
C6
100
AcDbEntity
  8
BLOCKS
 62
     0
100
AcDbMText
 10
0.1080246921
 20
-0.1150300596
 30
0.0039370079
 40
0.1041666667
 41
0.0
 71
     1
 72
     1
  1
13
  7
SLDTEXTSTYLE0
 73
     1
 44
1.0
  0
MTEXT
  5
DB
330
C6
100
AcDbEntity
  8
BLOCKS
 62
     0
100
AcDbMText
 10
0.3708526205
 20
0.1342778896
 30
0.0039370079
 40
0.1041666667
 41
0.0
 71
     1
 72
     1
  1

  7
SLDTEXTSTYLE0
 73
     1
 44
1.0
  0
ENDBLK
  5
C8
330
C6
100
AcDbEntity
  8
0
100
AcDbBlockEnd
  0
BLOCK
  5
F6
330
F5
100
AcDbEntity
  8
0
100
AcDbBlockBegin
  2
_D
 70
     0
 10
0.0
 20
0.0
 30
0.0
  3
_D
  1

  0
SOLID
  5
F8
330
F5
100
AcDbEntity
  8
DIMS
100
AcDbTrace
 10
7.7195303103
 20
19.4698289649
 30
0.0
 11
7.663528207
 21
19.105815293
 31
0.0
 12
7.7755324137
 22
19.105815293
 32
0.0
 13
7.7755324137
 23
19.105815293
 33
0.0
  0
SOLID
  5
F9
330
F5
100
AcDbEntity
  8
DIMS
100
AcDbTrace
 10
7.7195303103
 20
2.4698289649
 30
0.0
 11
7.7755324137
 21
2.8338426368
 31
0.0
 12
7.663528207
 22
2.8338426368
 32
0.0
 13
7.663528207
 23
2.8338426368
 33
0.0
  0
LINE
  5
FA
330
F5
100
AcDbEntity
  8
DIMS
100
AcDbLine
 10
7.1986969833
 20
13.6295588529
 30
0.0
 11
7.115363651
 21
13.6295588529
 31
0.0
  0
LINE
  5
FB
330
F5
100
AcDbEntity
  8
DIMS
100
AcDbLine
 10
7.115363651
 20
13.6295588529
 30
0.0
 11
7.115363651
 21
13.0705310842
 31
0.0
  0
LINE
  5
FC
330
F5
100
AcDbEntity
  8
DIMS
100
AcDbLine
 10
7.115363651
 20
13.0705310842
 30
0.0
 11
7.1986969833
 21
13.0705310842
 31
0.0
  0
LINE
  5
FD
330
F5
100
AcDbEntity
  8
DIMS
100
AcDbLine
 10
8.240363674
 20
13.6295588529
 30
0.0
 11
8.3236970064
 21
13.6295588529
 31
0.0
  0
LINE
  5
FE
330
F5
100
AcDbEntity
  8
DIMS
100
AcDbLine
 10
8.3236970064
 20
13.6295588529
 30
0.0
 11
8.3236970064
 21
13.0705310842
 31
0.0
  0
LINE
  5
FF
330
F5
100
AcDbEntity
  8
DIMS
100
AcDbLine
 10
8.3236970064
 20
13.0705310842
 30
0.0
 11
8.240363674
 21
13.0705310842
 31
0.0
  0
LINE
  5
100
330
F5
100
AcDbEntity
  8
DIMS
100
AcDbLine
 10
7.7195303103
 20
19.4698289649
 30
0.0
 11
7.7195303103
 21
14.2128921609
 31
0.0
  0
LINE
  5
101
330
F5
100
AcDbEntity
  8
DIMS
100
AcDbLine
 10
7.7195303103
 20
2.4698289649
 30
0.0
 11
7.7195303103
 21
12.9871977335
 31
0.0
  0
MTEXT
  5
102
330
F5
100
AcDbEntity
  8
DIMS
100
AcDbMText
 10
7.1861969614
 20
14.1962925785
 30
5.1892870079
 40
0.375
 41
0.0
 71
     1
 72
     1
  1
17"
  7
SLDTEXTSTYLE0
 73
     1
 44
1.0
  0
MTEXT
  5
103
330
F5
100
AcDbEntity
  8
DIMS
100
AcDbMText
 10
7.3028636487
 20
13.5539314958
 30
5.1892870079
 40
0.375
 41
0.0
 71
     1
 72
     1
  1
432
  7
SLDTEXTSTYLE0
 73
     1
 44
1.0
  0
ENDBLK
  5
F7
330
F5
100
AcDbEntity
  8
0
100
AcDbBlockEnd
  0
BLOCK
  5
106
330
105
100
AcDbEntity
  8
0
100
AcDbBlockBegin
  2
_D_1
 70
     0
 10
0.0
 20
0.0
 30
0.0
  3
_D_1
  1

  0
SOLID
  5
108
330
105
100
AcDbEntity
  8
DIMS
100
AcDbTrace
 10
9.6750890224
 20
18.8448289649
 30
0.0
 11
9.619086919
 21
18.480815293
 31
0.0
 12
9.7310911258
 22
18.480815293
 32
0.0
 13
9.7310911258
 23
18.480815293
 33
0.0
  0
SOLID
  5
109
330
105
100
AcDbEntity
  8
DIMS
100
AcDbTrace
 10
9.6750890224
 20
3.0948289649
 30
0.0
 11
9.7310911258
 21
3.4588426368
 31
0.0
 12
9.619086919
 22
3.4588426368
 32
0.0
 13
9.619086919
 23
3.4588426368
 33
0.0
  0
LINE
  5
10A
330
105
100
AcDbEntity
  8
DIMS
100
AcDbLine
 10
9.5052974222
 20
12.0993277435
 30
0.0
 11
9.8893252059
 21
12.0993277435
 31
0.0
  0
LINE
  5
10B
330
105
100
AcDbEntity
  8
DIMS
100
AcDbLine
 10
9.1542556954
 20
11.4734944373
 30
0.0
 11
9.070922363
 21
11.4734944373
 31
0.0
  0
LINE
  5
10C
330
105
100
AcDbEntity
  8
DIMS
100
AcDbLine
 10
9.070922363
 20
11.4734944373
 30
0.0
 11
9.070922363
 21
10.9144666686
 31
0.0
  0
LINE
  5
10D
330
105
100
AcDbEntity
  8
DIMS
100
AcDbLine
 10
9.070922363
 20
10.9144666686
 30
0.0
 11
9.1542556954
 21
10.9144666686
 31
0.0
  0
LINE
  5
10E
330
105
100
AcDbEntity
  8
DIMS
100
AcDbLine
 10
10.1959223861
 20
11.4734944373
 30
0.0
 11
10.2792557184
 21
11.4734944373
 31
0.0
  0
LINE
  5
10F
330
105
100
AcDbEntity
  8
DIMS
100
AcDbLine
 10
10.2792557184
 20
11.4734944373
 30
0.0
 11
10.2792557184
 21
10.9144666686
 31
0.0
  0
LINE
  5
110
330
105
100
AcDbEntity
  8
DIMS
100
AcDbLine
 10
10.2792557184
 20
10.9144666686
 30
0.0
 11
10.1959223861
 21
10.9144666686
 31
0.0
  0
LINE
  5
111
330
105
100
AcDbEntity
  8
DIMS
100
AcDbLine
 10
9.6750890224
 20
18.8448289649
 30
0.0
 11
9.6750890224
 21
12.5674527365
 31
0.0
  0
LINE
  5
112
330
105
100
AcDbEntity
  8
DIMS
100
AcDbLine
 10
9.6750890224
 20
3.0948289649
 30
0.0
 11
9.6750890224
 21
10.8311333546
 31
0.0
  0
MTEXT
  5
113
330
105
100
AcDbEntity
  8
DIMS
100
AcDbMText
 10
8.8966168687
 20
12.2953756787
 30
5.1892870079
 40
0.375
 41
0.0
 71
     1
 72
     1
  1
15
  7
SLDTEXTSTYLE0
 73
     1
 44
1.0
  0
MTEXT
  5
114
330
105
100
AcDbEntity
  8
DIMS
100
AcDbMText
 10
9.5584224268
 20
12.5508531541
 30
5.1892870079
 40
0.375
 41
0.0
 71
     1
 72
     1
  1
3
  7
SLDTEXTSTYLE0
 73
     1
 44
1.0
  0
MTEXT
  5
115
330
105
100
AcDbEntity
  8
DIMS
100
AcDbMText
 10
9.5584224268
 20
12.0402281595
 30
5.1892870079
 40
0.375
 41
0.0
 71
     1
 72
     1
  1
4
  7
SLDTEXTSTYLE0
 73
     1
 44
1.0
  0
MTEXT
  5
116
330
105
100
AcDbEntity
  8
DIMS
100
AcDbMText
 10
9.9424501738
 20
12.2953756787
 30
5.1892870079
 40
0.375
 41
0.0
 71
     1
 72
     1
  1
"
  7
SLDTEXTSTYLE0
 73
     1
 44
1.0
  0
MTEXT
  5
117
330
105
100
AcDbEntity
  8
DIMS
100
AcDbMText
 10
9.2584223608
 20
11.3978670802
 30
5.1892870079
 40
0.375
 41
0.0
 71
     1
 72
     1
  1
400
  7
SLDTEXTSTYLE0
 73
     1
 44
1.0
  0
ENDBLK
  5
107
330
105
100
AcDbEntity
  8
0
100
AcDbBlockEnd
  0
BLOCK
  5
11A
330
119
100
AcDbEntity
  8
0
100
AcDbBlockBegin
  2
_D_2
 70
     0
 10
0.0
 20
0.0
 30
0.0
  3
_D_2
  1

  0
SOLID
  5
11C
330
119
100
AcDbEntity
  8
DIMS
100
AcDbTrace
 10
3.3491280753
 20
8.1431393254
 30
0.0
 11
3.7131417472
 21
8.087137222
 31
0.0
 12
3.7131417472
 22
8.1991414288
 32
0.0
 13
3.7131417472
 23
8.1991414288
 33
0.0
  0
SOLID
  5
11D
330
119
100
AcDbEntity
  8
DIMS
100
AcDbTrace
 10
36.3491280753
 20
8.1431393254
 30
0.0
 11
35.9851144035
 21
8.1991414288
 31
0.0
 12
35.9851144035
 22
8.087137222
 32
0.0
 13
35.9851144035
 23
8.087137222
 33
0.0
  0
LINE
  5
11E
330
119
100
AcDbEntity
  8
DIMS
100
AcDbLine
 10
18.4977641968
 20
8.1726532311
 30
0.0
 11
18.4144308645
 21
8.1726532311
 31
0.0
  0
LINE
  5
11F
330
119
100
AcDbEntity
  8
DIMS
100
AcDbLine
 10
18.4144308645
 20
8.1726532311
 30
0.0
 11
18.4144308645
 21
7.6136254624
 31
0.0
  0
LINE
  5
120
330
119
100
AcDbEntity
  8
DIMS
100
AcDbLine
 10
18.4144308645
 20
7.6136254624
 30
0.0
 11
18.4977641968
 21
7.6136254624
 31
0.0
  0
LINE
  5
121
330
119
100
AcDbEntity
  8
DIMS
100
AcDbLine
 10
19.5394308875
 20
8.1726532311
 30
0.0
 11
19.6227642199
 21
8.1726532311
 31
0.0
  0
LINE
  5
122
330
119
100
AcDbEntity
  8
DIMS
100
AcDbLine
 10
19.6227642199
 20
8.1726532311
 30
0.0
 11
19.6227642199
 21
7.6136254624
 31
0.0
  0
LINE
  5
123
330
119
100
AcDbEntity
  8
DIMS
100
AcDbLine
 10
19.6227642199
 20
7.6136254624
 30
0.0
 11
19.5394308875
 21
7.6136254624
 31
0.0
  0
LINE
  5
124
330
119
100
AcDbEntity
  8
DIMS
100
AcDbLine
 10
3.3491280753
 20
8.1431393254
 30
0.0
 11
18.2686055502
 21
8.1431393254
 31
0.0
  0
LINE
  5
125
330
119
100
AcDbEntity
  8
DIMS
100
AcDbLine
 10
36.3491280753
 20
8.1431393254
 30
0.0
 11
19.7685894975
 21
8.1431393254
 31
0.0
  0
MTEXT
  5
126
330
119
100
AcDbEntity
  8
DIMS
100
AcDbMText
 10
18.485264175
 20
8.7393869567
 30
5.1892870079
 40
0.375
 41
0.0
 71
     1
 72
     1
  1
33"
  7
SLDTEXTSTYLE0
 73
     1
 44
1.0
  0
MTEXT
  5
127
330
119
100
AcDbEntity
  8
DIMS
100
AcDbMText
 10
18.6019308622
 20
8.097025874
 30
5.1892870079
 40
0.375
 41
0.0
 71
     1
 72
     1
  1
838
  7
SLDTEXTSTYLE0
 73
     1
 44
1.0
  0
ENDBLK
  5
11B
330
119
100
AcDbEntity
  8
0
100
AcDbBlockEnd
  0
BLOCK
  5
12A
330
129
100
AcDbEntity
  8
0
100
AcDbBlockBegin
  2
_D_3
 70
     0
 10
0.0
 20
0.0
 30
0.0
  3
_D_3
  1

  0
SOLID
  5
12C
330
129
100
AcDbEntity
  8
DIMS
100
AcDbTrace
 10
36.9741280753
 20
6.9890020785
 30
0.0
 11
36.6101144035
 21
7.0450041818
 31
0.0
 12
36.6101144035
 22
6.9329999751
 32
0.0
 13
36.6101144035
 23
6.9329999751
 33
0.0
  0
SOLID
  5
12D
330
129
100
AcDbEntity
  8
DIMS
100
AcDbTrace
 10
2.7241280753
 20
6.9890020785
 30
0.0
 11
3.0881417472
 21
6.9329999751
 31
0.0
 12
3.0881417472
 22
7.0450041818
 32
0.0
 13
3.0881417472
 23
7.0450041818
 33
0.0
  0
LINE
  5
12E
330
129
100
AcDbEntity
  8
DIMS
100
AcDbLine
 10
13.2351981977
 20
7.3890367764
 30
0.0
 11
13.6192259814
 21
7.3890367764
 31
0.0
  0
LINE
  5
12F
330
129
100
AcDbEntity
  8
DIMS
100
AcDbLine
 10
12.8841564709
 20
6.7632034703
 30
0.0
 11
12.8008231386
 21
6.7632034703
 31
0.0
  0
LINE
  5
130
330
129
100
AcDbEntity
  8
DIMS
100
AcDbLine
 10
12.8008231386
 20
6.7632034703
 30
0.0
 11
12.8008231386
 21
6.2041757015
 31
0.0
  0
LINE
  5
131
330
129
100
AcDbEntity
  8
DIMS
100
AcDbLine
 10
12.8008231386
 20
6.2041757015
 30
0.0
 11
12.8841564709
 21
6.2041757015
 31
0.0
  0
LINE
  5
132
330
129
100
AcDbEntity
  8
DIMS
100
AcDbLine
 10
13.9258231617
 20
6.7632034703
 30
0.0
 11
14.009156494
 21
6.7632034703
 31
0.0
  0
LINE
  5
133
330
129
100
AcDbEntity
  8
DIMS
100
AcDbLine
 10
14.009156494
 20
6.7632034703
 30
0.0
 11
14.009156494
 21
6.2041757015
 31
0.0
  0
LINE
  5
134
330
129
100
AcDbEntity
  8
DIMS
100
AcDbLine
 10
14.009156494
 20
6.2041757015
 30
0.0
 11
13.9258231617
 21
6.2041757015
 31
0.0
  0
LINE
  5
135
330
129
100
AcDbEntity
  8
DIMS
100
AcDbLine
 10
36.9741280753
 20
6.9890020785
 30
0.0
 11
14.2667872666
 21
6.9890020785
 31
0.0
  0
LINE
  5
136
330
129
100
AcDbEntity
  8
DIMS
100
AcDbLine
 10
2.7241280753
 20
6.9890020785
 30
0.0
 11
12.5431923293
 21
6.9890020785
 31
0.0
  0
MTEXT
  5
137
330
129
100
AcDbEntity
  8
DIMS
100
AcDbMText
 10
12.6265176443
 20
7.5850847117
 30
5.1892870079
 40
0.375
 41
0.0
 71
     1
 72
     1
  1
34
  7
SLDTEXTSTYLE0
 73
     1
 44
1.0
  0
MTEXT
  5
138
330
129
100
AcDbEntity
  8
DIMS
100
AcDbMText
 10
13.2883232024
 20
7.840562187
 30
5.1892870079
 40
0.375
 41
0.0
 71
     1
 72
     1
  1
1
  7
SLDTEXTSTYLE0
 73
     1
 44
1.0
  0
MTEXT
  5
139
330
129
100
AcDbEntity
  8
DIMS
100
AcDbMText
 10
13.2883232024
 20
7.3299371924
 30
5.1892870079
 40
0.375
 41
0.0
 71
     1
 72
     1
  1
4
  7
SLDTEXTSTYLE0
 73
     1
 44
1.0
  0
MTEXT
  5
13A
330
129
100
AcDbEntity
  8
DIMS
100
AcDbMText
 10
13.6723509494
 20
7.5850847117
 30
5.1892870079
 40
0.375
 41
0.0
 71
     1
 72
     1
  1
"
  7
SLDTEXTSTYLE0
 73
     1
 44
1.0
  0
MTEXT
  5
13B
330
129
100
AcDbEntity
  8
DIMS
100
AcDbMText
 10
12.9883231363
 20
6.6875761131
 30
5.1892870079
 40
0.375
 41
0.0
 71
     1
 72
     1
  1
870
  7
SLDTEXTSTYLE0
 73
     1
 44
1.0
  0
ENDBLK
  5
12B
330
129
100
AcDbEntity
  8
0
100
AcDbBlockEnd
  0
BLOCK
  5
13F
330
13E
100
AcDbEntity
  8
0
100
AcDbBlockBegin
  2
_D_4
 70
     0
 10
0.0
 20
0.0
 30
0.0
  3
_D_4
  1

  0
ARC
  5
141
330
13E
100
AcDbEntity
  8
DIMS
100
AcDbCircle
 10
4.9741280753
 20
17.2198289649
 30
0.0
 40
2.249999999999998
100
AcDbArc
 50
61.7176996637
 51
88.7269699799
  0
SOLID
  5
142
330
13E
100
AcDbEntity
  8
DIMS
100
AcDbTrace
 10
5.9286646205
 20
19.2573176112
 30
0.0
 11
5.723523286
 21
18.9514430915
 31
0.0
 12
5.8249487525
 22
18.9039265989
 32
0.0
 13
5.8249487525
 23
18.9039265989
 33
0.0
  0
LINE
  5
143
330
13E
100
AcDbEntity
  8
DIMS
100
AcDbLine
 10
5.856626769
 20
17.4024771699
 30
0.0
 11
6.2406545527
 21
17.4024771699
 31
0.0
  0
LINE
  5
144
330
13E
100
AcDbEntity
  8
DIMS
100
AcDbLine
 10
5.6028073457
 20
16.7766438637
 30
0.0
 11
5.5194740134
 21
16.7766438637
 31
0.0
  0
LINE
  5
145
330
13E
100
AcDbEntity
  8
DIMS
100
AcDbLine
 10
5.5194740134
 20
16.7766438637
 30
0.0
 11
5.5194740134
 21
16.217616095
 31
0.0
  0
LINE
  5
146
330
13E
100
AcDbEntity
  8
DIMS
100
AcDbLine
 10
5.5194740134
 20
16.217616095
 30
0.0
 11
5.6028073457
 21
16.217616095
 31
0.0
  0
LINE
  5
147
330
13E
100
AcDbEntity
  8
DIMS
100
AcDbLine
 10
6.3666962254
 20
16.7766438637
 30
0.0
 11
6.4500295577
 21
16.7766438637
 31
0.0
  0
LINE
  5
148
330
13E
100
AcDbEntity
  8
DIMS
100
AcDbLine
 10
6.4500295577
 20
16.7766438637
 30
0.0
 11
6.4500295577
 21
16.217616095
 31
0.0
  0
LINE
  5
149
330
13E
100
AcDbEntity
  8
DIMS
100
AcDbLine
 10
6.4500295577
 20
16.217616095
 30
0.0
 11
6.3666962254
 21
16.217616095
 31
0.0
  0
LINE
  5
14A
330
13E
100
AcDbEntity
  8
DIMS
100
AcDbLine
 10
5.9286646205
 20
19.2573176112
 30
0.0
 11
4.9146128648
 21
17.0927918532
 31
0.0
  0
LINE
  5
14B
330
13E
100
AcDbEntity
  8
DIMS
100
AcDbLine
 10
4.9146128648
 20
17.0927918532
 30
0.0
 11
5.1646128648
 21
17.0927918532
 31
0.0
  0
MTEXT
  5
14C
330
13E
100
AcDbEntity
  8
DIMS
100
AcDbMText
 10
5.1646128648
 20
17.5985251051
 30
5.1892870079
 40
0.375
 41
0.0
 71
     1
 72
     1
  1
R2
  7
SLDTEXTSTYLE0
 73
     1
 44
1.0
  0
MTEXT
  5
14D
330
13E
100
AcDbEntity
  8
DIMS
100
AcDbMText
 10
5.9097517736
 20
17.8540025805
 30
5.1892870079
 40
0.375
 41
0.0
 71
     1
 72
     1
  1
1
  7
SLDTEXTSTYLE0
 73
     1
 44
1.0
  0
MTEXT
  5
14E
330
13E
100
AcDbEntity
  8
DIMS
100
AcDbMText
 10
5.9097517736
 20
17.3433775858
 30
5.1892870079
 40
0.375
 41
0.0
 71
     1
 72
     1
  1
4
  7
SLDTEXTSTYLE0
 73
     1
 44
1.0
  0
MTEXT
  5
14F
330
13E
100
AcDbEntity
  8
DIMS
100
AcDbMText
 10
6.2937795939
 20
17.5985251051
 30
5.1892870079
 40
0.375
 41
0.0
 71
     1
 72
     1
  1
"
  7
SLDTEXTSTYLE0
 73
     1
 44
1.0
  0
MTEXT
  5
150
330
13E
100
AcDbEntity
  8
DIMS
100
AcDbMText
 10
5.7069740111
 20
16.7010165065
 30
5.1892870079
 40
0.375
 41
0.0
 71
     1
 72
     1
  1
57
  7
SLDTEXTSTYLE0
 73
     1
 44
1.0
  0
ENDBLK
  5
140
330
13E
100
AcDbEntity
  8
0
100
AcDbBlockEnd
  0
BLOCK
  5
153
330
152
100
AcDbEntity
  8
0
100
AcDbBlockBegin
  2
_D_5
 70
     0
 10
0.0
 20
0.0
 30
0.0
  3
_D_5
  1

  0
SOLID
  5
155
330
152
100
AcDbEntity
  8
DIMS
100
AcDbTrace
 10
35.7803605111
 20
3.4849208542
 30
0.0
 11
35.5863139907
 21
3.7979514228
 31
0.0
 12
35.5011971271
 22
3.725149899
 32
0.0
 13
35.5011971271
 23
3.725149899
 33
0.0
  0
LINE
  5
156
330
152
100
AcDbEntity
  8
DIMS
100
AcDbLine
 10
32.5406221204
 20
6.1814229638
 30
0.0
 11
32.9246499041
 21
6.1814229638
 31
0.0
  0
LINE
  5
157
330
152
100
AcDbEntity
  8
DIMS
100
AcDbLine
 10
32.2868026972
 20
5.5555896577
 30
0.0
 11
32.2034693649
 21
5.5555896577
 31
0.0
  0
LINE
  5
158
330
152
100
AcDbEntity
  8
DIMS
100
AcDbLine
 10
32.2034693649
 20
5.5555896577
 30
0.0
 11
32.2034693649
 21
4.996561889
 31
0.0
  0
LINE
  5
159
330
152
100
AcDbEntity
  8
DIMS
100
AcDbLine
 10
32.2034693649
 20
4.996561889
 30
0.0
 11
32.2868026972
 21
4.996561889
 31
0.0
  0
LINE
  5
15A
330
152
100
AcDbEntity
  8
DIMS
100
AcDbLine
 10
33.0506915768
 20
5.5555896577
 30
0.0
 11
33.1340249092
 21
5.5555896577
 31
0.0
  0
LINE
  5
15B
330
152
100
AcDbEntity
  8
DIMS
100
AcDbLine
 10
33.1340249092
 20
5.5555896577
 30
0.0
 11
33.1340249092
 21
4.996561889
 31
0.0
  0
LINE
  5
15C
330
152
100
AcDbEntity
  8
DIMS
100
AcDbLine
 10
33.1340249092
 20
4.996561889
 30
0.0
 11
33.0506915768
 21
4.996561889
 31
0.0
  0
LINE
  5
15D
330
152
100
AcDbEntity
  8
DIMS
100
AcDbLine
 10
35.7803605111
 20
3.4849208542
 30
0.0
 11
33.7388860944
 21
5.8717376472
 31
0.0
  0
MTEXT
  5
15E
330
152
100
AcDbEntity
  8
DIMS
100
AcDbMText
 10
31.8486082163
 20
6.3774708991
 30
5.1892870079
 40
0.375
 41
0.0
 71
     1
 72
     1
  1
R1
  7
SLDTEXTSTYLE0
 73
     1
 44
1.0
  0
MTEXT
  5
15F
330
152
100
AcDbEntity
  8
DIMS
100
AcDbMText
 10
32.5937471251
 20
6.6329483745
 30
5.1892870079
 40
0.375
 41
0.0
 71
     1
 72
     1
  1
5
  7
SLDTEXTSTYLE0
 73
     1
 44
1.0
  0
MTEXT
  5
160
330
152
100
AcDbEntity
  8
DIMS
100
AcDbMText
 10
32.5937471251
 20
6.1223233798
 30
5.1892870079
 40
0.375
 41
0.0
 71
     1
 72
     1
  1
8
  7
SLDTEXTSTYLE0
 73
     1
 44
1.0
  0
MTEXT
  5
161
330
152
100
AcDbEntity
  8
DIMS
100
AcDbMText
 10
32.9777749454
 20
6.3774708991
 30
5.1892870079
 40
0.375
 41
0.0
 71
     1
 72
     1
  1
"
  7
SLDTEXTSTYLE0
 73
     1
 44
1.0
  0
MTEXT
  5
162
330
152
100
AcDbEntity
  8
DIMS
100
AcDbMText
 10
32.3909693626
 20
5.4799623005
 30
5.1892870079
 40
0.375
 41
0.0
 71
     1
 72
     1
  1
41
  7
SLDTEXTSTYLE0
 73
     1
 44
1.0
  0
ENDBLK
  5
154
330
152
100
AcDbEntity
  8
0
100
AcDbBlockEnd
  0
BLOCK
  5
164
330
163
100
AcDbEntity
  8
0
100
AcDbBlockBegin
  2
SW_NOTE_0
 70
     0
 10
0.0
 20
0.0
 30
0.0
  3
SW_NOTE_0
  1

  0
MTEXT
  5
166
330
163
100
AcDbEntity
  8
NOTES
 62
     0
100
AcDbMText
 10
5.146484375
 20
0.8056673374
 30
0.0
 40
0.625
 41
0.0
 71
     2
 72
     1
  1
TEMPLATE #: 1000001293
  7
SLDTEXTSTYLE0
 73
     1
 44
1.0
  0
MTEXT
  5
167
330
163
100
AcDbEntity
  8
NOTES
 62
     0
100
AcDbMText
 10
5.1445313561
 20
-0.013833048
 30
0.0
 40
0.3125
 41
0.0
 71
     2
 72
     1
  1
DUAL UNDERMOUNT TEMPLATE 36" X 17" W/1-3/4" RADIUS
  7
SLDTEXTSTYLE0
 73
     1
 44
1.0
  0
ENDBLK
  5
165
330
163
100
AcDbEntity
  8
0
100
AcDbBlockEnd
  0
BLOCK
  5
16A
330
169
100
AcDbEntity
  8
0
100
AcDbBlockBegin
  2
SW_NOTE_1
 70
     0
 10
0.0
 20
0.0
 30
0.0
  3
SW_NOTE_1
  1

  0
MTEXT
  5
16C
330
169
100
AcDbEntity
  8
NOTES
 62
     0
100
AcDbMText
 10
0.0
 20
0.2685557791
 30
0.0
 40
0.2083333333
 41
0.0
 71
     1
 72
     1
  1
NOTES:
  7
SLDTEXTSTYLE0
 73
     1
 44
1.0
  0
MTEXT
  5
16D
330
169
100
AcDbEntity
  8
NOTES
 62
     0
100
AcDbMText
 10
0.3937007786
 20
-0.2869997697
 30
0.0
 40
0.2083333333
 41
0.0
 71
     1
 72
     1
  1
THOROUGHLY READ ALL  INSTALLATION INSTRUCTIONS
  7
SLDTEXTSTYLE0
 73
     1
 44
1.0
  0
MTEXT
  5
16E
330
169
100
AcDbEntity
  8
NOTES
 62
     0
100
AcDbMText
 10
0.0
 20
-0.2869997697
 30
0.0
 40
0.2083333333
 41
0.0
 71
     1
 72
     1
  1
1.
  7
SLDTEXTSTYLE0
 73
     1
 44
1.0
  0
MTEXT
  5
16F
330
169
100
AcDbEntity
  8
NOTES
 62
     0
100
AcDbMText
 10
0.0
 20
-0.5647775441
 30
0.0
 40
0.2083333333
 41
0.0
 71
     1
 72
     1
  1
BEFORE CUTTING COUNTERTOP.
  7
SLDTEXTSTYLE0
 73
     1
 44
1.0
  0
MTEXT
  5
170
330
169
100
AcDbEntity
  8
NOTES
 62
     0
100
AcDbMText
 10
0.0
 20
-1.120333093
 30
0.0
 40
0.2083333333
 41
0.0
 71
     1
 72
     1
  1
2.  DIMENSIONS ARE IN INCHES [MM].
  7
SLDTEXTSTYLE0
 73
     1
 44
1.0
  0
MTEXT
  5
171
330
169
100
AcDbEntity
  8
NOTES
 62
     0
100
AcDbMText
 10
0.0
 20
-1.9536664162
 30
0.0
 40
0.2083333333
 41
0.0
 71
     1
 72
     1
  1
PLEASE CHECK TEMPLATE AGAINST PHYSICAL SINK FOR MOST ACCURATE CUT.
  7
SLDTEXTSTYLE0
 73
     1
 44
1.0
  0
MTEXT
  5
172
330
169
100
AcDbEntity
  8
NOTES
 62
     0
100
AcDbMText
 10
0.0
 20
-3.0647775139
 30
0.0
 40
0.2083333333
 41
0.0
 71
     1
 72
     1
  1
NOTAS:
  7
SLDTEXTSTYLE0
 73
     1
 44
1.0
  0
MTEXT
  5
173
330
169
100
AcDbEntity
  8
NOTES
 62
     0
100
AcDbMText
 10
0.0
 20
-3.6203330628
 30
0.0
 40
0.2083333333
 41
0.0
 71
     1
 72
     1
  1
1.  LEA ATENTAMENTE LAS INSTRUCCIONES DE INSTALACIÓN ANTES DE CORTAR LA
  7
SLDTEXTSTYLE0
 73
     1
 44
1.0
  0
MTEXT
  5
174
330
169
100
AcDbEntity
  8
NOTES
 62
     0
100
AcDbMText
 10
0.0
 20
-3.8981108372
 30
0.0
 40
0.2083333333
 41
0.0
 71
     1
 72
     1
  1
ENCIMERA.
  7
SLDTEXTSTYLE0
 73
     1
 44
1.0
  0
MTEXT
  5
175
330
169
100
AcDbEntity
  8
NOTES
 62
     0
100
AcDbMText
 10
0.0
 20
-4.453666386
 30
0.0
 40
0.2083333333
 41
0.0
 71
     1
 72
     1
  1
2.  DIMENSIONES EN PULGADAS [MM].
  7
SLDTEXTSTYLE0
 73
     1
 44
1.0
  0
MTEXT
  5
176
330
169
100
AcDbEntity
  8
NOTES
 62
     0
100
AcDbMText
 10
0.0
 20
-5.2869997093
 30
0.0
 40
0.2083333333
 41
0.0
 71
     1
 72
     1
  1
POR FAVOR COMPRUEBE PLANTILLA CONTRA FREGADERO FÍSICO PARA CORTE MÁS
  7
SLDTEXTSTYLE0
 73
     1
 44
1.0
  0
MTEXT
  5
177
330
169
100
AcDbEntity
  8
NOTES
 62
     0
100
AcDbMText
 10
0.0
 20
-5.5647774837
 30
0.0
 40
0.2083333333
 41
0.0
 71
     1
 72
     1
  1
EXACTO.
  7
SLDTEXTSTYLE0
 73
     1
 44
1.0
  0
ENDBLK
  5
16B
330
169
100
AcDbEntity
  8
0
100
AcDbBlockEnd
  0
BLOCK
  5
17A
330
179
100
AcDbEntity
  8
0
100
AcDbBlockBegin
  2
SW_NOTE_2
 70
     0
 10
0.0
 20
0.0
 30
0.0
  3
SW_NOTE_2
  1

  0
MTEXT
  5
17C
330
179
100
AcDbEntity
  8
NOTES
 62
     0
100
AcDbMText
 10
0.003755146
 20
0.2725214803
 30
0.0
 40
0.2083333333
 41
0.0
 71
     3
 72
     1
  1
1/2" REVEAL
  7
SLDTEXTSTYLE0
 73
     1
 44
1.0
  0
MTEXT
  5
17D
330
179
100
AcDbEntity
  8
NOTES
 62
     0
100
AcDbMText
 10
0.0087224806
 20
-0.0052562942
 30
0.0
 40
0.2083333333
 41
0.0
 71
     3
 72
     1
  1
[12.7 REVELADO]
  7
SLDTEXTSTYLE0
 73
     1
 44
1.0
  0
ENDBLK
  5
17B
330
179
100
AcDbEntity
  8
0
100
AcDbBlockEnd
  0
BLOCK
  5
182
330
181
100
AcDbEntity
  8
0
100
AcDbBlockBegin
  2
SW_NOTE_3
 70
     0
 10
0.0
 20
0.0
 30
0.0
  3
SW_NOTE_3
  1

  0
MTEXT
  5
184
330
181
100
AcDbEntity
  8
NOTES
 62
     0
100
AcDbMText
 10
-0.8898386851
 20
0.6888142969
 30
0.0
 40
0.2083333333
 41
0.0
 71
     2
 72
     1
  1
TEMPLATE
  7
SLDTEXTSTYLE0
 73
     1
 44
1.0
  0
MTEXT
  5
185
330
181
100
AcDbEntity
  8
NOTES
 62
     0
100
AcDbMText
 10
-0.8867040148
 20
0.4110365224
 30
0.0
 40
0.2083333333
 41
0.0
 71
     2
 72
     1
  1
CENTERLINE
  7
SLDTEXTSTYLE0
 73
     1
 44
1.0
  0
MTEXT
  5
186
330
181
100
AcDbEntity
  8
NOTES
 62
     0
100
AcDbMText
 10
-0.8865834767
 20
-0.1445190264
 30
0.0
 40
0.2083333333
 41
0.0
 71
     2
 72
     1
  1
PLANTILLA
  7
SLDTEXTSTYLE0
 73
     1
 44
1.0
  0
MTEXT
  5
187
330
181
100
AcDbEntity
  8
NOTES
 62
     0
100
AcDbMText
 10
-0.8895975422
 20
-0.4222968008
 30
0.0
 40
0.2083333333
 41
0.0
 71
     2
 72
     1
  1
CENTRAL
  7
SLDTEXTSTYLE0
 73
     1
 44
1.0
  0
ENDBLK
  5
183
330
181
100
AcDbEntity
  8
0
100
AcDbBlockEnd
  0
BLOCK
  5
18C
330
18B
100
AcDbEntity
  8
0
100
AcDbBlockBegin
  2
SW_NOTE_4
 70
     0
 10
0.0
 20
0.0
 30
0.0
  3
SW_NOTE_4
  1

  0
MTEXT
  5
18E
330
18B
100
AcDbEntity
  8
NOTES
 62
     0
100
AcDbMText
 10
0.0197894771
 20
0.1010763209
 30
0.0
 40
0.2083333333
 41
0.0
 71
     1
 72
     1
  1
1/8" OVERHANG
  7
SLDTEXTSTYLE0
 73
     1
 44
1.0
  0
MTEXT
  5
18F
330
18B
100
AcDbEntity
  8
NOTES
 62
     0
100
AcDbMText
 10
0.0197894771
 20
-0.1767014535
 30
0.0
 40
0.2083333333
 41
0.0
 71
     1
 72
     1
  1
[3.2 SOBRESALIENTE]
  7
SLDTEXTSTYLE0
 73
     1
 44
1.0
  0
ENDBLK
  5
18D
330
18B
100
AcDbEntity
  8
0
100
AcDbBlockEnd
  0
ENDSEC
  0
SECTION
  2
ENTITIES
  0
ARC
  5
DD
330
1F
100
AcDbEntity
  8
0
  6
Continuous
 62
     7
100
AcDbCircle
 10
4.9741280753
 20
4.7198289649
 30
0.0
 40
2.25
100
AcDbArc
 50
180.0
 51
270.0
  0
ARC
  5
DE
330
1F
100
AcDbEntity
  8
0
  6
Continuous
 62
     7
100
AcDbCircle
 10
4.9741280753
 20
17.2198289649
 30
0.0
 40
2.25
100
AcDbArc
 50
90.0
 51
180.0
  0
ARC
  5
DF
330
1F
100
AcDbEntity
  8
0
  6
Continuous
 62
     7
100
AcDbCircle
 10
34.7241280753
 20
17.2198289649
 30
0.0
 40
2.25
100
AcDbArc
 50
0.0
 51
90.0
  0
ARC
  5
E0
330
1F
100
AcDbEntity
  8
0
  6
Continuous
 62
     7
100
AcDbCircle
 10
34.7241280753
 20
4.7198289649
 30
0.0
 40
2.25
100
AcDbArc
 50
270.0
 51
0.0
  0
ARC
  5
E1
330
1F
100
AcDbEntity
  8
0
  6
CENTERX2
 62
     7
100
AcDbCircle
 10
4.9741280753
 20
4.7198289649
 30
0.0
 40
1.625
100
AcDbArc
 50
180.0
 51
270.0
  0
ARC
  5
E2
330
1F
100
AcDbEntity
  8
0
  6
CENTERX2
 62
     7
100
AcDbCircle
 10
4.9741280753
 20
17.2198289649
 30
0.0
 40
1.625
100
AcDbArc
 50
90.0
 51
180.0
  0
ARC
  5
E3
330
1F
100
AcDbEntity
  8
0
  6
CENTERX2
 62
     7
100
AcDbCircle
 10
34.7241280753
 20
17.2198289649
 30
0.0
 40
1.624999999999996
100
AcDbArc
 50
0.0
 51
90.0
  0
ARC
  5
E4
330
1F
100
AcDbEntity
  8
0
  6
CENTERX2
 62
     7
100
AcDbCircle
 10
34.7241280753
 20
4.7198289649
 30
0.0
 40
1.624999999999998
100
AcDbArc
 50
270.0
 51
0.0
  0
LINE
  5
E5
330
1F
100
AcDbEntity
  8
0
  6
Continuous
 62
     7
100
AcDbLine
 10
2.7241280753
 20
17.2198289649
 30
0.0
 11
2.7241280753
 21
4.7198289649
 31
0.0
  0
LINE
  5
E6
330
1F
100
AcDbEntity
  8
0
  6
Continuous
 62
     7
100
AcDbLine
 10
34.7241280753
 20
19.4698289649
 30
0.0
 11
4.9741280753
 21
19.4698289649
 31
0.0
  0
LINE
  5
E7
330
1F
100
AcDbEntity
  8
0
  6
Continuous
 62
     7
100
AcDbLine
 10
36.9741280753
 20
4.7198289649
 30
0.0
 11
36.9741280753
 21
17.2198289649
 31
0.0
  0
LINE
  5
E8
330
1F
100
AcDbEntity
  8
0
  6
Continuous
 62
     7
100
AcDbLine
 10
4.9741280753
 20
2.4698289649
 30
0.0
 11
34.7241280753
 21
2.4698289649
 31
0.0
  0
LINE
  5
E9
330
1F
100
AcDbEntity
  8
0
  6
CENTERX2
 62
     7
100
AcDbLine
 10
3.3491280753
 20
17.2198289649
 30
0.0
 11
3.3491280753
 21
4.7198289649
 31
0.0
  0
LINE
  5
EA
330
1F
100
AcDbEntity
  8
0
  6
CENTERX2
 62
     7
100
AcDbLine
 10
34.7241280753
 20
18.8448289649
 30
0.0
 11
4.9741280753
 21
18.8448289649
 31
0.0
  0
LINE
  5
EB
330
1F
100
AcDbEntity
  8
0
  6
CENTERX2
 62
     7
100
AcDbLine
 10
36.3491280753
 20
4.7198289649
 30
0.0
 11
36.3491280753
 21
17.2198289649
 31
0.0
  0
LINE
  5
EC
330
1F
100
AcDbEntity
  8
0
  6
CENTERX2
 62
     7
100
AcDbLine
 10
4.9741280753
 20
3.0948289649
 30
0.0
 11
34.7241280753
 21
3.0948289649
 31
0.0
  0
LINE
  5
ED
330
1F
100
AcDbEntity
  8
OBJECTS
  6
CENTERX2
100
AcDbLine
 10
19.8491280753
 20
19.4698289649
 30
0.0
 11
19.8491280753
 21
17.447505051
 31
0.0
  0
LINE
  5
EE
330
1F
100
AcDbEntity
  8
OBJECTS
  6
CENTERX2
100
AcDbLine
 10
19.8491280753
 20
2.4698289649
 30
0.0
 11
19.8491280753
 21
4.4921528788
 31
0.0
  0
LINE
  5
EF
330
1F
100
AcDbEntity
  8
OBJECTS
  6
CENTERX2
100
AcDbLine
 10
36.9741280753
 20
10.9698289649
 30
0.0
 11
34.9741280753
 21
10.9698289649
 31
0.0
  0
LINE
  5
F0
330
1F
100
AcDbEntity
  8
OBJECTS
  6
CENTERX2
100
AcDbLine
 10
2.7241280753
 20
10.9698289649
 30
0.0
 11
4.7241280753
 21
10.9698289649
 31
0.0
  0
INSERT
  5
F1
330
1F
100
AcDbEntity
  8
BLOCKS
100
AcDbBlockReference
  2
REVEAL- .500
 10
-10.9266121958
 20
-18.4582334441
 30
0.0
 41
1.2
 42
1.2
 43
1.2
  0
INSERT
  5
F2
330
1F
100
AcDbEntity
  8
BLOCKS
100
AcDbBlockReference
  2
OVERHANG - .125
 10
4.5495355087
 20
-27.6147903979
 30
0.0
 41
1.2
 42
1.2
 43
1.2
  0
DIMENSION
  5
F3
330
1F
100
AcDbEntity
  8
DIMS
100
AcDbDimension
  2
_D
 10
7.7195303103
 20
2.4698289649
 30
0.0
 11
7.7195303103
 21
13.6000449472
 31
0.0
 70
   160
  1
<>
 71
     2
 42
-1.0
  3
SLDDIMSTYLE0
100
AcDbAlignedDimension
 13
4.9741280753
 23
19.4698289649
 33
0.0
 14
4.9741280753
 24
2.4698289649
 34
0.0
 50
90.0
100
AcDbRotatedDimension
  0
DIMENSION
  5
104
330
1F
100
AcDbEntity
  8
DIMS
100
AcDbDimension
  2
_D_1
 10
9.6750890224
 20
3.0948289649
 30
0.0
 11
9.6750890224
 21
11.6992930455
 31
0.0
 70
   160
  1
<>
 71
     2
 42
-1.0
  3
SLDDIMSTYLE0
100
AcDbAlignedDimension
 13
4.9741280753
 23
18.8448289649
 33
0.0
 14
4.9741280753
 24
3.0948289649
 34
0.0
 50
90.0
100
AcDbRotatedDimension
  0
DIMENSION
  5
118
330
1F
100
AcDbEntity
  8
DIMS
100
AcDbDimension
  2
_D_2
 10
36.3491280753
 20
8.1431393254
 30
0.0
 11
19.0185975238
 21
8.1431393254
 31
0.0
 70
   160
  1
<>
 71
     2
 42
-1.0
  3
SLDDIMSTYLE0
100
AcDbAlignedDimension
 13
3.3491280753
 23
4.7198289649
 33
0.0
 14
36.3491280753
 24
4.7198289649
 34
0.0
100
AcDbRotatedDimension
  0
DIMENSION
  5
128
330
1F
100
AcDbEntity
  8
DIMS
100
AcDbDimension
  2
_D_3
 10
2.7241280753
 20
6.9890020785
 30
0.0
 11
13.404989798
 21
6.9890020785
 31
0.0
 70
   160
  1
<>
 71
     2
 42
-1.0
  3
SLDDIMSTYLE0
100
AcDbAlignedDimension
 13
36.9741280753
 23
4.7198289649
 33
0.0
 14
2.7241280753
 24
4.7198289649
 34
0.0
 50
0.0
100
AcDbRotatedDimension
  0
DIMENSION
  5
13C
330
1F
100
AcDbEntity
  8
DIMS
100
AcDbDimension
  2
_D_4
 10
4.9741280753
 20
17.2198289649
 30
0.0
 11
5.9847518039
 21
17.0024424719
 31
0.0
 70
   164
  1
<>
 71
     1
 42
-1.0
  3
SLDDIMSTYLE1
100
AcDbRadialDimension
 15
5.9286646205
 25
19.2573176112
 35
0.0
 40
0.0
  0
DIMENSION
  5
151
330
1F
100
AcDbEntity
  8
DIMS
100
AcDbDimension
  2
_D_5
 10
34.7241280753
 20
4.7198289649
 30
0.0
 11
32.6687471553
 21
5.7813882659
 31
0.0
 70
   164
  1
<>
 71
     1
 42
-1.0
  3
SLDDIMSTYLE1
100
AcDbRadialDimension
 15
35.7803605111
 25
3.4849208542
 35
0.0
 40
0.0
  0
INSERT
  5
168
330
1F
100
AcDbEntity
  8
NOTES
100
AcDbBlockReference
  2
SW_NOTE_0
 10
14.2380910606
 20
10.0274953735
 30
0.0
  0
INSERT
  5
178
330
1F
100
AcDbEntity
  8
NOTES
100
AcDbBlockReference
  2
SW_NOTE_1
 10
22.9890918392
 20
17.950322174
 30
0.0
  0
INSERT
  5
17E
102
{ACAD_REACTORS
330
180
102
}
330
1F
100
AcDbEntity
  8
NOTES
100
AcDbBlockReference
  2
SW_NOTE_2
 10
13.2670626223
 20
17.9375129655
 30
0.0
  0
LEADER
  5
180
330
1F
100
AcDbEntity
  8
NOTES
100
AcDbLeader
  3
SLDDIMSTYLE2
 73
     2
 76
     3
 10
14.5446058548
 20
19.4698289649
 30
0.0
 10
13.5170626223
 20
17.9375129655
 30
0.0
 10
13.2670626223
 20
17.9375129655
 30
0.0
340
17E
  0
INSERT
  5
188
102
{ACAD_REACTORS
330
189
330
18A
102
}
330
1F
100
AcDbEntity
  8
NOTES
100
AcDbBlockReference
  2
SW_NOTE_3
 10
32.5417151464
 20
9.2810563628
 30
0.0
  0
LEADER
  5
189
330
1F
100
AcDbEntity
  8
NOTES
100
AcDbLeader
  3
SLDDIMSTYLE2
 73
     2
 76
     3
 10
35.7721997231
 20
10.9698289649
 30
0.0
 10
32.7917151464
 20
9.2810563628
 30
0.0
 10
32.5417151464
 20
9.2810563628
 30
0.0
340
188
  0
LEADER
  5
18A
330
1F
100
AcDbEntity
  8
NOTES
100
AcDbLeader
  3
SLDDIMSTYLE2
 73
     2
 76
     3
 10
19.8491280753
 20
3.759363768
 30
0.0
 10
30.4935442992
 20
9.2810563628
 30
0.0
 10
30.7435442992
 20
9.2810563628
 30
0.0
340
188
212
-1.798170847200797
222
0.0
232
0.0
  0
INSERT
  5
190
102
{ACAD_REACTORS
330
191
102
}
330
1F
100
AcDbEntity
  8
NOTES
100
AcDbBlockReference
  2
SW_NOTE_4
 10
27.5641736793
 20
5.6371819502
 30
0.0
  0
LEADER
  5
191
330
1F
100
AcDbEntity
  8
NOTES
100
AcDbLeader
  3
SLDDIMSTYLE2
 73
     2
 76
     3
 10
25.8189181461
 20
3.0948289649
 30
0.0
 10
27.3141736793
 20
5.6371819502
 30
0.0
 10
27.5641736793
 20
5.6371819502
 30
0.0
340
190
  0
MTEXT
  5
192
330
1F
100
AcDbEntity
  8
NOTES
100
AcDbMText
 10
32.1252520538
 20
4.0350104939
 30
0.0
 40
0.2083333333
 41
0.0
 71
     1
 72
     1
  1
REV_D  7/15
  7
SLDTEXTSTYLE0
 73
     1
 44
1.0
  0
ENDSEC
  0
SECTION
  2
OBJECTS
  0
DICTIONARY
  5
C
330
0
100
AcDbDictionary
281
     1
  3
ACAD_GROUP
350
D
  3
ACAD_LAYOUT
350
1A
  3
ACAD_MLINESTYLE
350
17
  3
ACAD_PLOTSETTINGS
350
19
  3
ACAD_PLOTSTYLENAME
350
E
  0
DICTIONARY
  5
D
102
{ACAD_REACTORS
330
C
102
}
330
C
100
AcDbDictionary
281
     1
  0
DICTIONARY
  5
1A
102
{ACAD_REACTORS
330
C
102
}
330
C
100
AcDbDictionary
281
     1
  3
Layout1
350
1E
  3
Layout2
350
26
  3
Model
350
22
  0
DICTIONARY
  5
17
102
{ACAD_REACTORS
330
C
102
}
330
C
100
AcDbDictionary
281
     1
  3
Standard
350
18
  0
DICTIONARY
  5
19
102
{ACAD_REACTORS
330
C
102
}
330
C
100
AcDbDictionary
281
     1
  0
ACDBDICTIONARYWDFLT
  5
E
102
{ACAD_REACTORS
330
C
102
}
330
C
100
AcDbDictionary
281
     1
  3
Normal
350
F
100
AcDbDictionaryWithDefault
340
F
  0
LAYOUT
  5
1E
102
{ACAD_REACTORS
330
1A
102
}
330
1A
100
AcDbPlotSettings
  1

  2
none_device
  4

  6

 40
0.0
 41
0.0
 42
0.0
 43
0.0
 44
0.0
 45
0.0
 46
0.0
 47
0.0
 48
0.0
 49
0.0
140
0.0
141
0.0
142
1.0
143
1.0
 70
   688
 72
     0
 73
     0
 74
     5
  7

 75
    16
147
1.0
148
0.0
149
0.0
100
AcDbLayout
  1
Layout1
 70
     1
 71
     1
 10
0.0
 20
0.0
 11
12.0
 21
9.0
 12
0.0
 22
0.0
 32
0.0
 14
1.0000000000E+20
 24
1.0000000000E+20
 34
1.0000000000E+20
 15
-1.0000000000E+20
 25
-1.0000000000E+20
 35
-1.0000000000E+20
146
0.0
 13
0.0
 23
0.0
 33
0.0
 16
1.0
 26
0.0
 36
0.0
 17
0.0
 27
1.0
 37
0.0
 76
     0
330
1B
  0
LAYOUT
  5
26
102
{ACAD_REACTORS
330
1A
102
}
330
1A
100
AcDbPlotSettings
  1

  2
none_device
  4

  6

 40
0.0
 41
0.0
 42
0.0
 43
0.0
 44
0.0
 45
0.0
 46
0.0
 47
0.0
 48
0.0
 49
0.0
140
0.0
141
0.0
142
1.0
143
1.0
 70
   688
 72
     0
 73
     0
 74
     5
  7

 75
    16
147
1.0
148
0.0
149
0.0
100
AcDbLayout
  1
Layout2
 70
     1
 71
     2
 10
0.0
 20
0.0
 11
0.0
 21
0.0
 12
0.0
 22
0.0
 32
0.0
 14
0.0
 24
0.0
 34
0.0
 15
0.0
 25
0.0
 35
0.0
146
0.0
 13
0.0
 23
0.0
 33
0.0
 16
1.0
 26
0.0
 36
0.0
 17
0.0
 27
1.0
 37
0.0
 76
     0
330
23
  0
LAYOUT
  5
22
102
{ACAD_REACTORS
330
1A
102
}
330
1A
100
AcDbPlotSettings
  1

  2
none_device
  4

  6

 40
0.0
 41
0.0
 42
0.0
 43
0.0
 44
0.0
 45
0.0
 46
0.0
 47
0.0
 48
0.0
 49
0.0
140
0.0
141
0.0
142
1.0
143
1.0
 70
  1712
 72
     0
 73
     0
 74
     0
  7

 75
     0
147
1.0
148
0.0
149
0.0
100
AcDbLayout
  1
Model
 70
     1
 71
     0
 10
0.0
 20
0.0
 11
40.0
 21
22.0
 12
0.0
 22
0.0
 32
0.0
 14
0.0
 24
0.0
 34
0.0
 15
40.0
 25
22.0
 35
0.0
146
0.0
 13
0.0
 23
0.0
 33
0.0
 16
1.0
 26
0.0
 36
0.0
 17
0.0
 27
1.0
 37
0.0
 76
     0
330
1F
331
29
  0
MLINESTYLE
  5
18
102
{ACAD_REACTORS
330
17
102
}
330
17
100
AcDbMlineStyle
  2
Standard
 70
     0
  3

 62
   256
 51
90.0
 52
90.0
 71
     2
 49
0.5
 62
   256
  6
BYLAYER
 49
-0.5
 62
   256
  6
BYLAYER
  0
ACDBPLACEHOLDER
  5
F
102
{ACAD_REACTORS
330
E
102
}
330
E
  0
ENDSEC
  0
EOF
