  0
SECTION
  2
HEADER
  9
$ACADVER
  1
AC1015
  9
$ACADMAINTVER
 70
     6
  9
$DWGCODEPAGE
  3
ANSI_1252
  9
$INSBASE
 10
0.0
 20
0.0
 30
0.0
  9
$EXTMIN
 10
0.0
 20
0.0
 30
0.0
  9
$EXTMAX
 10
50.0
 20
36.0
 30
0.0
  9
$LIMMIN
 10
0.0
 20
0.0
  9
$LIMMAX
 10
50.0
 20
36.0
  9
$ORTHOMODE
 70
     0
  9
$REGENMODE
 70
     1
  9
$FILLMODE
 70
     1
  9
$QTEXTMODE
 70
     0
  9
$MIRRTEXT
 70
     1
  9
$LTSCALE
 40
1.0
  9
$ATTMODE
 70
     1
  9
$TEXTSIZE
 40
0.2777777778
  9
$TRACEWID
 40
0.05
  9
$TEXTSTYLE
  7
Standard
  9
$CLAYER
  8
0
  9
$CELTYPE
  6
ByLayer
  9
$CECOLOR
 62
   256
  9
$CELTSCALE
 40
1.0
  9
$DISPSILH
 70
     0
  9
$DIMSCALE
 40
1.0
  9
$DIMASZ
 40
0.3640136719
  9
$DIMEXO
 40
0.05
  9
$DIMDLI
 40
0.38
  9
$DIMRND
 40
0.0
  9
$DIMDLE
 40
0.0
  9
$DIMEXE
 40
0.125
  9
$DIMTP
 40
0.0
  9
$DIMTM
 40
0.0
  9
$DIMTXT
 40
0.5
  9
$DIMCEN
 40
0.09
  9
$DIMTSZ
 40
0.0
  9
$DIMTOL
 70
     0
  9
$DIMLIM
 70
     0
  9
$DIMTIH
 70
     1
  9
$DIMTOH
 70
     1
  9
$DIMSE1
 70
     0
  9
$DIMSE2
 70
     0
  9
$DIMTAD
 70
     0
  9
$DIMZIN
 70
     0
  9
$DIMBLK
  1

  9
$DIMASO
 70
     1
  9
$DIMSHO
 70
     1
  9
$DIMPOST
  1

  9
$DIMAPOST
  1

  9
$DIMALT
 70
     0
  9
$DIMALTD
 70
     2
  9
$DIMALTF
 40
25.4
  9
$DIMLFAC
 40
1.0
  9
$DIMTOFL
 70
     0
  9
$DIMTVP
 40
0.0
  9
$DIMTIX
 70
     0
  9
$DIMSOXD
 70
     0
  9
$DIMSAH
 70
     0
  9
$DIMBLK1
  1

  9
$DIMBLK2
  1

  9
$DIMSTYLE
  2
Standard
  9
$DIMCLRD
 70
     0
  9
$DIMCLRE
 70
     0
  9
$DIMCLRT
 70
     0
  9
$DIMTFAC
 40
1.0
  9
$DIMGAP
 40
0.06
  9
$DIMJUST
 70
     0
  9
$DIMSD1
 70
     0
  9
$DIMSD2
 70
     0
  9
$DIMTOLJ
 70
     1
  9
$DIMTZIN
 70
     0
  9
$DIMALTZ
 70
     0
  9
$DIMALTTZ
 70
     0
  9
$DIMUPT
 70
     0
  9
$DIMDEC
 70
     3
  9
$DIMTDEC
 70
     3
  9
$DIMALTU
 70
     2
  9
$DIMALTTD
 70
     2
  9
$DIMTXSTY
  7
Standard
  9
$DIMAUNIT
 70
     0
  9
$DIMADEC
 70
     1
  9
$DIMALTRND
 40
0.0
  9
$DIMAZIN
 70
     0
  9
$DIMDSEP
 70
    46
  9
$DIMATFIT
 70
     3
  9
$DIMFRAC
 70
     0
  9
$DIMLDRBLK
  1

  9
$DIMLUNIT
 70
     2
  9
$DIMLWD
 70
    -2
  9
$DIMLWE
 70
    -2
  9
$DIMTMOVE
 70
     0
  9
$LUNITS
 70
     2
  9
$LUPREC
 70
     3
  9
$SKETCHINC
 40
0.1
  9
$FILLETRAD
 40
0.5
  9
$AUNITS
 70
     0
  9
$AUPREC
 70
     1
  9
$MENU
  1
.
  9
$ELEVATION
 40
0.0
  9
$PELEVATION
 40
0.0
  9
$THICKNESS
 40
0.0
  9
$LIMCHECK
 70
     0
  9
$CHAMFERA
 40
0.5
  9
$CHAMFERB
 40
0.5
  9
$CHAMFERC
 40
1.0
  9
$CHAMFERD
 40
0.0
  9
$SKPOLY
 70
     0
  9
$TDCREATE
 40
2456828.700949942
  9
$TDUCREATE
 40
2456828.909283275
  9
$TDUPDATE
 40
2456828.700950694
  9
$TDUUPDATE
 40
2456828.909284028
  9
$TDINDWG
 40
0.0000000116
  9
$TDUSRTIMER
 40
0.0000000116
  9
$USRTIMER
 70
     1
  9
$ANGBASE
 50
0.0
  9
$ANGDIR
 70
     0
  9
$PDMODE
 70
     0
  9
$PDSIZE
 40
-1.0
  9
$PLINEWID
 40
0.0
  9
$SPLFRAME
 70
     0
  9
$SPLINETYPE
 70
     6
  9
$SPLINESEGS
 70
     8
  9
$HANDSEED
  5
123
  9
$SURFTAB1
 70
     6
  9
$SURFTAB2
 70
     6
  9
$SURFTYPE
 70
     6
  9
$SURFU
 70
     6
  9
$SURFV
 70
     6
  9
$UCSBASE
  2

  9
$UCSNAME
  2

  9
$UCSORG
 10
0.0
 20
0.0
 30
0.0
  9
$UCSXDIR
 10
1.0
 20
0.0
 30
0.0
  9
$UCSYDIR
 10
0.0
 20
1.0
 30
0.0
  9
$UCSORTHOREF
  2

  9
$UCSORTHOVIEW
 70
     0
  9
$UCSORGTOP
 10
0.0
 20
0.0
 30
0.0
  9
$UCSORGBOTTOM
 10
0.0
 20
0.0
 30
0.0
  9
$UCSORGLEFT
 10
0.0
 20
0.0
 30
0.0
  9
$UCSORGRIGHT
 10
0.0
 20
0.0
 30
0.0
  9
$UCSORGFRONT
 10
0.0
 20
0.0
 30
0.0
  9
$UCSORGBACK
 10
0.0
 20
0.0
 30
0.0
  9
$PUCSBASE
  2

  9
$PUCSNAME
  2

  9
$PUCSORG
 10
0.0
 20
0.0
 30
0.0
  9
$PUCSXDIR
 10
1.0
 20
0.0
 30
0.0
  9
$PUCSYDIR
 10
0.0
 20
1.0
 30
0.0
  9
$PUCSORTHOREF
  2

  9
$PUCSORTHOVIEW
 70
     0
  9
$PUCSORGTOP
 10
0.0
 20
0.0
 30
0.0
  9
$PUCSORGBOTTOM
 10
0.0
 20
0.0
 30
0.0
  9
$PUCSORGLEFT
 10
0.0
 20
0.0
 30
0.0
  9
$PUCSORGRIGHT
 10
0.0
 20
0.0
 30
0.0
  9
$PUCSORGFRONT
 10
0.0
 20
0.0
 30
0.0
  9
$PUCSORGBACK
 10
0.0
 20
0.0
 30
0.0
  9
$USERI1
 70
     0
  9
$USERI2
 70
     0
  9
$USERI3
 70
     0
  9
$USERI4
 70
     0
  9
$USERI5
 70
     0
  9
$USERR1
 40
0.0
  9
$USERR2
 40
0.0
  9
$USERR3
 40
0.0
  9
$USERR4
 40
0.0
  9
$USERR5
 40
0.0
  9
$WORLDVIEW
 70
     1
  9
$SHADEDGE
 70
     3
  9
$SHADEDIF
 70
    70
  9
$TILEMODE
 70
     1
  9
$MAXACTVP
 70
    64
  9
$PINSBASE
 10
0.0
 20
0.0
 30
0.0
  9
$PLIMCHECK
 70
     0
  9
$PEXTMIN
 10
1.0000000000E+20
 20
1.0000000000E+20
 30
1.0000000000E+20
  9
$PEXTMAX
 10
-1.0000000000E+20
 20
-1.0000000000E+20
 30
-1.0000000000E+20
  9
$PLIMMIN
 10
0.0
 20
0.0
  9
$PLIMMAX
 10
12.0
 20
9.0
  9
$UNITMODE
 70
     0
  9
$VISRETAIN
 70
     1
  9
$PLINEGEN
 70
     0
  9
$PSLTSCALE
 70
     1
  9
$TREEDEPTH
 70
  3020
  9
$CMLSTYLE
  2
Standard
  9
$CMLJUST
 70
     0
  9
$CMLSCALE
 40
1.0
  9
$PROXYGRAPHICS
 70
     1
  9
$MEASUREMENT
 70
     0
  9
$CELWEIGHT
370
    -1
  9
$ENDCAPS
280
     0
  9
$JOINSTYLE
280
     0
  9
$LWDISPLAY
290
     1
  9
$INSUNITS
 70
     1
  9
$HYPERLINKBASE
  1

  9
$STYLESHEET
  1

  9
$XEDIT
290
     1
  9
$CEPSNTYPE
380
     0
  9
$PSTYLEMODE
290
     1
  9
$FINGERPRINTGUID
  2
{7B915A3D-A21C-4773-AA3B-A5D9ABF1B76E}
  9
$VERSIONGUID
  2
{FAEB1C32-E019-11D5-929B-00C0DF256EC4}
  9
$EXTNAMES
290
     1
  9
$PSVPSCALE
 40
0.0
  9
$OLESTARTUP
290
     0
  0
ENDSEC
  0
SECTION
  2
CLASSES
  0
CLASS
  1
ACDBDICTIONARYWDFLT
  2
AcDbDictionaryWithDefault
  3
ObjectDBX Classes
 90
        0
280
     0
281
     0
  0
CLASS
  1
VISUALSTYLE
  2
AcDbVisualStyle
  3
ObjectDBX Classes
 90
     4095
280
     0
281
     0
  0
CLASS
  1
MATERIAL
  2
AcDbMaterial
  3
ObjectDBX Classes
 90
     1153
280
     0
281
     0
  0
CLASS
  1
ACDBPLACEHOLDER
  2
AcDbPlaceHolder
  3
ObjectDBX Classes
 90
        0
280
     0
281
     0
  0
CLASS
  1
LAYOUT
  2
AcDbLayout
  3
ObjectDBX Classes
 90
        0
280
     0
281
     0
  0
ENDSEC
  0
SECTION
  2
TABLES
  0
TABLE
  2
VPORT
  5
8
330
0
100
AcDbSymbolTable
 70
     1
  0
VPORT
  5
29
330
8
100
AcDbSymbolTableRecord
100
AcDbViewportTableRecord
  2
*Active
 70
     0
 10
0.0
 20
0.0
 11
1.0
 21
1.0
 12
25.0
 22
18.0
 13
0.0
 23
0.0
 14
0.5
 24
0.5
 15
0.5
 25
0.5
 16
0.0
 26
0.0
 36
1.0
 17
0.0
 27
0.0
 37
0.0
 40
36.0
 41
1.3888888889
 42
50.0
 43
0.0
 44
0.0
 50
0.0
 51
0.0
 71
     0
 72
  2000
 73
     1
 74
     3
 75
     0
 76
     0
 77
     0
 78
     0
281
     0
 65
     1
110
0.0
120
0.0
130
0.0
111
1.0
121
0.0
131
0.0
112
0.0
122
1.0
132
0.0
 79
     0
146
0.0
  0
ENDTAB
  0
TABLE
  2
LTYPE
  5
5
330
0
100
AcDbSymbolTable
 70
     6
  0
LTYPE
  5
14
330
5
100
AcDbSymbolTableRecord
100
AcDbLinetypeTableRecord
  2
ByBlock
 70
     0
  3

 72
    65
 73
     0
 40
0.0
  0
LTYPE
  5
15
330
5
100
AcDbSymbolTableRecord
100
AcDbLinetypeTableRecord
  2
ByLayer
 70
     0
  3

 72
    65
 73
     0
 40
0.0
  0
LTYPE
  5
16
330
5
100
AcDbSymbolTableRecord
100
AcDbLinetypeTableRecord
  2
Continuous
 70
     0
  3
Solid line
 72
    65
 73
     0
 40
0.0
  0
LTYPE
  5
3F
330
5
100
AcDbSymbolTableRecord
100
AcDbLinetypeTableRecord
  2
HIDDEN
 70
     0
  3
Hidden __ __ __ __ __ __ __ __ __ __ __ __ __ __
 72
    65
 73
     2
 40
0.075
 49
0.05
 74
     0
 49
-0.025
 74
     0
  0
LTYPE
  5
40
330
5
100
AcDbSymbolTableRecord
100
AcDbLinetypeTableRecord
  2
PHANTOM
 70
     0
  3
Phantom ______  __  __  ______  __  __  ______
 72
    65
 73
     6
 40
0.5
 49
0.25
 74
     0
 49
-0.05
 74
     0
 49
0.05
 74
     0
 49
-0.05
 74
     0
 49
0.05
 74
     0
 49
-0.05
 74
     0
  0
LTYPE
  5
41
330
5
100
AcDbSymbolTableRecord
100
AcDbLinetypeTableRecord
  2
CENTER
 70
     0
  3
Center ____ _ ____ _ ____ _ ____ _ ____ _ ____
 72
    65
 73
     4
 40
0.4
 49
0.25
 74
     0
 49
-0.05
 74
     0
 49
0.05
 74
     0
 49
-0.05
 74
     0
  0
LTYPE
  5
42
330
5
100
AcDbSymbolTableRecord
100
AcDbLinetypeTableRecord
  2
CENTERX2
 70
     0
  3
Center (2x) ________  __  ________  __  _____
 72
    65
 73
     4
 40
0.8
 49
0.5
 74
     0
 49
-0.1
 74
     0
 49
0.1
 74
     0
 49
-0.1
 74
     0
  0
LTYPE
  5
43
330
5
100
AcDbSymbolTableRecord
100
AcDbLinetypeTableRecord
  2
DOT2
 70
     0
  3
Dot (.5x) ........................................
 72
    65
 73
     2
 40
0.025
 49
0.0
 74
     0
 49
-0.025
 74
     0
  0
ENDTAB
  0
TABLE
  2
LAYER
  5
2
330
0
100
AcDbSymbolTable
 70
     8
  0
LAYER
  5
10
330
2
100
AcDbSymbolTableRecord
100
AcDbLayerTableRecord
  2
0
 70
     0
 62
     7
  6
Continuous
370
    -3
390
F
  0
LAYER
  5
44
330
2
100
AcDbSymbolTableRecord
100
AcDbLayerTableRecord
  2
SLD-0
 70
     0
 62
   179
  6
Continuous
370
    -3
390
F
  0
LAYER
  5
45
330
2
100
AcDbSymbolTableRecord
100
AcDbLayerTableRecord
  2
OBJECTS
 70
     0
 62
     5
  6
Continuous
370
    -3
390
F
  0
LAYER
  5
46
330
2
100
AcDbSymbolTableRecord
100
AcDbLayerTableRecord
  2
DIMS
 70
     0
 62
     1
  6
Continuous
370
    -3
390
F
  0
LAYER
  5
47
330
2
100
AcDbSymbolTableRecord
100
AcDbLayerTableRecord
  2
NOTES
 70
     0
 62
     7
  6
Continuous
370
    -3
390
F
  0
LAYER
  5
48
330
2
100
AcDbSymbolTableRecord
100
AcDbLayerTableRecord
  2
IMAGES
 70
     0
 62
     7
  6
Continuous
370
    -3
390
F
  0
LAYER
  5
49
330
2
100
AcDbSymbolTableRecord
100
AcDbLayerTableRecord
  2
CENTERLINES
 70
     0
 62
     7
  6
HIDDEN
370
    -3
390
F
  0
LAYER
  5
4A
330
2
100
AcDbSymbolTableRecord
100
AcDbLayerTableRecord
  2
BLOCKS
 70
     0
 62
    16
  6
Continuous
370
    -3
390
F
  0
ENDTAB
  0
TABLE
  2
STYLE
  5
3
330
0
100
AcDbSymbolTable
 70
     2
  0
STYLE
  5
11
330
3
100
AcDbSymbolTableRecord
100
AcDbTextStyleTableRecord
  2
Standard
 70
     0
 40
0.0
 41
1.0
 50
0.0
 71
     0
 42
0.2777777778
  3
txt
  4

  0
STYLE
  5
59
330
3
100
AcDbSymbolTableRecord
100
AcDbTextStyleTableRecord
  2
SLDTEXTSTYLE0
 70
     0
 40
0.0
 41
0.605
 50
0.0
 71
     0
 42
0.2
  3
TXT
  4

  0
ENDTAB
  0
TABLE
  2
VIEW
  5
6
330
0
100
AcDbSymbolTable
 70
     0
  0
ENDTAB
  0
TABLE
  2
UCS
  5
7
330
0
100
AcDbSymbolTable
 70
     0
  0
ENDTAB
  0
TABLE
  2
APPID
  5
9
330
0
100
AcDbSymbolTable
 70
     1
  0
APPID
  5
12
330
9
100
AcDbSymbolTableRecord
100
AcDbRegAppTableRecord
  2
ACAD
 70
     0
  0
ENDTAB
  0
TABLE
  2
DIMSTYLE
  5
A
330
0
100
AcDbSymbolTable
 70
     4
100
AcDbDimStyleTable
  0
DIMSTYLE
105
27
330
A
100
AcDbSymbolTableRecord
100
AcDbDimStyleTableRecord
  2
Standard
 70
     0
178
     0
340
11
  0
DIMSTYLE
105
5A
102
{ACAD_REACTORS
330
58
330
6E
330
83
330
99
330
AE
330
C2
330
D7
102
}
330
A
100
AcDbSymbolTableRecord
100
AcDbDimStyleTableRecord
  2
SLDDIMSTYLE0
 70
     0
 41
0.3640136719
 44
0.0
 45
0.000000001
 78
    12
 79
     3
140
0.3640136719
147
0.091003418
148
0.000000001
170
     1
171
     0
173
     1
178
     0
271
     3
272
     3
274
     0
276
     2
277
     5
284
    12
340
59
  0
DIMSTYLE
105
ED
102
{ACAD_REACTORS
330
EC
102
}
330
A
100
AcDbSymbolTableRecord
100
AcDbDimStyleTableRecord
  2
SLDDIMSTYLE1
 70
     0
 41
0.3640136719
 44
0.0
 45
0.000000001
 78
    12
 79
     3
140
0.3640136719
141
0.0
147
0.091003418
148
0.000000001
170
     1
171
     0
173
     1
178
     0
271
     3
272
     3
274
     0
276
     2
277
     5
279
     1
284
    12
340
59
  0
DIMSTYLE
105
11A
330
A
100
AcDbSymbolTableRecord
100
AcDbDimStyleTableRecord
  2
SLDDIMSTYLE2
 70
     0
 41
0.3640136719
 44
0.0
 45
0.000000001
140
0.0
146
0.3640136719
147
0.0
173
     1
178
     0
271
     0
272
     0
276
     2
277
     5
340
11
  0
ENDTAB
  0
TABLE
  2
BLOCK_RECORD
  5
1
330
0
100
AcDbSymbolTable
 70
    12
  0
BLOCK_RECORD
  5
1F
330
1
100
AcDbSymbolTableRecord
100
AcDbBlockTableRecord
  2
*Model_Space
340
22
  0
BLOCK_RECORD
  5
1B
330
1
100
AcDbSymbolTableRecord
100
AcDbBlockTableRecord
  2
*Paper_Space
340
1E
  0
BLOCK_RECORD
  5
23
330
1
100
AcDbSymbolTableRecord
100
AcDbBlockTableRecord
  2
*Paper_Space0
340
26
  0
BLOCK_RECORD
  5
5B
330
1
100
AcDbSymbolTableRecord
100
AcDbBlockTableRecord
  2
_D
340
0
  0
BLOCK_RECORD
  5
6F
330
1
100
AcDbSymbolTableRecord
100
AcDbBlockTableRecord
  2
_D_1
340
0
  0
BLOCK_RECORD
  5
84
330
1
100
AcDbSymbolTableRecord
100
AcDbBlockTableRecord
  2
_D_2
340
0
  0
BLOCK_RECORD
  5
9A
330
1
100
AcDbSymbolTableRecord
100
AcDbBlockTableRecord
  2
_D_3
340
0
  0
BLOCK_RECORD
  5
AF
330
1
100
AcDbSymbolTableRecord
100
AcDbBlockTableRecord
  2
_D_4
340
0
  0
BLOCK_RECORD
  5
C3
330
1
100
AcDbSymbolTableRecord
100
AcDbBlockTableRecord
  2
_D_5
340
0
  0
BLOCK_RECORD
  5
D8
330
1
100
AcDbSymbolTableRecord
100
AcDbBlockTableRecord
  2
_D_6
340
0
  0
BLOCK_RECORD
  5
EE
330
1
100
AcDbSymbolTableRecord
100
AcDbBlockTableRecord
  2
_D_7
340
0
  0
BLOCK_RECORD
  5
101
330
1
100
AcDbSymbolTableRecord
100
AcDbBlockTableRecord
  2
SW_NOTE_0
340
0
102
{BLKREFS
331
111
102
}
  0
BLOCK_RECORD
  5
112
330
1
100
AcDbSymbolTableRecord
100
AcDbBlockTableRecord
  2
SW_NOTE_1
340
0
102
{BLKREFS
331
119
102
}
  0
BLOCK_RECORD
  5
11D
330
1
100
AcDbSymbolTableRecord
100
AcDbBlockTableRecord
  2
SW_NOTE_2
340
0
102
{BLKREFS
331
122
102
}
  0
ENDTAB
  0
ENDSEC
  0
SECTION
  2
BLOCKS
  0
BLOCK
  5
20
330
1F
100
AcDbEntity
  8
0
100
AcDbBlockBegin
  2
*Model_Space
 70
     0
 10
0.0
 20
0.0
 30
0.0
  3
*Model_Space
  1

  0
ENDBLK
  5
21
330
1F
100
AcDbEntity
  8
0
100
AcDbBlockEnd
  0
BLOCK
  5
1C
330
1B
100
AcDbEntity
 67
     1
  8
0
100
AcDbBlockBegin
  2
*Paper_Space
 70
     0
 10
0.0
 20
0.0
 30
0.0
  3
*Paper_Space
  1

  0
ENDBLK
  5
1D
330
1B
100
AcDbEntity
 67
     1
  8
0
100
AcDbBlockEnd
  0
BLOCK
  5
24
330
23
100
AcDbEntity
  8
0
100
AcDbBlockBegin
  2
*Paper_Space0
 70
     0
 10
0.0
 20
0.0
 30
0.0
  3
*Paper_Space0
  1

  0
ENDBLK
  5
25
330
23
100
AcDbEntity
  8
0
100
AcDbBlockEnd
  0
BLOCK
  5
5C
330
5B
100
AcDbEntity
  8
0
100
AcDbBlockBegin
  2
_D
 70
     0
 10
0.0
 20
0.0
 30
0.0
  3
_D
  1

  0
SOLID
  5
5E
330
5B
100
AcDbEntity
  8
DIMS
100
AcDbTrace
 10
1.8323121528
 20
14.8301392203
 30
0.0
 11
2.0501092216
 21
14.5331432174
 31
0.0
 12
2.1293081557
 22
14.6123421515
 32
0.0
 13
2.1293081557
 23
14.6123421515
 33
0.0
  0
SOLID
  5
5F
330
5B
100
AcDbEntity
  8
DIMS
100
AcDbTrace
 10
13.4111856947
 20
3.2512656784
 30
0.0
 11
13.193388626
 21
3.5482616812
 31
0.0
 12
13.1141896919
 22
3.4690627471
 32
0.0
 13
13.1141896919
 23
3.4690627471
 33
0.0
  0
LINE
  5
60
330
5B
100
AcDbEntity
  8
DIMS
100
AcDbLine
 10
7.8981064503
 20
8.9945880205
 30
0.0
 11
8.282134234
 21
8.9945880205
 31
0.0
  0
LINE
  5
61
330
5B
100
AcDbEntity
  8
DIMS
100
AcDbLine
 10
7.5470647235
 20
8.3687547144
 30
0.0
 11
7.4637313911
 21
8.3687547144
 31
0.0
  0
LINE
  5
62
330
5B
100
AcDbEntity
  8
DIMS
100
AcDbLine
 10
7.4637313911
 20
8.3687547144
 30
0.0
 11
7.4637313911
 21
7.8097269457
 31
0.0
  0
LINE
  5
63
330
5B
100
AcDbEntity
  8
DIMS
100
AcDbLine
 10
7.4637313911
 20
7.8097269457
 30
0.0
 11
7.5470647235
 21
7.8097269457
 31
0.0
  0
LINE
  5
64
330
5B
100
AcDbEntity
  8
DIMS
100
AcDbLine
 10
8.5887314142
 20
8.3687547144
 30
0.0
 11
8.6720647465
 21
8.3687547144
 31
0.0
  0
LINE
  5
65
330
5B
100
AcDbEntity
  8
DIMS
100
AcDbLine
 10
8.6720647465
 20
8.3687547144
 30
0.0
 11
8.6720647465
 21
7.8097269457
 31
0.0
  0
LINE
  5
66
330
5B
100
AcDbEntity
  8
DIMS
100
AcDbLine
 10
8.6720647465
 20
7.8097269457
 30
0.0
 11
8.5887314142
 21
7.8097269457
 31
0.0
  0
LINE
  5
67
330
5B
100
AcDbEntity
  8
DIMS
100
AcDbLine
 10
1.8323121528
 20
14.8301392203
 30
0.0
 11
7.2061002341
 21
9.456351139
 31
0.0
  0
LINE
  5
68
330
5B
100
AcDbEntity
  8
DIMS
100
AcDbLine
 10
13.4111856947
 20
3.2512656784
 30
0.0
 11
8.9296958669
 21
7.7327555062
 31
0.0
  0
MTEXT
  5
69
330
5B
100
AcDbEntity
  8
DIMS
100
AcDbMText
 10
7.2894258968
 20
9.1906359558
 30
0.0039370079
 40
0.375
 41
0.0
 71
     1
 72
     1
  1
16
  7
SLDTEXTSTYLE0
 73
     1
 44
1.0
  0
MTEXT
  5
6A
330
5B
100
AcDbEntity
  8
DIMS
100
AcDbMText
 10
7.9512314549
 20
9.4461134312
 30
0.0039370079
 40
0.375
 41
0.0
 71
     1
 72
     1
  1
3
  7
SLDTEXTSTYLE0
 73
     1
 44
1.0
  0
MTEXT
  5
6B
330
5B
100
AcDbEntity
  8
DIMS
100
AcDbMText
 10
7.9512314549
 20
8.9354884365
 30
0.0039370079
 40
0.375
 41
0.0
 71
     1
 72
     1
  1
8
  7
SLDTEXTSTYLE0
 73
     1
 44
1.0
  0
MTEXT
  5
6C
330
5B
100
AcDbEntity
  8
DIMS
100
AcDbMText
 10
8.3352592019
 20
9.1906359558
 30
0.0039370079
 40
0.375
 41
0.0
 71
     1
 72
     1
  1
"
  7
SLDTEXTSTYLE0
 73
     1
 44
1.0
  0
MTEXT
  5
6D
330
5B
100
AcDbEntity
  8
DIMS
100
AcDbMText
 10
7.6512313889
 20
8.2931273572
 30
0.0039370079
 40
0.375
 41
0.0
 71
     1
 72
     1
  1
416
  7
SLDTEXTSTYLE0
 73
     1
 44
1.0
  0
ENDBLK
  5
5D
330
5B
100
AcDbEntity
  8
0
100
AcDbBlockEnd
  0
BLOCK
  5
70
330
6F
100
AcDbEntity
  8
0
100
AcDbBlockBegin
  2
_D_1
 70
     0
 10
0.0
 20
0.0
 30
0.0
  3
_D_1
  1

  0
SOLID
  5
72
330
6F
100
AcDbEntity
  8
DIMS
100
AcDbTrace
 10
13.4607970436
 20
23.9198230375
 30
0.0
 11
13.1638010407
 21
23.7020259687
 31
0.0
 12
13.2429999748
 22
23.6228270346
 32
0.0
 13
13.2429999748
 23
23.6228270346
 33
0.0
  0
SOLID
  5
73
330
6F
100
AcDbEntity
  8
DIMS
100
AcDbTrace
 10
2.0176468064
 20
12.4766728003
 30
0.0
 11
2.3146428093
 21
12.6944698691
 31
0.0
 12
2.2354438752
 22
12.7736688032
 32
0.0
 13
2.2354438752
 23
12.7736688032
 33
0.0
  0
LINE
  5
74
330
6F
100
AcDbEntity
  8
DIMS
100
AcDbLine
 10
7.7592175081
 20
18.9269587423
 30
0.0
 11
8.4210230662
 21
18.9269587423
 31
0.0
  0
LINE
  5
75
330
6F
100
AcDbEntity
  8
DIMS
100
AcDbLine
 10
7.5470647235
 20
18.3011254362
 30
0.0
 11
7.4637313911
 21
18.3011254362
 31
0.0
  0
LINE
  5
76
330
6F
100
AcDbEntity
  8
DIMS
100
AcDbLine
 10
7.4637313911
 20
18.3011254362
 30
0.0
 11
7.4637313911
 21
17.7420976675
 31
0.0
  0
LINE
  5
77
330
6F
100
AcDbEntity
  8
DIMS
100
AcDbLine
 10
7.4637313911
 20
17.7420976675
 30
0.0
 11
7.5470647235
 21
17.7420976675
 31
0.0
  0
LINE
  5
78
330
6F
100
AcDbEntity
  8
DIMS
100
AcDbLine
 10
8.5887314142
 20
18.3011254362
 30
0.0
 11
8.6720647465
 21
18.3011254362
 31
0.0
  0
LINE
  5
79
330
6F
100
AcDbEntity
  8
DIMS
100
AcDbLine
 10
8.6720647465
 20
18.3011254362
 30
0.0
 11
8.6720647465
 21
17.7420976675
 31
0.0
  0
LINE
  5
7A
330
6F
100
AcDbEntity
  8
DIMS
100
AcDbLine
 10
8.6720647465
 20
17.7420976675
 30
0.0
 11
8.5887314142
 21
17.7420976675
 31
0.0
  0
LINE
  5
7B
330
6F
100
AcDbEntity
  8
DIMS
100
AcDbLine
 10
12.2267518459
 20
25.1538682352
 30
0.0
 11
13.5491853913
 21
23.8314346899
 31
0.0
  0
LINE
  5
7C
330
6F
100
AcDbEntity
  8
DIMS
100
AcDbLine
 10
13.4607970436
 20
23.9198230375
 30
0.0
 11
8.9360577414
 21
19.3950837353
 31
0.0
  0
LINE
  5
7D
330
6F
100
AcDbEntity
  8
DIMS
100
AcDbLine
 10
2.0176468064
 20
12.4766728003
 30
0.0
 11
7.1997383595
 21
17.6587643535
 31
0.0
  0
MTEXT
  5
7E
330
6F
100
AcDbEntity
  8
DIMS
100
AcDbMText
 10
7.1505369546
 20
19.1230066776
 30
0.0039370079
 40
0.375
 41
0.0
 71
     1
 72
     1
  1
16
  7
SLDTEXTSTYLE0
 73
     1
 44
1.0
  0
MTEXT
  5
7F
330
6F
100
AcDbEntity
  8
DIMS
100
AcDbMText
 10
7.9512313999
 20
19.378484153
 30
0.0039370079
 40
0.375
 41
0.0
 71
     1
 72
     1
  1
3
  7
SLDTEXTSTYLE0
 73
     1
 44
1.0
  0
MTEXT
  5
80
330
6F
100
AcDbEntity
  8
DIMS
100
AcDbMText
 10
7.8123425127
 20
18.8678591583
 30
0.0039370079
 40
0.375
 41
0.0
 71
     1
 72
     1
  1
16
  7
SLDTEXTSTYLE0
 73
     1
 44
1.0
  0
MTEXT
  5
81
330
6F
100
AcDbEntity
  8
DIMS
100
AcDbMText
 10
8.4741481441
 20
19.1230066776
 30
0.0039370079
 40
0.375
 41
0.0
 71
     1
 72
     1
  1
"
  7
SLDTEXTSTYLE0
 73
     1
 44
1.0
  0
MTEXT
  5
82
330
6F
100
AcDbEntity
  8
DIMS
100
AcDbMText
 10
7.6512313889
 20
18.225498079
 30
0.0039370079
 40
0.375
 41
0.0
 71
     1
 72
     1
  1
411
  7
SLDTEXTSTYLE0
 73
     1
 44
1.0
  0
ENDBLK
  5
71
330
6F
100
AcDbEntity
  8
0
100
AcDbBlockEnd
  0
BLOCK
  5
85
330
84
100
AcDbEntity
  8
0
100
AcDbBlockBegin
  2
_D_2
 70
     0
 10
0.0
 20
0.0
 30
0.0
  3
_D_2
  1

  0
SOLID
  5
87
330
84
100
AcDbEntity
  8
DIMS
100
AcDbTrace
 10
12.1913965068
 20
23.7736227746
 30
0.0
 11
12.5554101787
 21
23.7176206713
 31
0.0
 12
12.5554101787
 22
23.829624878
 32
0.0
 13
12.5554101787
 23
23.829624878
 33
0.0
  0
SOLID
  5
88
330
84
100
AcDbEntity
  8
DIMS
100
AcDbTrace
 10
33.4992698565
 20
23.7736227746
 30
0.0
 11
33.1352561847
 21
23.829624878
 31
0.0
 12
33.1352561847
 22
23.7176206713
 32
0.0
 13
33.1352561847
 23
23.7176206713
 33
0.0
  0
LINE
  5
89
330
84
100
AcDbEntity
  8
DIMS
100
AcDbLine
 10
28.3428373243
 20
24.1736574726
 30
0.0
 11
29.0046428824
 21
24.1736574726
 31
0.0
  0
LINE
  5
8A
330
84
100
AcDbEntity
  8
DIMS
100
AcDbLine
 10
28.1306845397
 20
23.5478241664
 30
0.0
 11
28.0473512073
 21
23.5478241664
 31
0.0
  0
LINE
  5
8B
330
84
100
AcDbEntity
  8
DIMS
100
AcDbLine
 10
28.0473512073
 20
23.5478241664
 30
0.0
 11
28.0473512073
 21
22.9887963977
 31
0.0
  0
LINE
  5
8C
330
84
100
AcDbEntity
  8
DIMS
100
AcDbLine
 10
28.0473512073
 20
22.9887963977
 30
0.0
 11
28.1306845397
 21
22.9887963977
 31
0.0
  0
LINE
  5
8D
330
84
100
AcDbEntity
  8
DIMS
100
AcDbLine
 10
29.1723512304
 20
23.5478241664
 30
0.0
 11
29.2556845627
 21
23.5478241664
 31
0.0
  0
LINE
  5
8E
330
84
100
AcDbEntity
  8
DIMS
100
AcDbLine
 10
29.2556845627
 20
23.5478241664
 30
0.0
 11
29.2556845627
 21
22.9887963977
 31
0.0
  0
LINE
  5
8F
330
84
100
AcDbEntity
  8
DIMS
100
AcDbLine
 10
29.2556845627
 20
22.9887963977
 30
0.0
 11
29.1723512304
 21
22.9887963977
 31
0.0
  0
LINE
  5
90
330
84
100
AcDbEntity
  8
DIMS
100
AcDbLine
 10
12.1913965068
 20
25.1392235743
 30
0.0
 11
12.1913965068
 21
23.6486227746
 31
0.0
  0
LINE
  5
91
330
84
100
AcDbEntity
  8
DIMS
100
AcDbLine
 10
33.4992698565
 20
25.1392235743
 30
0.0
 11
33.4992698565
 21
23.6486227746
 31
0.0
  0
LINE
  5
92
330
84
100
AcDbEntity
  8
DIMS
100
AcDbLine
 10
12.1913965068
 20
23.7736227746
 30
0.0
 11
27.6508311081
 21
23.7736227746
 31
0.0
  0
LINE
  5
93
330
84
100
AcDbEntity
  8
DIMS
100
AcDbLine
 10
33.4992698565
 20
23.7736227746
 30
0.0
 11
29.6522046253
 21
23.7736227746
 31
0.0
  0
MTEXT
  5
94
330
84
100
AcDbEntity
  8
DIMS
100
AcDbMText
 10
27.7341567708
 20
24.3697054078
 30
0.0039370079
 40
0.375
 41
0.0
 71
     1
 72
     1
  1
21
  7
SLDTEXTSTYLE0
 73
     1
 44
1.0
  0
MTEXT
  5
95
330
84
100
AcDbEntity
  8
DIMS
100
AcDbMText
 10
28.5348512161
 20
24.6251828832
 30
0.0039370079
 40
0.375
 41
0.0
 71
     1
 72
     1
  1
5
  7
SLDTEXTSTYLE0
 73
     1
 44
1.0
  0
MTEXT
  5
96
330
84
100
AcDbEntity
  8
DIMS
100
AcDbMText
 10
28.3959623289
 20
24.1145578886
 30
0.0039370079
 40
0.375
 41
0.0
 71
     1
 72
     1
  1
16
  7
SLDTEXTSTYLE0
 73
     1
 44
1.0
  0
MTEXT
  5
97
330
84
100
AcDbEntity
  8
DIMS
100
AcDbMText
 10
29.0577679603
 20
24.3697054078
 30
0.0039370079
 40
0.375
 41
0.0
 71
     1
 72
     1
  1
"
  7
SLDTEXTSTYLE0
 73
     1
 44
1.0
  0
MTEXT
  5
98
330
84
100
AcDbEntity
  8
DIMS
100
AcDbMText
 10
28.2348512051
 20
23.4721968093
 30
0.0039370079
 40
0.375
 41
0.0
 71
     1
 72
     1
  1
541
  7
SLDTEXTSTYLE0
 73
     1
 44
1.0
  0
ENDBLK
  5
86
330
84
100
AcDbEntity
  8
0
100
AcDbBlockEnd
  0
BLOCK
  5
9B
330
9A
100
AcDbEntity
  8
0
100
AcDbBlockBegin
  2
_D_3
 70
     0
 10
0.0
 20
0.0
 30
0.0
  3
_D_3
  1

  0
SOLID
  5
9D
330
9A
100
AcDbEntity
  8
DIMS
100
AcDbTrace
 10
31.098289831
 20
22.7882435488
 30
0.0
 11
31.3160868998
 21
22.4912475459
 31
0.0
 12
31.3952858339
 22
22.57044648
 32
0.0
 13
31.3952858339
 23
22.57044648
 33
0.0
  0
SOLID
  5
9E
330
9A
100
AcDbEntity
  8
DIMS
100
AcDbTrace
 10
42.5414400682
 20
11.3450933115
 30
0.0
 11
42.3236429995
 21
11.6420893144
 31
0.0
 12
42.2444440654
 22
11.5628903803
 32
0.0
 13
42.2444440654
 23
11.5628903803
 33
0.0
  0
LINE
  5
9F
330
9A
100
AcDbEntity
  8
DIMS
100
AcDbLine
 10
35.8339916678
 20
18.1438958675
 30
0.0
 11
36.4957972259
 21
18.1438958675
 31
0.0
  0
LINE
  5
A0
330
9A
100
AcDbEntity
  8
DIMS
100
AcDbLine
 10
35.6218388832
 20
17.5180625613
 30
0.0
 11
35.5385055509
 21
17.5180625613
 31
0.0
  0
LINE
  5
A1
330
9A
100
AcDbEntity
  8
DIMS
100
AcDbLine
 10
35.5385055509
 20
17.5180625613
 30
0.0
 11
35.5385055509
 21
16.9590347926
 31
0.0
  0
LINE
  5
A2
330
9A
100
AcDbEntity
  8
DIMS
100
AcDbLine
 10
35.5385055509
 20
16.9590347926
 30
0.0
 11
35.6218388832
 21
16.9590347926
 31
0.0
  0
LINE
  5
A3
330
9A
100
AcDbEntity
  8
DIMS
100
AcDbLine
 10
36.6635055739
 20
17.5180625613
 30
0.0
 11
36.7468389063
 21
17.5180625613
 31
0.0
  0
LINE
  5
A4
330
9A
100
AcDbEntity
  8
DIMS
100
AcDbLine
 10
36.7468389063
 20
17.5180625613
 30
0.0
 11
36.7468389063
 21
16.9590347926
 31
0.0
  0
LINE
  5
A5
330
9A
100
AcDbEntity
  8
DIMS
100
AcDbLine
 10
36.7468389063
 20
16.9590347926
 30
0.0
 11
36.6635055739
 21
16.9590347926
 31
0.0
  0
LINE
  5
A6
330
9A
100
AcDbEntity
  8
DIMS
100
AcDbLine
 10
33.4639145175
 20
25.1538682352
 30
0.0
 11
31.0099014834
 21
22.6998552011
 31
0.0
  0
LINE
  5
A7
330
9A
100
AcDbEntity
  8
DIMS
100
AcDbLine
 10
31.098289831
 20
22.7882435488
 30
0.0
 11
35.2745125193
 21
18.6120208605
 31
0.0
  0
LINE
  5
A8
330
9A
100
AcDbEntity
  8
DIMS
100
AcDbLine
 10
42.5414400682
 20
11.3450933115
 30
0.0
 11
37.0108319012
 21
16.8757014786
 31
0.0
  0
MTEXT
  5
A9
330
9A
100
AcDbEntity
  8
DIMS
100
AcDbMText
 10
35.2253111143
 20
18.3399438027
 30
0.0039370079
 40
0.375
 41
0.0
 71
     1
 72
     1
  1
16
  7
SLDTEXTSTYLE0
 73
     1
 44
1.0
  0
MTEXT
  5
AA
330
9A
100
AcDbEntity
  8
DIMS
100
AcDbMText
 10
36.0260055597
 20
18.5954212781
 30
0.0039370079
 40
0.375
 41
0.0
 71
     1
 72
     1
  1
3
  7
SLDTEXTSTYLE0
 73
     1
 44
1.0
  0
MTEXT
  5
AB
330
9A
100
AcDbEntity
  8
DIMS
100
AcDbMText
 10
35.8871166724
 20
18.0847962835
 30
0.0039370079
 40
0.375
 41
0.0
 71
     1
 72
     1
  1
16
  7
SLDTEXTSTYLE0
 73
     1
 44
1.0
  0
MTEXT
  5
AC
330
9A
100
AcDbEntity
  8
DIMS
100
AcDbMText
 10
36.5489223039
 20
18.3399438027
 30
0.0039370079
 40
0.375
 41
0.0
 71
     1
 72
     1
  1
"
  7
SLDTEXTSTYLE0
 73
     1
 44
1.0
  0
MTEXT
  5
AD
330
9A
100
AcDbEntity
  8
DIMS
100
AcDbMText
 10
35.7260055486
 20
17.4424352042
 30
0.0039370079
 40
0.375
 41
0.0
 71
     1
 72
     1
  1
411
  7
SLDTEXTSTYLE0
 73
     1
 44
1.0
  0
ENDBLK
  5
9C
330
9A
100
AcDbEntity
  8
0
100
AcDbBlockEnd
  0
BLOCK
  5
B0
330
AF
100
AcDbEntity
  8
0
100
AcDbBlockBegin
  2
_D_4
 70
     0
 10
0.0
 20
0.0
 30
0.0
  3
_D_4
  1

  0
SOLID
  5
B2
330
AF
100
AcDbEntity
  8
DIMS
100
AcDbTrace
 10
42.3127489489
 20
16.375744482
 30
0.0
 11
42.015752946
 21
16.1579474132
 31
0.0
 12
42.0949518801
 22
16.0787484791
 32
0.0
 13
42.0949518801
 23
16.0787484791
 33
0.0
  0
SOLID
  5
B3
330
AF
100
AcDbEntity
  8
DIMS
100
AcDbTrace
 10
30.7338754069
 20
4.79687094
 30
0.0
 11
31.0308714098
 21
5.0146680088
 31
0.0
 12
30.9516724757
 22
5.0938669429
 32
0.0
 13
30.9516724757
 23
5.0938669429
 33
0.0
  0
LINE
  5
B4
330
AF
100
AcDbEntity
  8
DIMS
100
AcDbLine
 10
35.97288061
 20
10.6057024413
 30
0.0
 11
36.3569083937
 21
10.6057024413
 31
0.0
  0
LINE
  5
B5
330
AF
100
AcDbEntity
  8
DIMS
100
AcDbLine
 10
35.6218388832
 20
9.9798691351
 30
0.0
 11
35.5385055509
 21
9.9798691351
 31
0.0
  0
LINE
  5
B6
330
AF
100
AcDbEntity
  8
DIMS
100
AcDbLine
 10
35.5385055509
 20
9.9798691351
 30
0.0
 11
35.5385055509
 21
9.4208413664
 31
0.0
  0
LINE
  5
B7
330
AF
100
AcDbEntity
  8
DIMS
100
AcDbLine
 10
35.5385055509
 20
9.4208413664
 30
0.0
 11
35.6218388832
 21
9.4208413664
 31
0.0
  0
LINE
  5
B8
330
AF
100
AcDbEntity
  8
DIMS
100
AcDbLine
 10
36.6635055739
 20
9.9798691351
 30
0.0
 11
36.7468389063
 21
9.9798691351
 31
0.0
  0
LINE
  5
B9
330
AF
100
AcDbEntity
  8
DIMS
100
AcDbLine
 10
36.7468389063
 20
9.9798691351
 30
0.0
 11
36.7468389063
 21
9.4208413664
 31
0.0
  0
LINE
  5
BA
330
AF
100
AcDbEntity
  8
DIMS
100
AcDbLine
 10
36.7468389063
 20
9.4208413664
 30
0.0
 11
36.6635055739
 21
9.4208413664
 31
0.0
  0
LINE
  5
BB
330
AF
100
AcDbEntity
  8
DIMS
100
AcDbLine
 10
42.3127489489
 20
16.375744482
 30
0.0
 11
37.0044700267
 21
11.0674655598
 31
0.0
  0
LINE
  5
BC
330
AF
100
AcDbEntity
  8
DIMS
100
AcDbLine
 10
30.7338754069
 20
4.79687094
 30
0.0
 11
35.2808743938
 21
9.3438699269
 31
0.0
  0
MTEXT
  5
BD
330
AF
100
AcDbEntity
  8
DIMS
100
AcDbMText
 10
35.3642000566
 20
10.8017503766
 30
0.0039370079
 40
0.375
 41
0.0
 71
     1
 72
     1
  1
16
  7
SLDTEXTSTYLE0
 73
     1
 44
1.0
  0
MTEXT
  5
BE
330
AF
100
AcDbEntity
  8
DIMS
100
AcDbMText
 10
36.0260056147
 20
11.0572278519
 30
0.0039370079
 40
0.375
 41
0.0
 71
     1
 72
     1
  1
3
  7
SLDTEXTSTYLE0
 73
     1
 44
1.0
  0
MTEXT
  5
BF
330
AF
100
AcDbEntity
  8
DIMS
100
AcDbMText
 10
36.0260056147
 20
10.5466028573
 30
0.0039370079
 40
0.375
 41
0.0
 71
     1
 72
     1
  1
8
  7
SLDTEXTSTYLE0
 73
     1
 44
1.0
  0
MTEXT
  5
C0
330
AF
100
AcDbEntity
  8
DIMS
100
AcDbMText
 10
36.4100333617
 20
10.8017503766
 30
0.0039370079
 40
0.375
 41
0.0
 71
     1
 72
     1
  1
"
  7
SLDTEXTSTYLE0
 73
     1
 44
1.0
  0
MTEXT
  5
C1
330
AF
100
AcDbEntity
  8
DIMS
100
AcDbMText
 10
35.7260055486
 20
9.904241778
 30
0.0039370079
 40
0.375
 41
0.0
 71
     1
 72
     1
  1
416
  7
SLDTEXTSTYLE0
 73
     1
 44
1.0
  0
ENDBLK
  5
B1
330
AF
100
AcDbEntity
  8
0
100
AcDbBlockEnd
  0
BLOCK
  5
C4
330
C3
100
AcDbEntity
  8
0
100
AcDbBlockBegin
  2
_D_5
 70
     0
 10
0.0
 20
0.0
 30
0.0
  3
_D_5
  1

  0
SOLID
  5
C6
330
C3
100
AcDbEntity
  8
DIMS
100
AcDbTrace
 10
34.699557848
 20
3.5032110913
 30
0.0
 11
34.4817607792
 21
3.8002070942
 31
0.0
 12
34.4025618451
 22
3.7210081601
 32
0.0
 13
34.4025618451
 23
3.7210081601
 33
0.0
  0
SOLID
  5
C7
330
C3
100
AcDbEntity
  8
DIMS
100
AcDbTrace
 10
24.1813444779
 20
14.0214244615
 30
0.0
 11
24.3991415466
 21
13.7244284586
 31
0.0
 12
24.4783404807
 22
13.8036273927
 32
0.0
 13
24.4783404807
 23
13.8036273927
 33
0.0
  0
LINE
  5
C8
330
C3
100
AcDbEntity
  8
DIMS
100
AcDbLine
 10
28.9033065268
 20
9.5297055103
 30
0.0
 11
29.2873343104
 21
9.5297055103
 31
0.0
  0
LINE
  5
C9
330
C3
100
AcDbEntity
  8
DIMS
100
AcDbLine
 10
28.5522647999
 20
8.9038722042
 30
0.0
 11
28.4689314676
 21
8.9038722042
 31
0.0
  0
LINE
  5
CA
330
C3
100
AcDbEntity
  8
DIMS
100
AcDbLine
 10
28.4689314676
 20
8.9038722042
 30
0.0
 11
28.4689314676
 21
8.3448444354
 31
0.0
  0
LINE
  5
CB
330
C3
100
AcDbEntity
  8
DIMS
100
AcDbLine
 10
28.4689314676
 20
8.3448444354
 30
0.0
 11
28.5522647999
 21
8.3448444354
 31
0.0
  0
LINE
  5
CC
330
C3
100
AcDbEntity
  8
DIMS
100
AcDbLine
 10
29.5939314907
 20
8.9038722042
 30
0.0
 11
29.677264823
 21
8.9038722042
 31
0.0
  0
LINE
  5
CD
330
C3
100
AcDbEntity
  8
DIMS
100
AcDbLine
 10
29.677264823
 20
8.9038722042
 30
0.0
 11
29.677264823
 21
8.3448444354
 31
0.0
  0
LINE
  5
CE
330
C3
100
AcDbEntity
  8
DIMS
100
AcDbLine
 10
29.677264823
 20
8.3448444354
 30
0.0
 11
29.5939314907
 21
8.3448444354
 31
0.0
  0
LINE
  5
CF
330
C3
100
AcDbEntity
  8
DIMS
100
AcDbLine
 10
22.8806885207
 20
12.7207685044
 30
0.0
 11
24.2697328255
 21
14.1098128091
 31
0.0
  0
LINE
  5
D0
330
C3
100
AcDbEntity
  8
DIMS
100
AcDbLine
 10
34.699557848
 20
3.5032110913
 30
0.0
 11
29.9348959434
 21
8.2678729959
 31
0.0
  0
LINE
  5
D1
330
C3
100
AcDbEntity
  8
DIMS
100
AcDbLine
 10
24.1813444779
 20
14.0214244615
 30
0.0
 11
28.2113003106
 21
9.9914686288
 31
0.0
  0
MTEXT
  5
D2
330
C3
100
AcDbEntity
  8
DIMS
100
AcDbMText
 10
28.2946259733
 20
9.7257534456
 30
0.0039370079
 40
0.375
 41
0.0
 71
     1
 72
     1
  1
14
  7
SLDTEXTSTYLE0
 73
     1
 44
1.0
  0
MTEXT
  5
D3
330
C3
100
AcDbEntity
  8
DIMS
100
AcDbMText
 10
28.9564315314
 20
9.9812309209
 30
0.0039370079
 40
0.375
 41
0.0
 71
     1
 72
     1
  1
7
  7
SLDTEXTSTYLE0
 73
     1
 44
1.0
  0
MTEXT
  5
D4
330
C3
100
AcDbEntity
  8
DIMS
100
AcDbMText
 10
28.9564315314
 20
9.4706059263
 30
0.0039370079
 40
0.375
 41
0.0
 71
     1
 72
     1
  1
8
  7
SLDTEXTSTYLE0
 73
     1
 44
1.0
  0
MTEXT
  5
D5
330
C3
100
AcDbEntity
  8
DIMS
100
AcDbMText
 10
29.3404592784
 20
9.7257534456
 30
0.0039370079
 40
0.375
 41
0.0
 71
     1
 72
     1
  1
"
  7
SLDTEXTSTYLE0
 73
     1
 44
1.0
  0
MTEXT
  5
D6
330
C3
100
AcDbEntity
  8
DIMS
100
AcDbMText
 10
28.6564314653
 20
8.828244847
 30
0.0039370079
 40
0.375
 41
0.0
 71
     1
 72
     1
  1
378
  7
SLDTEXTSTYLE0
 73
     1
 44
1.0
  0
ENDBLK
  5
C5
330
C3
100
AcDbEntity
  8
0
100
AcDbBlockEnd
  0
BLOCK
  5
D9
330
D8
100
AcDbEntity
  8
0
100
AcDbBlockBegin
  2
_D_6
 70
     0
 10
0.0
 20
0.0
 30
0.0
  3
_D_6
  1

  0
SOLID
  5
DB
330
D8
100
AcDbEntity
  8
DIMS
100
AcDbTrace
 10
11.1539602851
 20
3.3403593216
 30
0.0
 11
11.4509562879
 21
3.5581563904
 31
0.0
 12
11.3717573538
 22
3.6373553245
 32
0.0
 13
11.3717573538
 23
3.6373553245
 33
0.0
  0
SOLID
  5
DC
330
D8
100
AcDbEntity
  8
DIMS
100
AcDbTrace
 10
21.6721736552
 20
13.8585726918
 30
0.0
 11
21.3751776523
 21
13.640775623
 31
0.0
 12
21.4543765864
 22
13.5615766889
 32
0.0
 13
21.4543765864
 23
13.5615766889
 33
0.0
  0
LINE
  5
DD
330
D8
100
AcDbEntity
  8
DIMS
100
AcDbLine
 10
17.1629891213
 20
9.919214456
 30
0.0
 11
17.547016905
 21
9.919214456
 31
0.0
  0
LINE
  5
DE
330
D8
100
AcDbEntity
  8
DIMS
100
AcDbLine
 10
16.8119473945
 20
9.2933811499
 30
0.0
 11
16.7286140622
 21
9.2933811499
 31
0.0
  0
LINE
  5
DF
330
D8
100
AcDbEntity
  8
DIMS
100
AcDbLine
 10
16.7286140622
 20
9.2933811499
 30
0.0
 11
16.7286140622
 21
8.7343533812
 31
0.0
  0
LINE
  5
E0
330
D8
100
AcDbEntity
  8
DIMS
100
AcDbLine
 10
16.7286140622
 20
8.7343533812
 30
0.0
 11
16.8119473945
 21
8.7343533812
 31
0.0
  0
LINE
  5
E1
330
D8
100
AcDbEntity
  8
DIMS
100
AcDbLine
 10
17.8536140852
 20
9.2933811499
 30
0.0
 11
17.9369474176
 21
9.2933811499
 31
0.0
  0
LINE
  5
E2
330
D8
100
AcDbEntity
  8
DIMS
100
AcDbLine
 10
17.9369474176
 20
9.2933811499
 30
0.0
 11
17.9369474176
 21
8.7343533812
 31
0.0
  0
LINE
  5
E3
330
D8
100
AcDbEntity
  8
DIMS
100
AcDbLine
 10
17.9369474176
 20
8.7343533812
 30
0.0
 11
17.8536140852
 21
8.7343533812
 31
0.0
  0
LINE
  5
E4
330
D8
100
AcDbEntity
  8
DIMS
100
AcDbLine
 10
22.8099778426
 20
12.7207685044
 30
0.0
 11
21.5837853076
 21
13.9469610394
 31
0.0
  0
LINE
  5
E5
330
D8
100
AcDbEntity
  8
DIMS
100
AcDbLine
 10
11.1539602851
 20
3.3403593216
 30
0.0
 11
16.4709829051
 21
8.6573819417
 31
0.0
  0
LINE
  5
E6
330
D8
100
AcDbEntity
  8
DIMS
100
AcDbLine
 10
21.6721736552
 20
13.8585726918
 30
0.0
 11
18.194578538
 21
10.3809775745
 31
0.0
  0
MTEXT
  5
E7
330
D8
100
AcDbEntity
  8
DIMS
100
AcDbMText
 10
16.5543085679
 20
10.1152623913
 30
0.0039370079
 40
0.375
 41
0.0
 71
     1
 72
     1
  1
14
  7
SLDTEXTSTYLE0
 73
     1
 44
1.0
  0
MTEXT
  5
E8
330
D8
100
AcDbEntity
  8
DIMS
100
AcDbMText
 10
17.2161141259
 20
10.3707398667
 30
0.0039370079
 40
0.375
 41
0.0
 71
     1
 72
     1
  1
7
  7
SLDTEXTSTYLE0
 73
     1
 44
1.0
  0
MTEXT
  5
E9
330
D8
100
AcDbEntity
  8
DIMS
100
AcDbMText
 10
17.2161141259
 20
9.860114872
 30
0.0039370079
 40
0.375
 41
0.0
 71
     1
 72
     1
  1
8
  7
SLDTEXTSTYLE0
 73
     1
 44
1.0
  0
MTEXT
  5
EA
330
D8
100
AcDbEntity
  8
DIMS
100
AcDbMText
 10
17.600141873
 20
10.1152623913
 30
0.0039370079
 40
0.375
 41
0.0
 71
     1
 72
     1
  1
"
  7
SLDTEXTSTYLE0
 73
     1
 44
1.0
  0
MTEXT
  5
EB
330
D8
100
AcDbEntity
  8
DIMS
100
AcDbMText
 10
16.9161140599
 20
9.2177537927
 30
0.0039370079
 40
0.375
 41
0.0
 71
     1
 72
     1
  1
378
  7
SLDTEXTSTYLE0
 73
     1
 44
1.0
  0
ENDBLK
  5
DA
330
D8
100
AcDbEntity
  8
0
100
AcDbBlockEnd
  0
BLOCK
  5
EF
330
EE
100
AcDbEntity
  8
0
100
AcDbBlockBegin
  2
_D_7
 70
     0
 10
0.0
 20
0.0
 30
0.0
  3
_D_7
  1

  0
ARC
  5
F1
330
EE
100
AcDbEntity
  8
DIMS
100
AcDbCircle
 10
42.8210997502
 20
13.7460733371
 30
0.0
 40
1.499999999999998
100
AcDbArc
 50
46.909152433
 51
54.4014891747
  0
SOLID
  5
F2
330
EE
100
AcDbEntity
  8
DIMS
100
AcDbTrace
 10
43.7925248235
 20
14.8890227354
 30
0.0
 11
43.5141117713
 21
14.6479244954
 31
0.0
 12
43.5994551985
 22
14.575388699
 32
0.0
 13
43.5994551985
 23
14.575388699
 33
0.0
  0
LINE
  5
F3
330
EE
100
AcDbEntity
  8
DIMS
100
AcDbLine
 10
41.603974238
 20
14.0335667375
 30
0.0
 11
41.9880020216
 21
14.0335667375
 31
0.0
  0
LINE
  5
F4
330
EE
100
AcDbEntity
  8
DIMS
100
AcDbLine
 10
41.3501548147
 20
13.4077334313
 30
0.0
 11
41.2668214824
 21
13.4077334313
 31
0.0
  0
LINE
  5
F5
330
EE
100
AcDbEntity
  8
DIMS
100
AcDbLine
 10
41.2668214824
 20
13.4077334313
 30
0.0
 11
41.2668214824
 21
12.8487056626
 31
0.0
  0
LINE
  5
F6
330
EE
100
AcDbEntity
  8
DIMS
100
AcDbLine
 10
41.2668214824
 20
12.8487056626
 30
0.0
 11
41.3501548147
 21
12.8487056626
 31
0.0
  0
LINE
  5
F7
330
EE
100
AcDbEntity
  8
DIMS
100
AcDbLine
 10
42.1140436944
 20
13.4077334313
 30
0.0
 11
42.1973770267
 21
13.4077334313
 31
0.0
  0
LINE
  5
F8
330
EE
100
AcDbEntity
  8
DIMS
100
AcDbLine
 10
42.1973770267
 20
13.4077334313
 30
0.0
 11
42.1973770267
 21
12.8487056626
 31
0.0
  0
LINE
  5
F9
330
EE
100
AcDbEntity
  8
DIMS
100
AcDbLine
 10
42.1973770267
 20
12.8487056626
 30
0.0
 11
42.1140436944
 21
12.8487056626
 31
0.0
  0
LINE
  5
FA
330
EE
100
AcDbEntity
  8
DIMS
100
AcDbLine
 10
43.7925248235
 20
14.8890227354
 30
0.0
 11
42.8022382119
 21
13.7238814208
 31
0.0
  0
LINE
  5
FB
330
EE
100
AcDbEntity
  8
DIMS
100
AcDbLine
 10
42.8022382119
 20
13.7238814208
 30
0.0
 11
42.5522382119
 21
13.7238814208
 31
0.0
  0
MTEXT
  5
FC
330
EE
100
AcDbEntity
  8
DIMS
100
AcDbMText
 10
40.9119603338
 20
14.2296146727
 30
0.0039370079
 40
0.375
 41
0.0
 71
     1
 72
     1
  1
R1
  7
SLDTEXTSTYLE0
 73
     1
 44
1.0
  0
MTEXT
  5
FD
330
EE
100
AcDbEntity
  8
DIMS
100
AcDbMText
 10
41.6570992426
 20
14.4850921481
 30
0.0039370079
 40
0.375
 41
0.0
 71
     1
 72
     1
  1
1
  7
SLDTEXTSTYLE0
 73
     1
 44
1.0
  0
MTEXT
  5
FE
330
EE
100
AcDbEntity
  8
DIMS
100
AcDbMText
 10
41.6570992426
 20
13.9744671535
 30
0.0039370079
 40
0.375
 41
0.0
 71
     1
 72
     1
  1
2
  7
SLDTEXTSTYLE0
 73
     1
 44
1.0
  0
MTEXT
  5
FF
330
EE
100
AcDbEntity
  8
DIMS
100
AcDbMText
 10
42.0411270629
 20
14.2296146727
 30
0.0039370079
 40
0.375
 41
0.0
 71
     1
 72
     1
  1
"
  7
SLDTEXTSTYLE0
 73
     1
 44
1.0
  0
MTEXT
  5
100
330
EE
100
AcDbEntity
  8
DIMS
100
AcDbMText
 10
41.4543214801
 20
13.3321060742
 30
0.0039370079
 40
0.375
 41
0.0
 71
     1
 72
     1
  1
38
  7
SLDTEXTSTYLE0
 73
     1
 44
1.0
  0
ENDBLK
  5
F0
330
EE
100
AcDbEntity
  8
0
100
AcDbBlockEnd
  0
BLOCK
  5
102
330
101
100
AcDbEntity
  8
0
100
AcDbBlockBegin
  2
SW_NOTE_0
 70
     0
 10
0.0
 20
0.0
 30
0.0
  3
SW_NOTE_0
  1

  0
MTEXT
  5
104
330
101
100
AcDbEntity
  8
NOTES
 62
     0
100
AcDbMText
 10
0.0
 20
0.295411357
 30
0.0
 40
0.2291666667
 41
0.0
 71
     1
 72
     1
  1
NOTES:
  7
SLDTEXTSTYLE0
 73
     1
 44
1.0
  0
MTEXT
  5
105
330
101
100
AcDbEntity
  8
NOTES
 62
     0
100
AcDbMText
 10
0.3937007786
 20
-0.3156997467
 30
0.0
 40
0.2291666667
 41
0.0
 71
     1
 72
     1
  1
THOROUGHLY READ ALL  INSTALLATION INSTRUCTIONS
  7
SLDTEXTSTYLE0
 73
     1
 44
1.0
  0
MTEXT
  5
106
330
101
100
AcDbEntity
  8
NOTES
 62
     0
100
AcDbMText
 10
0.0
 20
-0.3156997467
 30
0.0
 40
0.2291666667
 41
0.0
 71
     1
 72
     1
  1
1.
  7
SLDTEXTSTYLE0
 73
     1
 44
1.0
  0
MTEXT
  5
107
330
101
100
AcDbEntity
  8
NOTES
 62
     0
100
AcDbMText
 10
0.0
 20
-0.6212552986
 30
0.0
 40
0.2291666667
 41
0.0
 71
     1
 72
     1
  1
BEFORE CUTTING COUNTERTOP.
  7
SLDTEXTSTYLE0
 73
     1
 44
1.0
  0
MTEXT
  5
108
330
101
100
AcDbEntity
  8
NOTES
 62
     0
100
AcDbMText
 10
0.0
 20
-1.2323664023
 30
0.0
 40
0.2291666667
 41
0.0
 71
     1
 72
     1
  1
2.  DIMENSIONS ARE IN INCHES [MM].
  7
SLDTEXTSTYLE0
 73
     1
 44
1.0
  0
MTEXT
  5
109
330
101
100
AcDbEntity
  8
NOTES
 62
     0
100
AcDbMText
 10
0.0
 20
-2.1490330579
 30
0.0
 40
0.2291666667
 41
0.0
 71
     1
 72
     1
  1
PLEASE CHECK TEMPLATE AGAINST PHYSICAL SINK FOR
  7
SLDTEXTSTYLE0
 73
     1
 44
1.0
  0
MTEXT
  5
10A
330
101
100
AcDbEntity
  8
NOTES
 62
     0
100
AcDbMText
 10
0.0
 20
-2.4545886097
 30
0.0
 40
0.2291666667
 41
0.0
 71
     1
 72
     1
  1
MOST ACCURATE CUT.
  7
SLDTEXTSTYLE0
 73
     1
 44
1.0
  0
MTEXT
  5
10B
330
101
100
AcDbEntity
  8
NOTES
 62
     0
100
AcDbMText
 10
0.0
 20
-3.6768108172
 30
0.0
 40
0.2291666667
 41
0.0
 71
     1
 72
     1
  1
NOTAS:
  7
SLDTEXTSTYLE0
 73
     1
 44
1.0
  0
MTEXT
  5
10C
330
101
100
AcDbEntity
  8
NOTES
 62
     0
100
AcDbMText
 10
0.0
 20
-4.2879219209
 30
0.0
 40
0.2291666667
 41
0.0
 71
     1
 72
     1
  1
1.  LEA ATENTAMENTE LAS INSTRUCCIONES DE
  7
SLDTEXTSTYLE0
 73
     1
 44
1.0
  0
MTEXT
  5
10D
330
101
100
AcDbEntity
  8
NOTES
 62
     0
100
AcDbMText
 10
0.0
 20
-4.5934774728
 30
0.0
 40
0.2291666667
 41
0.0
 71
     1
 72
     1
  1
INSTALACIÓN ANTES DE CORTAR LA ENCIMERA.
  7
SLDTEXTSTYLE0
 73
     1
 44
1.0
  0
MTEXT
  5
10E
330
101
100
AcDbEntity
  8
NOTES
 62
     0
100
AcDbMText
 10
0.0
 20
-5.2045885765
 30
0.0
 40
0.2291666667
 41
0.0
 71
     1
 72
     1
  1
2.  DIMENSIONES EN PULGADAS [MM].
  7
SLDTEXTSTYLE0
 73
     1
 44
1.0
  0
MTEXT
  5
10F
330
101
100
AcDbEntity
  8
NOTES
 62
     0
100
AcDbMText
 10
0.0
 20
-6.1212552321
 30
0.0
 40
0.2291666667
 41
0.0
 71
     1
 72
     1
  1
POR FAVOR COMPRUEBE PLANTILLA CONTRA
  7
SLDTEXTSTYLE0
 73
     1
 44
1.0
  0
MTEXT
  5
110
330
101
100
AcDbEntity
  8
NOTES
 62
     0
100
AcDbMText
 10
0.0
 20
-6.426810784
 30
0.0
 40
0.2291666667
 41
0.0
 71
     1
 72
     1
  1
FREGADERO FÍSICO PARA CORTE MÁS EXACTO.
  7
SLDTEXTSTYLE0
 73
     1
 44
1.0
  0
ENDBLK
  5
103
330
101
100
AcDbEntity
  8
0
100
AcDbBlockEnd
  0
BLOCK
  5
113
330
112
100
AcDbEntity
  8
0
100
AcDbBlockBegin
  2
SW_NOTE_1
 70
     0
 10
0.0
 20
0.0
 30
0.0
  3
SW_NOTE_1
  1

  0
MTEXT
  5
115
330
112
100
AcDbEntity
  8
NOTES
 62
     0
100
AcDbMText
 10
-0.8926447397
 20
0.6856543301
 30
0.0
 40
0.2083333333
 41
0.0
 71
     2
 72
     1
  1
TEMPLATE
  7
SLDTEXTSTYLE0
 73
     1
 44
1.0
  0
MTEXT
  5
116
330
112
100
AcDbEntity
  8
NOTES
 62
     0
100
AcDbMText
 10
-0.8895100695
 20
0.4078765557
 30
0.0
 40
0.2083333333
 41
0.0
 71
     2
 72
     1
  1
CENTERLINE
  7
SLDTEXTSTYLE0
 73
     1
 44
1.0
  0
MTEXT
  5
117
330
112
100
AcDbEntity
  8
NOTES
 62
     0
100
AcDbMText
 10
-0.8893895314
 20
-0.1476789932
 30
0.0
 40
0.2083333333
 41
0.0
 71
     2
 72
     1
  1
PLANTILLA
  7
SLDTEXTSTYLE0
 73
     1
 44
1.0
  0
MTEXT
  5
118
330
112
100
AcDbEntity
  8
NOTES
 62
     0
100
AcDbMText
 10
-0.8924035969
 20
-0.4254567676
 30
0.0
 40
0.2083333333
 41
0.0
 71
     2
 72
     1
  1
CENTRAL
  7
SLDTEXTSTYLE0
 73
     1
 44
1.0
  0
ENDBLK
  5
114
330
112
100
AcDbEntity
  8
0
100
AcDbBlockEnd
  0
BLOCK
  5
11E
330
11D
100
AcDbEntity
  8
0
100
AcDbBlockBegin
  2
SW_NOTE_2
 70
     0
 10
0.0
 20
0.0
 30
0.0
  3
SW_NOTE_2
  1

  0
MTEXT
  5
120
330
11D
100
AcDbEntity
  8
NOTES
 62
     0
100
AcDbMText
 10
6.0042317708
 20
0.9399452269
 30
0.0
 40
0.7291666667
 41
0.0
 71
     2
 72
     1
  1
TEMPLATE #: 1000001281
  7
SLDTEXTSTYLE0
 73
     1
 44
1.0
  0
MTEXT
  5
121
330
11D
100
AcDbEntity
  8
NOTES
 62
     0
100
AcDbMText
 10
6.0108620811
 20
-0.0221327521
 30
0.0
 40
0.5
 41
0.0
 71
     2
 72
     1
  1
TOP MOUNT TEMPLATE 32" X 32" W/ 17" BOWL
  7
SLDTEXTSTYLE0
 73
     1
 44
1.0
  0
ENDBLK
  5
11F
330
11D
100
AcDbEntity
  8
0
100
AcDbBlockEnd
  0
ENDSEC
  0
SECTION
  2
ENTITIES
  0
LINE
  5
4B
330
1F
100
AcDbEntity
  8
OBJECTS
100
AcDbLine
 10
22.8453331817
 20
25.1892235743
 30
0.0
 11
22.8453331817
 21
23.3247849366
 31
0.0
  0
LINE
  5
4C
330
1F
100
AcDbEntity
  8
OBJECTS
100
AcDbLine
 10
22.8453331817
 20
12.6854131653
 30
0.0
 11
22.8453331817
 21
15.0108771256
 31
0.0
  0
LINE
  5
4D
330
1F
100
AcDbEntity
  8
OBJECTS
100
AcDbLine
 10
12.1913965068
 20
25.1892235743
 30
0.0
 11
33.4992698565
 21
25.1892235743
 31
0.0
  0
LINE
  5
4E
330
1F
100
AcDbEntity
  8
OBJECTS
100
AcDbLine
 10
33.4992698565
 20
25.1892235743
 30
0.0
 11
43.881759922
 21
14.8067335089
 31
0.0
  0
LINE
  5
4F
330
1F
100
AcDbEntity
  8
OBJECTS
100
AcDbLine
 10
43.881759922
 20
12.6854131653
 30
0.0
 11
34.4242067236
 21
3.2278599669
 31
0.0
  0
LINE
  5
50
330
1F
100
AcDbEntity
  8
OBJECTS
100
AcDbLine
 10
22.8453331817
 20
12.6854131653
 30
0.0
 11
32.3028863801
 21
3.2278599669
 31
0.0
  0
LINE
  5
51
330
1F
100
AcDbEntity
  8
OBJECTS
100
AcDbLine
 10
22.8453331817
 20
12.6854131653
 30
0.0
 11
13.3877799833
 21
3.2278599669
 31
0.0
  0
LINE
  5
52
330
1F
100
AcDbEntity
  8
OBJECTS
100
AcDbLine
 10
1.8089064414
 20
12.6854131653
 30
0.0
 11
11.2664596398
 21
3.2278599669
 31
0.0
  0
LINE
  5
53
330
1F
100
AcDbEntity
  8
OBJECTS
100
AcDbLine
 10
12.1913965068
 20
25.1892235743
 30
0.0
 11
1.8089064414
 21
14.8067335089
 31
0.0
  0
ARC
  5
54
330
1F
100
AcDbEntity
  8
OBJECTS
100
AcDbCircle
 10
42.8210997502
 20
13.7460733371
 30
0.0
 40
1.499999999999994
100
AcDbArc
 50
315.0
 51
45.0
  0
ARC
  5
55
330
1F
100
AcDbEntity
  8
OBJECTS
100
AcDbCircle
 10
33.3635465518
 20
4.2885201387
 30
0.0
 40
1.5
100
AcDbArc
 50
225.0
 51
315.0
  0
ARC
  5
56
330
1F
100
AcDbEntity
  8
OBJECTS
100
AcDbCircle
 10
12.3271198115
 20
4.2885201387
 30
0.0
 40
1.500000000000001
100
AcDbArc
 50
225.0
 51
315.0
  0
ARC
  5
57
330
1F
100
AcDbEntity
  8
OBJECTS
100
AcDbCircle
 10
2.8695666132
 20
13.7460733371
 30
0.0
 40
1.500000000000002
100
AcDbArc
 50
135.0
 51
225.0
  0
DIMENSION
  5
58
330
1F
100
AcDbEntity
  8
DIMS
100
AcDbDimension
  2
_D
 10
13.4111856947
 20
3.2512656784
 30
0.0
 11
8.0678980505
 21
8.5945533226
 31
0.0
 70
   160
  1
<>
 71
     2
 42
-1.0
  3
SLDDIMSTYLE0
100
AcDbAlignedDimension
 13
1.8089064414
 23
14.8067335089
 33
0.0
 14
13.3877799833
 24
3.2278599669
 34
0.0
 50
-45.0
100
AcDbRotatedDimension
  0
DIMENSION
  5
6E
330
1F
100
AcDbEntity
  8
DIMS
100
AcDbDimension
  2
_D_1
 10
2.0176468064
 20
12.4766728003
 30
0.0
 11
8.0678980505
 21
18.5269240444
 31
0.0
 70
   160
  1
<>
 71
     2
 42
-1.0
  3
SLDDIMSTYLE0
100
AcDbAlignedDimension
 13
12.1913965068
 23
25.1892235743
 33
0.0
 14
1.8089064414
 24
12.6854131653
 34
0.0
 50
45.0
100
AcDbRotatedDimension
  0
DIMENSION
  5
83
330
1F
100
AcDbEntity
  8
DIMS
100
AcDbDimension
  2
_D_2
 10
33.4992698565
 20
23.7736227746
 30
0.0
 11
28.6515178667
 21
23.7736227746
 31
0.0
 70
   160
  1
<>
 71
     2
 42
-1.0
  3
SLDDIMSTYLE0
100
AcDbAlignedDimension
 13
12.1913965068
 23
25.1892235743
 33
0.0
 14
33.4992698565
 24
25.1892235743
 34
0.0
 50
0.0
100
AcDbRotatedDimension
  0
DIMENSION
  5
99
330
1F
100
AcDbEntity
  8
DIMS
100
AcDbDimension
  2
_D_3
 10
42.5414400682
 20
11.3450933115
 30
0.0
 11
36.1426722102
 21
17.7438611695
 31
0.0
 70
   160
  1
<>
 71
     2
 42
-1.0
  3
SLDDIMSTYLE0
100
AcDbAlignedDimension
 13
33.4992698565
 23
25.1892235743
 33
0.0
 14
43.881759922
 24
12.6854131653
 34
0.0
 50
-45.0
100
AcDbRotatedDimension
  0
DIMENSION
  5
AE
330
1F
100
AcDbEntity
  8
DIMS
100
AcDbDimension
  2
_D_4
 10
30.7338754069
 20
4.79687094
 30
0.0
 11
36.1426722102
 21
10.2056677434
 31
0.0
 70
   160
  1
<>
 71
     2
 42
-1.0
  3
SLDDIMSTYLE0
100
AcDbAlignedDimension
 13
43.881759922
 23
14.8067335089
 33
0.0
 14
32.3028863801
 24
3.2278599669
 34
0.0
 50
45.0
100
AcDbRotatedDimension
  0
DIMENSION
  5
C2
330
1F
100
AcDbEntity
  8
DIMS
100
AcDbDimension
  2
_D_5
 10
24.1813444779
 20
14.0214244615
 30
0.0
 11
29.073098127
 21
9.1296708124
 31
0.0
 70
   160
  1
<>
 71
     2
 42
-1.0
  3
SLDDIMSTYLE0
100
AcDbAlignedDimension
 13
34.4242067236
 23
3.2278599669
 33
0.0
 14
22.8453331817
 24
12.6854131653
 34
0.0
 50
-45.0
100
AcDbRotatedDimension
  0
DIMENSION
  5
D7
330
1F
100
AcDbEntity
  8
DIMS
100
AcDbDimension
  2
_D_6
 10
21.6721736552
 20
13.8585726918
 30
0.0
 11
17.3327807215
 21
9.5191797581
 31
0.0
 70
   160
  1
<>
 71
     2
 42
-1.0
  3
SLDDIMSTYLE0
100
AcDbAlignedDimension
 13
11.2664596398
 23
3.2278599669
 33
0.0
 14
22.8453331817
 24
12.6854131653
 34
0.0
 50
45.0
100
AcDbRotatedDimension
  0
DIMENSION
  5
EC
330
1F
100
AcDbEntity
  8
DIMS
100
AcDbDimension
  2
_D_7
 10
42.8210997502
 20
13.7460733371
 30
0.0
 11
41.7320992729
 21
13.6335320395
 31
0.0
 70
   164
  1
<>
 71
     1
 42
-1.0
  3
SLDDIMSTYLE1
100
AcDbRadialDimension
 15
43.7925248235
 25
14.8890227354
 35
0.0
 40
0.0
  0
INSERT
  5
111
330
1F
100
AcDbEntity
  8
NOTES
100
AcDbBlockReference
  2
SW_NOTE_0
 10
23.2825225457
 20
21.6511527897
 30
0.0
  0
INSERT
  5
119
102
{ACAD_REACTORS
330
11B
330
11C
102
}
330
1F
100
AcDbEntity
  8
NOTES
100
AcDbBlockReference
  2
SW_NOTE_1
 10
18.469054126
 20
19.1619088851
 30
0.0
  0
LEADER
  5
11B
330
1F
100
AcDbEntity
  8
NOTES
100
AcDbLeader
  3
SLDDIMSTYLE2
 73
     2
 76
     3
 10
22.8453331817
 20
23.3247849366
 30
0.0
 10
18.719054126
 20
19.1619088851
 30
0.0
 10
18.469054126
 20
19.1619088851
 30
0.0
340
119
  0
LEADER
  5
11C
330
1F
100
AcDbEntity
  8
NOTES
100
AcDbLeader
  3
SLDDIMSTYLE2
 73
     2
 76
     3
 10
22.8453331817
 20
15.0108771256
 30
0.0
 10
18.719054126
 20
19.1619088851
 30
0.0
 10
18.469054126
 20
19.1619088851
 30
0.0
340
119
  0
INSERT
  5
122
330
1F
100
AcDbEntity
  8
NOTES
100
AcDbBlockReference
  2
SW_NOTE_2
 10
7.235423544
 20
14.7872643027
 30
0.0
  0
ENDSEC
  0
SECTION
  2
OBJECTS
  0
DICTIONARY
  5
C
330
0
100
AcDbDictionary
281
     1
  3
ACAD_GROUP
350
D
  3
ACAD_LAYOUT
350
1A
  3
ACAD_MLINESTYLE
350
17
  3
ACAD_PLOTSETTINGS
350
19
  3
ACAD_PLOTSTYLENAME
350
E
  0
DICTIONARY
  5
D
102
{ACAD_REACTORS
330
C
102
}
330
C
100
AcDbDictionary
281
     1
  0
DICTIONARY
  5
1A
102
{ACAD_REACTORS
330
C
102
}
330
C
100
AcDbDictionary
281
     1
  3
Layout1
350
1E
  3
Layout2
350
26
  3
Model
350
22
  0
DICTIONARY
  5
17
102
{ACAD_REACTORS
330
C
102
}
330
C
100
AcDbDictionary
281
     1
  3
Standard
350
18
  0
DICTIONARY
  5
19
102
{ACAD_REACTORS
330
C
102
}
330
C
100
AcDbDictionary
281
     1
  0
ACDBDICTIONARYWDFLT
  5
E
102
{ACAD_REACTORS
330
C
102
}
330
C
100
AcDbDictionary
281
     1
  3
Normal
350
F
100
AcDbDictionaryWithDefault
340
F
  0
LAYOUT
  5
1E
102
{ACAD_REACTORS
330
1A
102
}
330
1A
100
AcDbPlotSettings
  1

  2
none_device
  4

  6

 40
0.0
 41
0.0
 42
0.0
 43
0.0
 44
0.0
 45
0.0
 46
0.0
 47
0.0
 48
0.0
 49
0.0
140
0.0
141
0.0
142
1.0
143
1.0
 70
   688
 72
     0
 73
     0
 74
     5
  7

 75
    16
147
1.0
148
0.0
149
0.0
100
AcDbLayout
  1
Layout1
 70
     1
 71
     1
 10
0.0
 20
0.0
 11
12.0
 21
9.0
 12
0.0
 22
0.0
 32
0.0
 14
1.0000000000E+20
 24
1.0000000000E+20
 34
1.0000000000E+20
 15
-1.0000000000E+20
 25
-1.0000000000E+20
 35
-1.0000000000E+20
146
0.0
 13
0.0
 23
0.0
 33
0.0
 16
1.0
 26
0.0
 36
0.0
 17
0.0
 27
1.0
 37
0.0
 76
     0
330
1B
  0
LAYOUT
  5
26
102
{ACAD_REACTORS
330
1A
102
}
330
1A
100
AcDbPlotSettings
  1

  2
none_device
  4

  6

 40
0.0
 41
0.0
 42
0.0
 43
0.0
 44
0.0
 45
0.0
 46
0.0
 47
0.0
 48
0.0
 49
0.0
140
0.0
141
0.0
142
1.0
143
1.0
 70
   688
 72
     0
 73
     0
 74
     5
  7

 75
    16
147
1.0
148
0.0
149
0.0
100
AcDbLayout
  1
Layout2
 70
     1
 71
     2
 10
0.0
 20
0.0
 11
0.0
 21
0.0
 12
0.0
 22
0.0
 32
0.0
 14
0.0
 24
0.0
 34
0.0
 15
0.0
 25
0.0
 35
0.0
146
0.0
 13
0.0
 23
0.0
 33
0.0
 16
1.0
 26
0.0
 36
0.0
 17
0.0
 27
1.0
 37
0.0
 76
     0
330
23
  0
LAYOUT
  5
22
102
{ACAD_REACTORS
330
1A
102
}
330
1A
100
AcDbPlotSettings
  1

  2
none_device
  4

  6

 40
0.0
 41
0.0
 42
0.0
 43
0.0
 44
0.0
 45
0.0
 46
0.0
 47
0.0
 48
0.0
 49
0.0
140
0.0
141
0.0
142
1.0
143
1.0
 70
  1712
 72
     0
 73
     0
 74
     0
  7

 75
     0
147
1.0
148
0.0
149
0.0
100
AcDbLayout
  1
Model
 70
     1
 71
     0
 10
0.0
 20
0.0
 11
50.0
 21
36.0
 12
0.0
 22
0.0
 32
0.0
 14
0.0
 24
0.0
 34
0.0
 15
50.0
 25
36.0
 35
0.0
146
0.0
 13
0.0
 23
0.0
 33
0.0
 16
1.0
 26
0.0
 36
0.0
 17
0.0
 27
1.0
 37
0.0
 76
     0
330
1F
331
29
  0
MLINESTYLE
  5
18
102
{ACAD_REACTORS
330
17
102
}
330
17
100
AcDbMlineStyle
  2
Standard
 70
     0
  3

 62
   256
 51
90.0
 52
90.0
 71
     2
 49
0.5
 62
   256
  6
BYLAYER
 49
-0.5
 62
   256
  6
BYLAYER
  0
ACDBPLACEHOLDER
  5
F
102
{ACAD_REACTORS
330
E
102
}
330
E
  0
ENDSEC
  0
EOF
