  0
SECTION
  2
HEADER
  9
$ACADVER
  1
AC1015
  9
$ACADMAINTVER
 70
     6
  9
$DWGCODEPAGE
  3
ANSI_1252
  9
$INSBASE
 10
0.0
 20
0.0
 30
0.0
  9
$EXTMIN
 10
0.0
 20
0.0
 30
0.0
  9
$EXTMAX
 10
34.0
 20
26.0
 30
0.0
  9
$LIMMIN
 10
0.0
 20
0.0
  9
$LIMMAX
 10
34.0
 20
26.0
  9
$ORTHOMODE
 70
     0
  9
$REGENMODE
 70
     1
  9
$FILLMODE
 70
     1
  9
$QTEXTMODE
 70
     0
  9
$MIRRTEXT
 70
     1
  9
$LTSCALE
 40
1.0
  9
$ATTMODE
 70
     1
  9
$TEXTSIZE
 40
0.2777777778
  9
$TRACEWID
 40
0.05
  9
$TEXTSTYLE
  7
Standard
  9
$CLAYER
  8
0
  9
$CELTYPE
  6
ByLayer
  9
$CECOLOR
 62
   256
  9
$CELTSCALE
 40
1.0
  9
$DISPSILH
 70
     0
  9
$DIMSCALE
 40
1.0
  9
$DIMASZ
 40
0.3640136719
  9
$DIMEXO
 40
0.05
  9
$DIMDLI
 40
0.38
  9
$DIMRND
 40
0.0
  9
$DIMDLE
 40
0.0
  9
$DIMEXE
 40
0.125
  9
$DIMTP
 40
0.0
  9
$DIMTM
 40
0.0
  9
$DIMTXT
 40
0.5
  9
$DIMCEN
 40
0.09
  9
$DIMTSZ
 40
0.0
  9
$DIMTOL
 70
     0
  9
$DIMLIM
 70
     0
  9
$DIMTIH
 70
     1
  9
$DIMTOH
 70
     1
  9
$DIMSE1
 70
     0
  9
$DIMSE2
 70
     0
  9
$DIMTAD
 70
     0
  9
$DIMZIN
 70
     0
  9
$DIMBLK
  1

  9
$DIMASO
 70
     1
  9
$DIMSHO
 70
     1
  9
$DIMPOST
  1

  9
$DIMAPOST
  1

  9
$DIMALT
 70
     0
  9
$DIMALTD
 70
     2
  9
$DIMALTF
 40
25.4
  9
$DIMLFAC
 40
1.0
  9
$DIMTOFL
 70
     0
  9
$DIMTVP
 40
0.0
  9
$DIMTIX
 70
     0
  9
$DIMSOXD
 70
     0
  9
$DIMSAH
 70
     0
  9
$DIMBLK1
  1

  9
$DIMBLK2
  1

  9
$DIMSTYLE
  2
Standard
  9
$DIMCLRD
 70
     0
  9
$DIMCLRE
 70
     0
  9
$DIMCLRT
 70
     0
  9
$DIMTFAC
 40
1.0
  9
$DIMGAP
 40
0.06
  9
$DIMJUST
 70
     0
  9
$DIMSD1
 70
     0
  9
$DIMSD2
 70
     0
  9
$DIMTOLJ
 70
     1
  9
$DIMTZIN
 70
     0
  9
$DIMALTZ
 70
     0
  9
$DIMALTTZ
 70
     0
  9
$DIMUPT
 70
     0
  9
$DIMDEC
 70
     3
  9
$DIMTDEC
 70
     3
  9
$DIMALTU
 70
     2
  9
$DIMALTTD
 70
     2
  9
$DIMTXSTY
  7
Standard
  9
$DIMAUNIT
 70
     0
  9
$DIMADEC
 70
     1
  9
$DIMALTRND
 40
0.0
  9
$DIMAZIN
 70
     0
  9
$DIMDSEP
 70
    46
  9
$DIMATFIT
 70
     3
  9
$DIMFRAC
 70
     0
  9
$DIMLDRBLK
  1

  9
$DIMLUNIT
 70
     2
  9
$DIMLWD
 70
    -2
  9
$DIMLWE
 70
    -2
  9
$DIMTMOVE
 70
     0
  9
$LUNITS
 70
     2
  9
$LUPREC
 70
     3
  9
$SKETCHINC
 40
0.1
  9
$FILLETRAD
 40
0.5
  9
$AUNITS
 70
     0
  9
$AUPREC
 70
     1
  9
$MENU
  1
.
  9
$ELEVATION
 40
0.0
  9
$PELEVATION
 40
0.0
  9
$THICKNESS
 40
0.0
  9
$LIMCHECK
 70
     0
  9
$CHAMFERA
 40
0.5
  9
$CHAMFERB
 40
0.5
  9
$CHAMFERC
 40
1.0
  9
$CHAMFERD
 40
0.0
  9
$SKPOLY
 70
     0
  9
$TDCREATE
 40
2456786.437396169
  9
$TDUCREATE
 40
2456786.645729502
  9
$TDUPDATE
 40
2456786.437396597
  9
$TDUUPDATE
 40
2456786.645729931
  9
$TDINDWG
 40
0.0000000116
  9
$TDUSRTIMER
 40
0.0000000116
  9
$USRTIMER
 70
     1
  9
$ANGBASE
 50
0.0
  9
$ANGDIR
 70
     0
  9
$PDMODE
 70
     0
  9
$PDSIZE
 40
-1.0
  9
$PLINEWID
 40
0.0
  9
$SPLFRAME
 70
     0
  9
$SPLINETYPE
 70
     6
  9
$SPLINESEGS
 70
     8
  9
$HANDSEED
  5
B4
  9
$SURFTAB1
 70
     6
  9
$SURFTAB2
 70
     6
  9
$SURFTYPE
 70
     6
  9
$SURFU
 70
     6
  9
$SURFV
 70
     6
  9
$UCSBASE
  2

  9
$UCSNAME
  2

  9
$UCSORG
 10
0.0
 20
0.0
 30
0.0
  9
$UCSXDIR
 10
1.0
 20
0.0
 30
0.0
  9
$UCSYDIR
 10
0.0
 20
1.0
 30
0.0
  9
$UCSORTHOREF
  2

  9
$UCSORTHOVIEW
 70
     0
  9
$UCSORGTOP
 10
0.0
 20
0.0
 30
0.0
  9
$UCSORGBOTTOM
 10
0.0
 20
0.0
 30
0.0
  9
$UCSORGLEFT
 10
0.0
 20
0.0
 30
0.0
  9
$UCSORGRIGHT
 10
0.0
 20
0.0
 30
0.0
  9
$UCSORGFRONT
 10
0.0
 20
0.0
 30
0.0
  9
$UCSORGBACK
 10
0.0
 20
0.0
 30
0.0
  9
$PUCSBASE
  2

  9
$PUCSNAME
  2

  9
$PUCSORG
 10
0.0
 20
0.0
 30
0.0
  9
$PUCSXDIR
 10
1.0
 20
0.0
 30
0.0
  9
$PUCSYDIR
 10
0.0
 20
1.0
 30
0.0
  9
$PUCSORTHOREF
  2

  9
$PUCSORTHOVIEW
 70
     0
  9
$PUCSORGTOP
 10
0.0
 20
0.0
 30
0.0
  9
$PUCSORGBOTTOM
 10
0.0
 20
0.0
 30
0.0
  9
$PUCSORGLEFT
 10
0.0
 20
0.0
 30
0.0
  9
$PUCSORGRIGHT
 10
0.0
 20
0.0
 30
0.0
  9
$PUCSORGFRONT
 10
0.0
 20
0.0
 30
0.0
  9
$PUCSORGBACK
 10
0.0
 20
0.0
 30
0.0
  9
$USERI1
 70
     0
  9
$USERI2
 70
     0
  9
$USERI3
 70
     0
  9
$USERI4
 70
     0
  9
$USERI5
 70
     0
  9
$USERR1
 40
0.0
  9
$USERR2
 40
0.0
  9
$USERR3
 40
0.0
  9
$USERR4
 40
0.0
  9
$USERR5
 40
0.0
  9
$WORLDVIEW
 70
     1
  9
$SHADEDGE
 70
     3
  9
$SHADEDIF
 70
    70
  9
$TILEMODE
 70
     1
  9
$MAXACTVP
 70
    64
  9
$PINSBASE
 10
0.0
 20
0.0
 30
0.0
  9
$PLIMCHECK
 70
     0
  9
$PEXTMIN
 10
1.0000000000E+20
 20
1.0000000000E+20
 30
1.0000000000E+20
  9
$PEXTMAX
 10
-1.0000000000E+20
 20
-1.0000000000E+20
 30
-1.0000000000E+20
  9
$PLIMMIN
 10
0.0
 20
0.0
  9
$PLIMMAX
 10
12.0
 20
9.0
  9
$UNITMODE
 70
     0
  9
$VISRETAIN
 70
     1
  9
$PLINEGEN
 70
     0
  9
$PSLTSCALE
 70
     1
  9
$TREEDEPTH
 70
  3020
  9
$CMLSTYLE
  2
Standard
  9
$CMLJUST
 70
     0
  9
$CMLSCALE
 40
1.0
  9
$PROXYGRAPHICS
 70
     1
  9
$MEASUREMENT
 70
     0
  9
$CELWEIGHT
370
    -1
  9
$ENDCAPS
280
     0
  9
$JOINSTYLE
280
     0
  9
$LWDISPLAY
290
     1
  9
$INSUNITS
 70
     1
  9
$HYPERLINKBASE
  1

  9
$STYLESHEET
  1

  9
$XEDIT
290
     1
  9
$CEPSNTYPE
380
     0
  9
$PSTYLEMODE
290
     1
  9
$FINGERPRINTGUID
  2
{8170D93B-862C-4943-A2E1-9D0384330811}
  9
$VERSIONGUID
  2
{FAEB1C32-E019-11D5-929B-00C0DF256EC4}
  9
$EXTNAMES
290
     1
  9
$PSVPSCALE
 40
0.0
  9
$OLESTARTUP
290
     0
  0
ENDSEC
  0
SECTION
  2
CLASSES
  0
CLASS
  1
ACDBDICTIONARYWDFLT
  2
AcDbDictionaryWithDefault
  3
ObjectDBX Classes
 90
        0
280
     0
281
     0
  0
CLASS
  1
VISUALSTYLE
  2
AcDbVisualStyle
  3
ObjectDBX Classes
 90
     4095
280
     0
281
     0
  0
CLASS
  1
MATERIAL
  2
AcDbMaterial
  3
ObjectDBX Classes
 90
     1153
280
     0
281
     0
  0
CLASS
  1
ACDBPLACEHOLDER
  2
AcDbPlaceHolder
  3
ObjectDBX Classes
 90
        0
280
     0
281
     0
  0
CLASS
  1
LAYOUT
  2
AcDbLayout
  3
ObjectDBX Classes
 90
        0
280
     0
281
     0
  0
ENDSEC
  0
SECTION
  2
TABLES
  0
TABLE
  2
VPORT
  5
8
330
0
100
AcDbSymbolTable
 70
     1
  0
VPORT
  5
29
330
8
100
AcDbSymbolTableRecord
100
AcDbViewportTableRecord
  2
*Active
 70
     0
 10
0.0
 20
0.0
 11
1.0
 21
1.0
 12
17.0
 22
13.0
 13
0.0
 23
0.0
 14
0.5
 24
0.5
 15
0.5
 25
0.5
 16
0.0
 26
0.0
 36
1.0
 17
0.0
 27
0.0
 37
0.0
 40
26.0
 41
1.3076923077
 42
50.0
 43
0.0
 44
0.0
 50
0.0
 51
0.0
 71
     0
 72
  2000
 73
     1
 74
     3
 75
     0
 76
     0
 77
     0
 78
     0
281
     0
 65
     1
110
0.0
120
0.0
130
0.0
111
1.0
121
0.0
131
0.0
112
0.0
122
1.0
132
0.0
 79
     0
146
0.0
  0
ENDTAB
  0
TABLE
  2
LTYPE
  5
5
330
0
100
AcDbSymbolTable
 70
     6
  0
LTYPE
  5
14
330
5
100
AcDbSymbolTableRecord
100
AcDbLinetypeTableRecord
  2
ByBlock
 70
     0
  3

 72
    65
 73
     0
 40
0.0
  0
LTYPE
  5
15
330
5
100
AcDbSymbolTableRecord
100
AcDbLinetypeTableRecord
  2
ByLayer
 70
     0
  3

 72
    65
 73
     0
 40
0.0
  0
LTYPE
  5
16
330
5
100
AcDbSymbolTableRecord
100
AcDbLinetypeTableRecord
  2
Continuous
 70
     0
  3
Solid line
 72
    65
 73
     0
 40
0.0
  0
LTYPE
  5
3F
330
5
100
AcDbSymbolTableRecord
100
AcDbLinetypeTableRecord
  2
HIDDEN
 70
     0
  3
Hidden __ __ __ __ __ __ __ __ __ __ __ __ __ __
 72
    65
 73
     2
 40
0.075
 49
0.05
 74
     0
 49
-0.025
 74
     0
  0
LTYPE
  5
40
330
5
100
AcDbSymbolTableRecord
100
AcDbLinetypeTableRecord
  2
PHANTOM
 70
     0
  3
Phantom ______  __  __  ______  __  __  ______
 72
    65
 73
     6
 40
0.5
 49
0.25
 74
     0
 49
-0.05
 74
     0
 49
0.05
 74
     0
 49
-0.05
 74
     0
 49
0.05
 74
     0
 49
-0.05
 74
     0
  0
LTYPE
  5
41
330
5
100
AcDbSymbolTableRecord
100
AcDbLinetypeTableRecord
  2
CENTER
 70
     0
  3
Center ____ _ ____ _ ____ _ ____ _ ____ _ ____
 72
    65
 73
     4
 40
0.4
 49
0.25
 74
     0
 49
-0.05
 74
     0
 49
0.05
 74
     0
 49
-0.05
 74
     0
  0
LTYPE
  5
42
330
5
100
AcDbSymbolTableRecord
100
AcDbLinetypeTableRecord
  2
CENTERX2
 70
     0
  3
Center (2x) ________  __  ________  __  _____
 72
    65
 73
     4
 40
0.8
 49
0.5
 74
     0
 49
-0.1
 74
     0
 49
0.1
 74
     0
 49
-0.1
 74
     0
  0
LTYPE
  5
43
330
5
100
AcDbSymbolTableRecord
100
AcDbLinetypeTableRecord
  2
DOT2
 70
     0
  3
Dot (.5x) ........................................
 72
    65
 73
     2
 40
0.025
 49
0.0
 74
     0
 49
-0.025
 74
     0
  0
ENDTAB
  0
TABLE
  2
LAYER
  5
2
330
0
100
AcDbSymbolTable
 70
     8
  0
LAYER
  5
10
330
2
100
AcDbSymbolTableRecord
100
AcDbLayerTableRecord
  2
0
 70
     0
 62
     7
  6
Continuous
370
    -3
390
F
  0
LAYER
  5
44
330
2
100
AcDbSymbolTableRecord
100
AcDbLayerTableRecord
  2
SLD-0
 70
     0
 62
   179
  6
Continuous
370
    -3
390
F
  0
LAYER
  5
45
330
2
100
AcDbSymbolTableRecord
100
AcDbLayerTableRecord
  2
OBJECTS
 70
     0
 62
     5
  6
Continuous
370
    -3
390
F
  0
LAYER
  5
46
330
2
100
AcDbSymbolTableRecord
100
AcDbLayerTableRecord
  2
DIMS
 70
     0
 62
     1
  6
Continuous
370
    -3
390
F
  0
LAYER
  5
47
330
2
100
AcDbSymbolTableRecord
100
AcDbLayerTableRecord
  2
NOTES
 70
     0
 62
     7
  6
Continuous
370
    -3
390
F
  0
LAYER
  5
48
330
2
100
AcDbSymbolTableRecord
100
AcDbLayerTableRecord
  2
IMAGES
 70
     0
 62
     7
  6
Continuous
370
    -3
390
F
  0
LAYER
  5
49
330
2
100
AcDbSymbolTableRecord
100
AcDbLayerTableRecord
  2
CENTERLINES
 70
     0
 62
     7
  6
HIDDEN
370
    -3
390
F
  0
LAYER
  5
4A
330
2
100
AcDbSymbolTableRecord
100
AcDbLayerTableRecord
  2
BLOCKS
 70
     0
 62
    16
  6
Continuous
370
    -3
390
F
  0
ENDTAB
  0
TABLE
  2
STYLE
  5
3
330
0
100
AcDbSymbolTable
 70
     2
  0
STYLE
  5
11
330
3
100
AcDbSymbolTableRecord
100
AcDbTextStyleTableRecord
  2
Standard
 70
     0
 40
0.0
 41
1.0
 50
0.0
 71
     0
 42
0.2777777778
  3
txt
  4

  0
STYLE
  5
58
330
3
100
AcDbSymbolTableRecord
100
AcDbTextStyleTableRecord
  2
SLDTEXTSTYLE0
 70
     0
 40
0.0
 41
0.605
 50
0.0
 71
     0
 42
0.2
  3
TXT
  4

  0
ENDTAB
  0
TABLE
  2
VIEW
  5
6
330
0
100
AcDbSymbolTable
 70
     0
  0
ENDTAB
  0
TABLE
  2
UCS
  5
7
330
0
100
AcDbSymbolTable
 70
     0
  0
ENDTAB
  0
TABLE
  2
APPID
  5
9
330
0
100
AcDbSymbolTable
 70
     1
  0
APPID
  5
12
330
9
100
AcDbSymbolTableRecord
100
AcDbRegAppTableRecord
  2
ACAD
 70
     0
  0
ENDTAB
  0
TABLE
  2
DIMSTYLE
  5
A
330
0
100
AcDbSymbolTable
 70
     4
100
AcDbDimStyleTable
  0
DIMSTYLE
105
27
330
A
100
AcDbSymbolTableRecord
100
AcDbDimStyleTableRecord
  2
Standard
 70
     0
178
     0
340
11
  0
DIMSTYLE
105
59
102
{ACAD_REACTORS
330
57
330
81
102
}
330
A
100
AcDbSymbolTableRecord
100
AcDbDimStyleTableRecord
  2
SLDDIMSTYLE0
 70
     0
 41
0.3640136719
 44
0.0
 45
0.000000001
 78
    12
 79
     3
140
0.3640136719
147
0.091003418
148
0.000000001
170
     1
171
     0
173
     1
178
     0
271
     3
272
     3
274
     0
276
     2
277
     5
284
    12
340
58
  0
DIMSTYLE
105
6E
102
{ACAD_REACTORS
330
6D
102
}
330
A
100
AcDbSymbolTableRecord
100
AcDbDimStyleTableRecord
  2
SLDDIMSTYLE1
 70
     0
 41
0.3640136719
 44
0.0
 45
0.000000001
 78
    12
 79
     3
140
0.3640136719
141
0.0
147
0.091003418
148
0.000000001
170
     1
171
     0
173
     1
178
     0
271
     3
272
     3
274
     0
276
     2
277
     5
279
     1
284
    12
340
58
  0
DIMSTYLE
105
AB
330
A
100
AcDbSymbolTableRecord
100
AcDbDimStyleTableRecord
  2
SLDDIMSTYLE2
 70
     0
 41
0.3640136719
 44
0.0
 45
0.000000001
140
0.0
146
0.3640136719
147
0.0
173
     1
178
     0
271
     0
272
     0
276
     2
277
     5
340
11
  0
ENDTAB
  0
TABLE
  2
BLOCK_RECORD
  5
1
330
0
100
AcDbSymbolTable
 70
     7
  0
BLOCK_RECORD
  5
1F
330
1
100
AcDbSymbolTableRecord
100
AcDbBlockTableRecord
  2
*Model_Space
340
22
  0
BLOCK_RECORD
  5
1B
330
1
100
AcDbSymbolTableRecord
100
AcDbBlockTableRecord
  2
*Paper_Space
340
1E
  0
BLOCK_RECORD
  5
23
330
1
100
AcDbSymbolTableRecord
100
AcDbBlockTableRecord
  2
*Paper_Space0
340
26
  0
BLOCK_RECORD
  5
5A
330
1
100
AcDbSymbolTableRecord
100
AcDbBlockTableRecord
  2
_D
340
0
  0
BLOCK_RECORD
  5
6F
330
1
100
AcDbSymbolTableRecord
100
AcDbBlockTableRecord
  2
_D_1
340
0
  0
BLOCK_RECORD
  5
82
330
1
100
AcDbSymbolTableRecord
100
AcDbBlockTableRecord
  2
_D_2
340
0
  0
BLOCK_RECORD
  5
95
330
1
100
AcDbSymbolTableRecord
100
AcDbBlockTableRecord
  2
SW_NOTE_0
340
0
102
{BLKREFS
331
A2
102
}
  0
BLOCK_RECORD
  5
A3
330
1
100
AcDbSymbolTableRecord
100
AcDbBlockTableRecord
  2
SW_NOTE_1
340
0
102
{BLKREFS
331
AA
102
}
  0
BLOCK_RECORD
  5
AE
330
1
100
AcDbSymbolTableRecord
100
AcDbBlockTableRecord
  2
SW_NOTE_2
340
0
102
{BLKREFS
331
B3
102
}
  0
ENDTAB
  0
ENDSEC
  0
SECTION
  2
BLOCKS
  0
BLOCK
  5
20
330
1F
100
AcDbEntity
  8
0
100
AcDbBlockBegin
  2
*Model_Space
 70
     0
 10
0.0
 20
0.0
 30
0.0
  3
*Model_Space
  1

  0
ENDBLK
  5
21
330
1F
100
AcDbEntity
  8
0
100
AcDbBlockEnd
  0
BLOCK
  5
1C
330
1B
100
AcDbEntity
 67
     1
  8
0
100
AcDbBlockBegin
  2
*Paper_Space
 70
     0
 10
0.0
 20
0.0
 30
0.0
  3
*Paper_Space
  1

  0
ENDBLK
  5
1D
330
1B
100
AcDbEntity
 67
     1
  8
0
100
AcDbBlockEnd
  0
BLOCK
  5
24
330
23
100
AcDbEntity
  8
0
100
AcDbBlockBegin
  2
*Paper_Space0
 70
     0
 10
0.0
 20
0.0
 30
0.0
  3
*Paper_Space0
  1

  0
ENDBLK
  5
25
330
23
100
AcDbEntity
  8
0
100
AcDbBlockEnd
  0
BLOCK
  5
5B
330
5A
100
AcDbEntity
  8
0
100
AcDbBlockBegin
  2
_D
 70
     0
 10
0.0
 20
0.0
 30
0.0
  3
_D
  1

  0
SOLID
  5
5D
330
5A
100
AcDbEntity
  8
DIMS
100
AcDbTrace
 10
29.1683051223
 20
21.7312593875
 30
0.0
 11
29.1123030189
 21
21.3672457157
 31
0.0
 12
29.2243072257
 22
21.3672457157
 32
0.0
 13
29.2243072257
 23
21.3672457157
 33
0.0
  0
SOLID
  5
5E
330
5A
100
AcDbEntity
  8
DIMS
100
AcDbTrace
 10
29.1683051223
 20
4.3562593875
 30
0.0
 11
29.2243072257
 21
4.7202730594
 31
0.0
 12
29.1123030189
 22
4.7202730594
 32
0.0
 13
29.1123030189
 23
4.7202730594
 33
0.0
  0
LINE
  5
5F
330
5A
100
AcDbEntity
  8
DIMS
100
AcDbLine
 10
28.9985135221
 20
10.5749998128
 30
0.0
 11
29.3825413058
 21
10.5749998128
 31
0.0
  0
LINE
  5
60
330
5A
100
AcDbEntity
  8
DIMS
100
AcDbLine
 10
28.6474717953
 20
9.9491665067
 30
0.0
 11
28.5641384629
 21
9.9491665067
 31
0.0
  0
LINE
  5
61
330
5A
100
AcDbEntity
  8
DIMS
100
AcDbLine
 10
28.5641384629
 20
9.9491665067
 30
0.0
 11
28.5641384629
 21
9.390138738
 31
0.0
  0
LINE
  5
62
330
5A
100
AcDbEntity
  8
DIMS
100
AcDbLine
 10
28.5641384629
 20
9.390138738
 30
0.0
 11
28.6474717953
 21
9.390138738
 31
0.0
  0
LINE
  5
63
330
5A
100
AcDbEntity
  8
DIMS
100
AcDbLine
 10
29.689138486
 20
9.9491665067
 30
0.0
 11
29.7724718183
 21
9.9491665067
 31
0.0
  0
LINE
  5
64
330
5A
100
AcDbEntity
  8
DIMS
100
AcDbLine
 10
29.7724718183
 20
9.9491665067
 30
0.0
 11
29.7724718183
 21
9.390138738
 31
0.0
  0
LINE
  5
65
330
5A
100
AcDbEntity
  8
DIMS
100
AcDbLine
 10
29.7724718183
 20
9.390138738
 30
0.0
 11
29.689138486
 21
9.390138738
 31
0.0
  0
LINE
  5
66
330
5A
100
AcDbEntity
  8
DIMS
100
AcDbLine
 10
29.1683051223
 20
21.7312593875
 30
0.0
 11
29.1683051223
 21
11.0431248059
 31
0.0
  0
LINE
  5
67
330
5A
100
AcDbEntity
  8
DIMS
100
AcDbLine
 10
29.1683051223
 20
4.3562593875
 30
0.0
 11
29.1683051223
 21
9.306805424
 31
0.0
  0
MTEXT
  5
68
330
5A
100
AcDbEntity
  8
DIMS
100
AcDbMText
 10
28.3898329686
 20
10.7710477481
 30
0.0039370079
 40
0.375
 41
0.0
 71
     1
 72
     1
  1
17
  7
SLDTEXTSTYLE0
 73
     1
 44
1.0
  0
MTEXT
  5
69
330
5A
100
AcDbEntity
  8
DIMS
100
AcDbMText
 10
29.0516385267
 20
11.0265252235
 30
0.0039370079
 40
0.375
 41
0.0
 71
     1
 72
     1
  1
3
  7
SLDTEXTSTYLE0
 73
     1
 44
1.0
  0
MTEXT
  5
6A
330
5A
100
AcDbEntity
  8
DIMS
100
AcDbMText
 10
29.0516385267
 20
10.5159002288
 30
0.0039370079
 40
0.375
 41
0.0
 71
     1
 72
     1
  1
8
  7
SLDTEXTSTYLE0
 73
     1
 44
1.0
  0
MTEXT
  5
6B
330
5A
100
AcDbEntity
  8
DIMS
100
AcDbMText
 10
29.4356662737
 20
10.7710477481
 30
0.0039370079
 40
0.375
 41
0.0
 71
     1
 72
     1
  1
"
  7
SLDTEXTSTYLE0
 73
     1
 44
1.0
  0
MTEXT
  5
6C
330
5A
100
AcDbEntity
  8
DIMS
100
AcDbMText
 10
28.7516384607
 20
9.8735391495
 30
0.0039370079
 40
0.375
 41
0.0
 71
     1
 72
     1
  1
441
  7
SLDTEXTSTYLE0
 73
     1
 44
1.0
  0
ENDBLK
  5
5C
330
5A
100
AcDbEntity
  8
0
100
AcDbBlockEnd
  0
BLOCK
  5
70
330
6F
100
AcDbEntity
  8
0
100
AcDbBlockBegin
  2
_D_1
 70
     0
 10
0.0
 20
0.0
 30
0.0
  3
_D_1
  1

  0
ARC
  5
72
330
6F
100
AcDbEntity
  8
DIMS
100
AcDbCircle
 10
4.3581712595
 20
20.2312593875
 30
0.0
 40
1.500000000000007
100
AcDbArc
 50
60.7805284291
 51
88.090847567
  0
SOLID
  5
73
330
6F
100
AcDbEntity
  8
DIMS
100
AcDbTrace
 10
4.9791586859
 20
21.5966804275
 30
0.0
 11
4.7774824436
 21
21.2885102112
 31
0.0
 12
4.8794377106
 22
21.2421414085
 32
0.0
 13
4.8794377106
 23
21.2421414085
 33
0.0
  0
LINE
  5
74
330
6F
100
AcDbEntity
  8
DIMS
100
AcDbLine
 10
5.7728466506
 20
20.3103422671
 30
0.0
 11
6.1568744342
 21
20.3103422671
 31
0.0
  0
LINE
  5
75
330
6F
100
AcDbEntity
  8
DIMS
100
AcDbLine
 10
5.5190272273
 20
19.6845089609
 30
0.0
 11
5.435693895
 21
19.6845089609
 31
0.0
  0
LINE
  5
76
330
6F
100
AcDbEntity
  8
DIMS
100
AcDbLine
 10
5.435693895
 20
19.6845089609
 30
0.0
 11
5.435693895
 21
19.1254811922
 31
0.0
  0
LINE
  5
77
330
6F
100
AcDbEntity
  8
DIMS
100
AcDbLine
 10
5.435693895
 20
19.1254811922
 30
0.0
 11
5.5190272273
 21
19.1254811922
 31
0.0
  0
LINE
  5
78
330
6F
100
AcDbEntity
  8
DIMS
100
AcDbLine
 10
6.2829161069
 20
19.6845089609
 30
0.0
 11
6.3662494393
 21
19.6845089609
 31
0.0
  0
LINE
  5
79
330
6F
100
AcDbEntity
  8
DIMS
100
AcDbLine
 10
6.3662494393
 20
19.6845089609
 30
0.0
 11
6.3662494393
 21
19.1254811922
 31
0.0
  0
LINE
  5
7A
330
6F
100
AcDbEntity
  8
DIMS
100
AcDbLine
 10
6.3662494393
 20
19.1254811922
 30
0.0
 11
6.2829161069
 21
19.1254811922
 31
0.0
  0
LINE
  5
7B
330
6F
100
AcDbEntity
  8
DIMS
100
AcDbLine
 10
4.9791586859
 20
21.5966804275
 30
0.0
 11
4.253294295
 21
20.0006569504
 31
0.0
  0
MTEXT
  5
7C
330
6F
100
AcDbEntity
  8
DIMS
100
AcDbMText
 10
5.0808327464
 20
20.5063902023
 30
0.0039370079
 40
0.375
 41
0.0
 71
     1
 72
     1
  1
R1
  7
SLDTEXTSTYLE0
 73
     1
 44
1.0
  0
MTEXT
  5
7D
330
6F
100
AcDbEntity
  8
DIMS
100
AcDbMText
 10
5.8259716552
 20
20.7618676777
 30
0.0039370079
 40
0.375
 41
0.0
 71
     1
 72
     1
  1
1
  7
SLDTEXTSTYLE0
 73
     1
 44
1.0
  0
MTEXT
  5
7E
330
6F
100
AcDbEntity
  8
DIMS
100
AcDbMText
 10
5.8259716552
 20
20.251242683
 30
0.0039370079
 40
0.375
 41
0.0
 71
     1
 72
     1
  1
2
  7
SLDTEXTSTYLE0
 73
     1
 44
1.0
  0
MTEXT
  5
7F
330
6F
100
AcDbEntity
  8
DIMS
100
AcDbMText
 10
6.2099994755
 20
20.5063902023
 30
0.0039370079
 40
0.375
 41
0.0
 71
     1
 72
     1
  1
"
  7
SLDTEXTSTYLE0
 73
     1
 44
1.0
  0
MTEXT
  5
80
330
6F
100
AcDbEntity
  8
DIMS
100
AcDbMText
 10
5.6231938927
 20
19.6088816038
 30
0.0039370079
 40
0.375
 41
0.0
 71
     1
 72
     1
  1
38
  7
SLDTEXTSTYLE0
 73
     1
 44
1.0
  0
ENDBLK
  5
71
330
6F
100
AcDbEntity
  8
0
100
AcDbBlockEnd
  0
BLOCK
  5
83
330
82
100
AcDbEntity
  8
0
100
AcDbBlockBegin
  2
_D_2
 70
     0
 10
0.0
 20
0.0
 30
0.0
  3
_D_2
  1

  0
SOLID
  5
85
330
82
100
AcDbEntity
  8
DIMS
100
AcDbTrace
 10
2.8581712595
 20
7.2001759416
 30
0.0
 11
3.2221849314
 21
7.1441738382
 31
0.0
 12
3.2221849314
 22
7.2561780449
 32
0.0
 13
3.2221849314
 23
7.2561780449
 33
0.0
  0
SOLID
  5
86
330
82
100
AcDbEntity
  8
DIMS
100
AcDbTrace
 10
31.2331712595
 20
7.2001759416
 30
0.0
 11
30.8691575877
 21
7.2561780449
 31
0.0
 12
30.8691575877
 22
7.1441738382
 32
0.0
 13
30.8691575877
 23
7.1441738382
 33
0.0
  0
LINE
  5
87
330
82
100
AcDbEntity
  8
DIMS
100
AcDbLine
 10
21.7205398046
 20
7.6002106395
 30
0.0
 11
22.1045675882
 21
7.6002106395
 31
0.0
  0
LINE
  5
88
330
82
100
AcDbEntity
  8
DIMS
100
AcDbLine
 10
21.3694980777
 20
6.9743773333
 30
0.0
 11
21.2861647454
 21
6.9743773333
 31
0.0
  0
LINE
  5
89
330
82
100
AcDbEntity
  8
DIMS
100
AcDbLine
 10
21.2861647454
 20
6.9743773333
 30
0.0
 11
21.2861647454
 21
6.4153495646
 31
0.0
  0
LINE
  5
8A
330
82
100
AcDbEntity
  8
DIMS
100
AcDbLine
 10
21.2861647454
 20
6.4153495646
 30
0.0
 11
21.3694980777
 21
6.4153495646
 31
0.0
  0
LINE
  5
8B
330
82
100
AcDbEntity
  8
DIMS
100
AcDbLine
 10
22.4111647685
 20
6.9743773333
 30
0.0
 11
22.4944981008
 21
6.9743773333
 31
0.0
  0
LINE
  5
8C
330
82
100
AcDbEntity
  8
DIMS
100
AcDbLine
 10
22.4944981008
 20
6.9743773333
 30
0.0
 11
22.4944981008
 21
6.4153495646
 31
0.0
  0
LINE
  5
8D
330
82
100
AcDbEntity
  8
DIMS
100
AcDbLine
 10
22.4944981008
 20
6.4153495646
 30
0.0
 11
22.4111647685
 21
6.4153495646
 31
0.0
  0
LINE
  5
8E
330
82
100
AcDbEntity
  8
DIMS
100
AcDbLine
 10
2.8581712595
 20
7.2001759416
 30
0.0
 11
21.0285446123
 21
7.2001759416
 31
0.0
  0
LINE
  5
8F
330
82
100
AcDbEntity
  8
DIMS
100
AcDbLine
 10
31.2331712595
 20
7.2001759416
 30
0.0
 11
22.7521181973
 21
7.2001759416
 31
0.0
  0
MTEXT
  5
90
330
82
100
AcDbEntity
  8
DIMS
100
AcDbMText
 10
21.1118592511
 20
7.7962585748
 30
0.0039370079
 40
0.375
 41
0.0
 71
     1
 72
     1
  1
28
  7
SLDTEXTSTYLE0
 73
     1
 44
1.0
  0
MTEXT
  5
91
330
82
100
AcDbEntity
  8
DIMS
100
AcDbMText
 10
21.7736648092
 20
8.0517360501
 30
0.0039370079
 40
0.375
 41
0.0
 71
     1
 72
     1
  1
3
  7
SLDTEXTSTYLE0
 73
     1
 44
1.0
  0
MTEXT
  5
92
330
82
100
AcDbEntity
  8
DIMS
100
AcDbMText
 10
21.7736648092
 20
7.5411110555
 30
0.0039370079
 40
0.375
 41
0.0
 71
     1
 72
     1
  1
8
  7
SLDTEXTSTYLE0
 73
     1
 44
1.0
  0
MTEXT
  5
93
330
82
100
AcDbEntity
  8
DIMS
100
AcDbMText
 10
22.1576925562
 20
7.7962585748
 30
0.0039370079
 40
0.375
 41
0.0
 71
     1
 72
     1
  1
"
  7
SLDTEXTSTYLE0
 73
     1
 44
1.0
  0
MTEXT
  5
94
330
82
100
AcDbEntity
  8
DIMS
100
AcDbMText
 10
21.4736647431
 20
6.8987499762
 30
0.0039370079
 40
0.375
 41
0.0
 71
     1
 72
     1
  1
721
  7
SLDTEXTSTYLE0
 73
     1
 44
1.0
  0
ENDBLK
  5
84
330
82
100
AcDbEntity
  8
0
100
AcDbBlockEnd
  0
BLOCK
  5
96
330
95
100
AcDbEntity
  8
0
100
AcDbBlockBegin
  2
SW_NOTE_0
 70
     0
 10
0.0
 20
0.0
 30
0.0
  3
SW_NOTE_0
  1

  0
MTEXT
  5
98
330
95
100
AcDbEntity
  8
NOTES
 62
     0
100
AcDbMText
 10
0.0
 20
0.295411357
 30
0.0
 40
0.2291666667
 41
0.0
 71
     1
 72
     1
  1
NOTES:
  7
SLDTEXTSTYLE0
 73
     1
 44
1.0
  0
MTEXT
  5
99
330
95
100
AcDbEntity
  8
NOTES
 62
     0
100
AcDbMText
 10
0.3937007786
 20
-0.3156997467
 30
0.0
 40
0.2291666667
 41
0.0
 71
     1
 72
     1
  1
THOROUGHLY READ ALL  INSTALLATION INSTRUCTIONS
  7
SLDTEXTSTYLE0
 73
     1
 44
1.0
  0
MTEXT
  5
9A
330
95
100
AcDbEntity
  8
NOTES
 62
     0
100
AcDbMText
 10
0.0
 20
-0.3156997467
 30
0.0
 40
0.2291666667
 41
0.0
 71
     1
 72
     1
  1
1.
  7
SLDTEXTSTYLE0
 73
     1
 44
1.0
  0
MTEXT
  5
9B
330
95
100
AcDbEntity
  8
NOTES
 62
     0
100
AcDbMText
 10
0.0
 20
-0.6212552986
 30
0.0
 40
0.2291666667
 41
0.0
 71
     1
 72
     1
  1
BEFORE CUTTING COUNTERTOP.
  7
SLDTEXTSTYLE0
 73
     1
 44
1.0
  0
MTEXT
  5
9C
330
95
100
AcDbEntity
  8
NOTES
 62
     0
100
AcDbMText
 10
0.0
 20
-1.2323664023
 30
0.0
 40
0.2291666667
 41
0.0
 71
     1
 72
     1
  1
2.  DIMENSIONS ARE IN INCHES [MM].
  7
SLDTEXTSTYLE0
 73
     1
 44
1.0
  0
MTEXT
  5
9D
330
95
100
AcDbEntity
  8
NOTES
 62
     0
100
AcDbMText
 10
0.0
 20
-2.1490330579
 30
0.0
 40
0.2291666667
 41
0.0
 71
     1
 72
     1
  1
PLEASE CHECK TEMPLATE AGAINST PHYSICAL SINK FOR MOST ACCURATE CUT.
  7
SLDTEXTSTYLE0
 73
     1
 44
1.0
  0
MTEXT
  5
9E
330
95
100
AcDbEntity
  8
NOTES
 62
     0
100
AcDbMText
 10
0.0
 20
-3.3712552653
 30
0.0
 40
0.2291666667
 41
0.0
 71
     1
 72
     1
  1
NOTAS:
  7
SLDTEXTSTYLE0
 73
     1
 44
1.0
  0
MTEXT
  5
9F
330
95
100
AcDbEntity
  8
NOTES
 62
     0
100
AcDbMText
 10
0.0
 20
-3.982366369
 30
0.0
 40
0.2291666667
 41
0.0
 71
     1
 72
     1
  1
1.  LEA ATENTAMENTE LAS INSTRUCCIONES DE INSTALACIÓN ANTES DE CORTAR LA ENCIMERA.
  7
SLDTEXTSTYLE0
 73
     1
 44
1.0
  0
MTEXT
  5
A0
330
95
100
AcDbEntity
  8
NOTES
 62
     0
100
AcDbMText
 10
0.0
 20
-4.5934774728
 30
0.0
 40
0.2291666667
 41
0.0
 71
     1
 72
     1
  1
2.  DIMENSIONES EN PULGADAS [MM].
  7
SLDTEXTSTYLE0
 73
     1
 44
1.0
  0
MTEXT
  5
A1
330
95
100
AcDbEntity
  8
NOTES
 62
     0
100
AcDbMText
 10
0.0
 20
-5.5101441284
 30
0.0
 40
0.2291666667
 41
0.0
 71
     1
 72
     1
  1
POR FAVOR COMPRUEBE PLANTILLA CONTRA FREGADERO FÍSICO PARA CORTE MÁS EXACTO.
  7
SLDTEXTSTYLE0
 73
     1
 44
1.0
  0
ENDBLK
  5
97
330
95
100
AcDbEntity
  8
0
100
AcDbBlockEnd
  0
BLOCK
  5
A4
330
A3
100
AcDbEntity
  8
0
100
AcDbBlockBegin
  2
SW_NOTE_1
 70
     0
 10
0.0
 20
0.0
 30
0.0
  3
SW_NOTE_1
  1

  0
MTEXT
  5
A6
330
A3
100
AcDbEntity
  8
NOTES
 62
     0
100
AcDbMText
 10
-1.0672326199
 20
0.823678308
 30
0.0
 40
0.25
 41
0.0
 71
     2
 72
     1
  1
TEMPLATE
  7
SLDTEXTSTYLE0
 73
     1
 44
1.0
  0
MTEXT
  5
A7
330
A3
100
AcDbEntity
  8
NOTES
 62
     0
100
AcDbMText
 10
-1.0634710009
 20
0.4903449787
 30
0.0
 40
0.25
 41
0.0
 71
     2
 72
     1
  1
CENTERLINE
  7
SLDTEXTSTYLE0
 73
     1
 44
1.0
  0
MTEXT
  5
A8
330
A3
100
AcDbEntity
  8
NOTES
 62
     0
100
AcDbMText
 10
-1.0633263699
 20
-0.1763216799
 30
0.0
 40
0.25
 41
0.0
 71
     2
 72
     1
  1
PLANTILLA
  7
SLDTEXTSTYLE0
 73
     1
 44
1.0
  0
MTEXT
  5
A9
330
A3
100
AcDbEntity
  8
NOTES
 62
     0
100
AcDbMText
 10
-1.0669432632
 20
-0.5096550092
 30
0.0
 40
0.25
 41
0.0
 71
     2
 72
     1
  1
CENTRAL
  7
SLDTEXTSTYLE0
 73
     1
 44
1.0
  0
ENDBLK
  5
A5
330
A3
100
AcDbEntity
  8
0
100
AcDbBlockEnd
  0
BLOCK
  5
AF
330
AE
100
AcDbEntity
  8
0
100
AcDbBlockBegin
  2
SW_NOTE_2
 70
     0
 10
0.0
 20
0.0
 30
0.0
  3
SW_NOTE_2
  1

  0
MTEXT
  5
B1
330
AE
100
AcDbEntity
  8
NOTES
 62
     0
100
AcDbMText
 10
11.1507161458
 20
1.7456125643
 30
0.0
 40
1.3541666667
 41
0.0
 71
     2
 72
     1
  1
TEMPLATE #: 1000001280
  7
SLDTEXTSTYLE0
 73
     1
 44
1.0
  0
MTEXT
  5
B2
330
AE
100
AcDbEntity
  8
NOTES
 62
     0
100
AcDbMText
 10
11.092822583
 20
-0.0438044868
 30
0.0
 40
0.9895833333
 41
0.0
 71
     2
 72
     1
  1
TOP MOUNT TEMPLATE 29" X 18"
  7
SLDTEXTSTYLE0
 73
     1
 44
1.0
  0
ENDBLK
  5
B0
330
AE
100
AcDbEntity
  8
0
100
AcDbBlockEnd
  0
ENDSEC
  0
SECTION
  2
ENTITIES
  0
LINE
  5
4B
330
1F
100
AcDbEntity
  8
OBJECTS
  6
CENTERX2
100
AcDbLine
 10
31.2331712595
 20
13.0437593875
 30
0.0
 11
29.1388722443
 21
13.0437593875
 31
0.0
  0
LINE
  5
4C
330
1F
100
AcDbEntity
  8
OBJECTS
  6
CENTERX2
100
AcDbLine
 10
4.9524702748
 20
13.0437593875
 30
0.0
 11
2.8581712595
 21
13.0437593875
 31
0.0
  0
LINE
  5
4D
330
1F
100
AcDbEntity
  8
OBJECTS
100
AcDbLine
 10
31.2331712595
 20
5.8562593875
 30
0.0
 11
31.2331712595
 21
20.2312593875
 31
0.0
  0
LINE
  5
4E
330
1F
100
AcDbEntity
  8
OBJECTS
100
AcDbLine
 10
29.7331712595
 20
21.7312593875
 30
0.0
 11
4.3581712595
 21
21.7312593875
 31
0.0
  0
LINE
  5
4F
330
1F
100
AcDbEntity
  8
OBJECTS
100
AcDbLine
 10
2.8581712595
 20
20.2312593875
 30
0.0
 11
2.8581712595
 21
5.8562593875
 31
0.0
  0
LINE
  5
50
330
1F
100
AcDbEntity
  8
OBJECTS
100
AcDbLine
 10
4.3581712595
 20
4.3562593875
 30
0.0
 11
29.7331712595
 21
4.3562593875
 31
0.0
  0
LINE
  5
51
330
1F
100
AcDbEntity
  8
OBJECTS
  6
CENTERX2
100
AcDbLine
 10
17.0456712595
 20
4.3562593875
 30
0.0
 11
17.0456712595
 21
6.4505584028
 31
0.0
  0
LINE
  5
52
330
1F
100
AcDbEntity
  8
OBJECTS
  6
CENTERX2
100
AcDbLine
 10
17.0456712595
 20
21.7312593875
 30
0.0
 11
17.0456712595
 21
19.6369603723
 31
0.0
  0
ARC
  5
53
330
1F
100
AcDbEntity
  8
OBJECTS
100
AcDbCircle
 10
29.7331712595
 20
20.2312593875
 30
0.0
 40
1.500000000000004
100
AcDbArc
 50
0.0
 51
90.0
  0
ARC
  5
54
330
1F
100
AcDbEntity
  8
OBJECTS
100
AcDbCircle
 10
4.3581712595
 20
20.2312593875
 30
0.0
 40
1.500000000000001
100
AcDbArc
 50
90.0
 51
180.0
  0
ARC
  5
55
330
1F
100
AcDbEntity
  8
OBJECTS
100
AcDbCircle
 10
4.3581712595
 20
5.8562593875
 30
0.0
 40
1.499999999999999
100
AcDbArc
 50
180.0
 51
270.0
  0
ARC
  5
56
330
1F
100
AcDbEntity
  8
OBJECTS
100
AcDbCircle
 10
29.7331712595
 20
5.8562593875
 30
0.0
 40
1.500000000000004
100
AcDbArc
 50
270.0
 51
0.0
  0
DIMENSION
  5
57
330
1F
100
AcDbEntity
  8
DIMS
100
AcDbDimension
  2
_D
 10
29.1683051223
 20
4.3562593875
 30
0.0
 11
29.1683051223
 21
10.1749651149
 31
0.0
 70
   160
  1
<>
 71
     2
 42
-1.0
  3
SLDDIMSTYLE0
100
AcDbAlignedDimension
 13
29.7331712595
 23
21.7312593875
 33
0.0
 14
29.7331712595
 24
4.3562593875
 34
0.0
 50
90.0
100
AcDbRotatedDimension
  0
DIMENSION
  5
6D
330
1F
100
AcDbEntity
  8
DIMS
100
AcDbDimension
  2
_D_1
 10
4.3581712595
 20
20.2312593875
 30
0.0
 11
5.9009716854
 21
19.9103075691
 31
0.0
 70
   164
  1
<>
 71
     1
 42
-1.0
  3
SLDDIMSTYLE1
100
AcDbRadialDimension
 15
4.9791586859
 25
21.5966804275
 35
0.0
 40
0.0
  0
DIMENSION
  5
81
330
1F
100
AcDbEntity
  8
DIMS
100
AcDbDimension
  2
_D_2
 10
31.2331712595
 20
7.2001759416
 30
0.0
 11
21.8903314048
 21
7.2001759416
 31
0.0
 70
   160
  1
<>
 71
     2
 42
-1.0
  3
SLDDIMSTYLE0
100
AcDbAlignedDimension
 13
2.8581712595
 23
5.8562593875
 33
0.0
 14
31.2331712595
 24
5.8562593875
 34
0.0
 50
0.0
100
AcDbRotatedDimension
  0
INSERT
  5
A2
330
1F
100
AcDbEntity
  8
NOTES
100
AcDbBlockReference
  2
SW_NOTE_0
 10
7.6628841785
 20
20.3979084319
 30
0.0
  0
INSERT
  5
AA
102
{ACAD_REACTORS
330
AC
330
AD
102
}
330
1F
100
AcDbEntity
  8
NOTES
100
AcDbBlockReference
  2
SW_NOTE_1
 10
27.5561914297
 20
19.0266165183
 30
0.0
  0
LEADER
  5
AC
330
1F
100
AcDbEntity
  8
NOTES
100
AcDbLeader
  3
SLDDIMSTYLE2
 73
     2
 76
     3
 10
29.9748854203
 20
13.0437593875
 30
0.0
 10
27.8061914297
 20
19.0266165183
 30
0.0
 10
27.5561914297
 20
19.0266165183
 30
0.0
340
AA
  0
LEADER
  5
AD
330
1F
100
AcDbEntity
  8
NOTES
100
AcDbLeader
  3
SLDDIMSTYLE2
 73
     2
 76
     3
 10
17.0456712595
 20
20.3022298492
 30
0.0
 10
25.1562604288
 20
19.0266165183
 30
0.0
 10
25.4062604288
 20
19.0266165183
 30
0.0
340
AA
212
-2.149931000892927
222
0.0
232
0.0
  0
INSERT
  5
B3
330
1F
100
AcDbEntity
  8
NOTES
100
AcDbBlockReference
  2
SW_NOTE_2
 10
5.9260153747
 20
11.9186621136
 30
0.0
  0
ENDSEC
  0
SECTION
  2
OBJECTS
  0
DICTIONARY
  5
C
330
0
100
AcDbDictionary
281
     1
  3
ACAD_GROUP
350
D
  3
ACAD_LAYOUT
350
1A
  3
ACAD_MLINESTYLE
350
17
  3
ACAD_PLOTSETTINGS
350
19
  3
ACAD_PLOTSTYLENAME
350
E
  0
DICTIONARY
  5
D
102
{ACAD_REACTORS
330
C
102
}
330
C
100
AcDbDictionary
281
     1
  0
DICTIONARY
  5
1A
102
{ACAD_REACTORS
330
C
102
}
330
C
100
AcDbDictionary
281
     1
  3
Layout1
350
1E
  3
Layout2
350
26
  3
Model
350
22
  0
DICTIONARY
  5
17
102
{ACAD_REACTORS
330
C
102
}
330
C
100
AcDbDictionary
281
     1
  3
Standard
350
18
  0
DICTIONARY
  5
19
102
{ACAD_REACTORS
330
C
102
}
330
C
100
AcDbDictionary
281
     1
  0
ACDBDICTIONARYWDFLT
  5
E
102
{ACAD_REACTORS
330
C
102
}
330
C
100
AcDbDictionary
281
     1
  3
Normal
350
F
100
AcDbDictionaryWithDefault
340
F
  0
LAYOUT
  5
1E
102
{ACAD_REACTORS
330
1A
102
}
330
1A
100
AcDbPlotSettings
  1

  2
none_device
  4

  6

 40
0.0
 41
0.0
 42
0.0
 43
0.0
 44
0.0
 45
0.0
 46
0.0
 47
0.0
 48
0.0
 49
0.0
140
0.0
141
0.0
142
1.0
143
1.0
 70
   688
 72
     0
 73
     0
 74
     5
  7

 75
    16
147
1.0
148
0.0
149
0.0
100
AcDbLayout
  1
Layout1
 70
     1
 71
     1
 10
0.0
 20
0.0
 11
12.0
 21
9.0
 12
0.0
 22
0.0
 32
0.0
 14
1.0000000000E+20
 24
1.0000000000E+20
 34
1.0000000000E+20
 15
-1.0000000000E+20
 25
-1.0000000000E+20
 35
-1.0000000000E+20
146
0.0
 13
0.0
 23
0.0
 33
0.0
 16
1.0
 26
0.0
 36
0.0
 17
0.0
 27
1.0
 37
0.0
 76
     0
330
1B
  0
LAYOUT
  5
26
102
{ACAD_REACTORS
330
1A
102
}
330
1A
100
AcDbPlotSettings
  1

  2
none_device
  4

  6

 40
0.0
 41
0.0
 42
0.0
 43
0.0
 44
0.0
 45
0.0
 46
0.0
 47
0.0
 48
0.0
 49
0.0
140
0.0
141
0.0
142
1.0
143
1.0
 70
   688
 72
     0
 73
     0
 74
     5
  7

 75
    16
147
1.0
148
0.0
149
0.0
100
AcDbLayout
  1
Layout2
 70
     1
 71
     2
 10
0.0
 20
0.0
 11
0.0
 21
0.0
 12
0.0
 22
0.0
 32
0.0
 14
0.0
 24
0.0
 34
0.0
 15
0.0
 25
0.0
 35
0.0
146
0.0
 13
0.0
 23
0.0
 33
0.0
 16
1.0
 26
0.0
 36
0.0
 17
0.0
 27
1.0
 37
0.0
 76
     0
330
23
  0
LAYOUT
  5
22
102
{ACAD_REACTORS
330
1A
102
}
330
1A
100
AcDbPlotSettings
  1

  2
none_device
  4

  6

 40
0.0
 41
0.0
 42
0.0
 43
0.0
 44
0.0
 45
0.0
 46
0.0
 47
0.0
 48
0.0
 49
0.0
140
0.0
141
0.0
142
1.0
143
1.0
 70
  1712
 72
     0
 73
     0
 74
     0
  7

 75
     0
147
1.0
148
0.0
149
0.0
100
AcDbLayout
  1
Model
 70
     1
 71
     0
 10
0.0
 20
0.0
 11
34.0
 21
26.0
 12
0.0
 22
0.0
 32
0.0
 14
0.0
 24
0.0
 34
0.0
 15
34.0
 25
26.0
 35
0.0
146
0.0
 13
0.0
 23
0.0
 33
0.0
 16
1.0
 26
0.0
 36
0.0
 17
0.0
 27
1.0
 37
0.0
 76
     0
330
1F
331
29
  0
MLINESTYLE
  5
18
102
{ACAD_REACTORS
330
17
102
}
330
17
100
AcDbMlineStyle
  2
Standard
 70
     0
  3

 62
   256
 51
90.0
 52
90.0
 71
     2
 49
0.5
 62
   256
  6
BYLAYER
 49
-0.5
 62
   256
  6
BYLAYER
  0
ACDBPLACEHOLDER
  5
F
102
{ACAD_REACTORS
330
E
102
}
330
E
  0
ENDSEC
  0
EOF
