  0
SECTION
  2
HEADER
  9
$ACADVER
  1
AC1012
  9
$DWGCODEPAGE
  3
ansi_1252
  9
$INSBASE
 10
0.0
 20
0.0
 30
0.0
  9
$EXTMIN
 10
0.0
 20
0.0
 30
0.0
  9
$EXTMAX
 10
41.0
 20
22.0
 30
0.0
  9
$LIMMIN
 10
0.0
 20
0.0
  9
$LIMMAX
 10
41.0
 20
22.0
  9
$ORTHOMODE
 70
     0
  9
$REGENMODE
 70
     1
  9
$FILLMODE
 70
     1
  9
$QTEXTMODE
 70
     0
  9
$MIRRTEXT
 70
     1
  9
$DRAGMODE
 70
     2
  9
$LTSCALE
 40
1.0
  9
$OSMODE
 70
    37
  9
$ATTMODE
 70
     1
  9
$TEXTSIZE
 40
0.2777777778
  9
$TRACEWID
 40
0.05
  9
$TEXTSTYLE
  7
STANDARD
  9
$CLAYER
  8
0
  9
$CELTYPE
  6
BYLAYER
  9
$CECOLOR
 62
   256
  9
$CELTSCALE
 40
1.0
  9
$DELOBJ
 70
     1
  9
$DISPSILH
 70
     0
  9
$DIMSCALE
 40
1.0
  9
$DIMASZ
 40
0.262898763
  9
$DIMEXO
 40
0.05
  9
$DIMDLI
 40
0.38
  9
$DIMRND
 40
0.0
  9
$DIMDLE
 40
0.0
  9
$DIMEXE
 40
0.125
  9
$DIMTP
 40
0.0
  9
$DIMTM
 40
0.0
  9
$DIMTXT
 40
0.3611111111
  9
$DIMCEN
 40
0.09
  9
$DIMTSZ
 40
0.0
  9
$DIMTOL
 70
     0
  9
$DIMLIM
 70
     0
  9
$DIMTIH
 70
     1
  9
$DIMTOH
 70
     1
  9
$DIMSE1
 70
     0
  9
$DIMSE2
 70
     0
  9
$DIMTAD
 70
     0
  9
$DIMZIN
 70
     0
  9
$DIMBLK
  1

  9
$DIMASO
 70
     1
  9
$DIMSHO
 70
     1
  9
$DIMPOST
  1

  9
$DIMAPOST
  1

  9
$DIMALT
 70
     0
  9
$DIMALTD
 70
     2
  9
$DIMALTF
 40
25.4
  9
$DIMLFAC
 40
1.0
  9
$DIMTOFL
 70
     0
  9
$DIMTVP
 40
0.0
  9
$DIMTIX
 70
     0
  9
$DIMSOXD
 70
     0
  9
$DIMSAH
 70
     0
  9
$DIMBLK1
  1

  9
$DIMBLK2
  1

  9
$DIMSTYLE
  2
STANDARD
  9
$DIMCLRD
 70
     0
  9
$DIMCLRE
 70
     0
  9
$DIMCLRT
 70
     0
  9
$DIMTFAC
 40
1.0
  9
$DIMGAP
 40
0.06
  9
$DIMJUST
 70
     0
  9
$DIMSD1
 70
     0
  9
$DIMSD2
 70
     0
  9
$DIMTOLJ
 70
     1
  9
$DIMTZIN
 70
     0
  9
$DIMALTZ
 70
     0
  9
$DIMALTTZ
 70
     0
  9
$DIMFIT
 70
     3
  9
$DIMUPT
 70
     0
  9
$DIMUNIT
 70
     2
  9
$DIMDEC
 70
     3
  9
$DIMTDEC
 70
     3
  9
$DIMALTU
 70
     2
  9
$DIMALTTD
 70
     2
  9
$DIMTXSTY
  7
STANDARD
  9
$DIMAUNIT
 70
     0
  9
$LUNITS
 70
     2
  9
$LUPREC
 70
     3
  9
$SKETCHINC
 40
0.1
  9
$FILLETRAD
 40
0.5
  9
$AUNITS
 70
     0
  9
$AUPREC
 70
     1
  9
$MENU
  1
.
  9
$ELEVATION
 40
0.0
  9
$PELEVATION
 40
0.0
  9
$THICKNESS
 40
0.0
  9
$LIMCHECK
 70
     0
  9
$CHAMFERA
 40
0.5
  9
$CHAMFERB
 40
0.5
  9
$CHAMFERC
 40
1.0
  9
$CHAMFERD
 40
0.0
  9
$SKPOLY
 70
     0
  9
$TDCREATE
 40
2457922.709187014
  9
$TDUPDATE
 40
2457922.70918912
  9
$TDINDWG
 40
0.0000000116
  9
$TDUSRTIMER
 40
0.0000000116
  9
$USRTIMER
 70
     1
  9
$ANGBASE
 50
0.0
  9
$ANGDIR
 70
     0
  9
$PDMODE
 70
     0
  9
$PDSIZE
 40
-1.0
  9
$PLINEWID
 40
0.0
  9
$COORDS
 70
     1
  9
$SPLFRAME
 70
     0
  9
$SPLINETYPE
 70
     6
  9
$SPLINESEGS
 70
     8
  9
$ATTDIA
 70
     0
  9
$ATTREQ
 70
     1
  9
$HANDLING
 70
     1
  9
$HANDSEED
  5
B9
  9
$SURFTAB1
 70
     6
  9
$SURFTAB2
 70
     6
  9
$SURFTYPE
 70
     6
  9
$SURFU
 70
     6
  9
$SURFV
 70
     6
  9
$UCSNAME
  2

  9
$UCSORG
 10
0.0
 20
0.0
 30
0.0
  9
$UCSXDIR
 10
1.0
 20
0.0
 30
0.0
  9
$UCSYDIR
 10
0.0
 20
1.0
 30
0.0
  9
$PUCSNAME
  2

  9
$PUCSORG
 10
0.0
 20
0.0
 30
0.0
  9
$PUCSXDIR
 10
1.0
 20
0.0
 30
0.0
  9
$PUCSYDIR
 10
0.0
 20
1.0
 30
0.0
  9
$USERI1
 70
     0
  9
$USERI2
 70
     0
  9
$USERI3
 70
     0
  9
$USERI4
 70
     0
  9
$USERI5
 70
     0
  9
$USERR1
 40
0.0
  9
$USERR2
 40
0.0
  9
$USERR3
 40
0.0
  9
$USERR4
 40
0.0
  9
$USERR5
 40
0.0
  9
$WORLDVIEW
 70
     1
  9
$SHADEDGE
 70
     3
  9
$SHADEDIF
 70
    70
  9
$TILEMODE
 70
     1
  9
$MAXACTVP
 70
    64
  9
$PINSBASE
 10
0.0
 20
0.0
 30
0.0
  9
$PLIMCHECK
 70
     0
  9
$PEXTMIN
 10
1.0000000000E+20
 20
1.0000000000E+20
 30
1.0000000000E+20
  9
$PEXTMAX
 10
-1.0000000000E+20
 20
-1.0000000000E+20
 30
-1.0000000000E+20
  9
$PLIMMIN
 10
0.0
 20
0.0
  9
$PLIMMAX
 10
12.0
 20
9.0
  9
$UNITMODE
 70
     0
  9
$VISRETAIN
 70
     1
  9
$PLINEGEN
 70
     0
  9
$PSLTSCALE
 70
     1
  9
$TREEDEPTH
 70
  3020
  9
$PICKSTYLE
 70
     1
  9
$CMLSTYLE
  2
STANDARD
  9
$CMLJUST
 70
     0
  9
$CMLSCALE
 40
1.0
  9
$SAVEIMAGES
 70
     1
  0
ENDSEC
  0
SECTION
  2
CLASSES
  0
CLASS
  1
ACDBDICTIONARYWDFLT
  2
AcDbDictionaryWithDefault
  3
ObjectDBX Classes
 90
    32768
280
     0
281
     0
  0
CLASS
  1
VISUALSTYLE
  2
AcDbVisualStyle
  3
ObjectDBX Classes
 90
     4095
280
     0
281
     0
  0
CLASS
  1
MATERIAL
  2
AcDbMaterial
  3
ObjectDBX Classes
 90
     1153
280
     0
281
     0
  0
CLASS
  1
XRECORD
  2
AcDbXrecord
  3
AutoCAD 2000
 90
    32768
280
     0
281
     0
  0
ENDSEC
  0
SECTION
  2
TABLES
  0
TABLE
  2
VPORT
  5
8
330
0
100
AcDbSymbolTable
 70
     1
  0
VPORT
  5
29
330
8
100
AcDbSymbolTableRecord
100
AcDbViewportTableRecord
  2
*ACTIVE
 70
     0
 10
0.0
 20
0.0
 11
1.0
 21
1.0
 12
20.5
 22
11.0
 13
0.0
 23
0.0
 14
0.5
 24
0.5
 15
0.5
 25
0.5
 16
0.0
 26
0.0
 36
1.0
 17
0.0
 27
0.0
 37
0.0
 40
22.0
 41
1.8636363636
 42
50.0
 43
0.0
 44
0.0
 50
0.0
 51
0.0
 71
     0
 72
  2000
 73
     1
 74
     3
 75
     0
 76
     0
 77
     0
 78
     0
  0
ENDTAB
  0
TABLE
  2
LTYPE
  5
5
330
0
100
AcDbSymbolTable
 70
     6
  0
LTYPE
  5
14
330
5
100
AcDbSymbolTableRecord
100
AcDbLinetypeTableRecord
  2
BYBLOCK
 70
     0
  3

 72
    65
 73
     0
 40
0.0
  0
LTYPE
  5
15
330
5
100
AcDbSymbolTableRecord
100
AcDbLinetypeTableRecord
  2
BYLAYER
 70
     0
  3

 72
    65
 73
     0
 40
0.0
  0
LTYPE
  5
16
330
5
100
AcDbSymbolTableRecord
100
AcDbLinetypeTableRecord
  2
CONTINUOUS
 70
     0
  3
Solid line
 72
    65
 73
     0
 40
0.0
  0
LTYPE
  5
3F
330
5
100
AcDbSymbolTableRecord
100
AcDbLinetypeTableRecord
  2
HIDDEN
 70
     0
  3
Hidden __ __ __ __ __ __ __ __ __ __ __ __ __ __
 72
    65
 73
     2
 40
0.075
 49
0.05
 74
     0
 49
-0.025
 74
     0
  0
LTYPE
  5
40
330
5
100
AcDbSymbolTableRecord
100
AcDbLinetypeTableRecord
  2
PHANTOM
 70
     0
  3
Phantom ______  __  __  ______  __  __  ______
 72
    65
 73
     6
 40
0.5
 49
0.25
 74
     0
 49
-0.05
 74
     0
 49
0.05
 74
     0
 49
-0.05
 74
     0
 49
0.05
 74
     0
 49
-0.05
 74
     0
  0
LTYPE
  5
41
330
5
100
AcDbSymbolTableRecord
100
AcDbLinetypeTableRecord
  2
CENTER
 70
     0
  3
Center ____ _ ____ _ ____ _ ____ _ ____ _ ____
 72
    65
 73
     4
 40
0.4
 49
0.25
 74
     0
 49
-0.05
 74
     0
 49
0.05
 74
     0
 49
-0.05
 74
     0
  0
LTYPE
  5
42
330
5
100
AcDbSymbolTableRecord
100
AcDbLinetypeTableRecord
  2
CENTERX2
 70
     0
  3
Center (2x) ________  __  ________  __  _____
 72
    65
 73
     4
 40
0.8
 49
0.5
 74
     0
 49
-0.1
 74
     0
 49
0.1
 74
     0
 49
-0.1
 74
     0
  0
LTYPE
  5
43
330
5
100
AcDbSymbolTableRecord
100
AcDbLinetypeTableRecord
  2
DOT2
 70
     0
  3
Dot (.5x) ........................................
 72
    65
 73
     2
 40
0.025
 49
0.0
 74
     0
 49
-0.025
 74
     0
  0
ENDTAB
  0
TABLE
  2
LAYER
  5
2
330
0
100
AcDbSymbolTable
 70
     8
  0
LAYER
  5
10
330
2
100
AcDbSymbolTableRecord
100
AcDbLayerTableRecord
  2
0
 70
     0
 62
     7
  6
CONTINUOUS
  0
LAYER
  5
44
330
2
100
AcDbSymbolTableRecord
100
AcDbLayerTableRecord
  2
SLD-0
 70
     0
 62
   179
  6
CONTINUOUS
  0
LAYER
  5
45
330
2
100
AcDbSymbolTableRecord
100
AcDbLayerTableRecord
  2
OBJECTS
 70
     0
 62
     5
  6
CONTINUOUS
  0
LAYER
  5
46
330
2
100
AcDbSymbolTableRecord
100
AcDbLayerTableRecord
  2
DIMS
 70
     0
 62
     1
  6
CONTINUOUS
  0
LAYER
  5
47
330
2
100
AcDbSymbolTableRecord
100
AcDbLayerTableRecord
  2
NOTES
 70
     0
 62
     7
  6
CONTINUOUS
  0
LAYER
  5
48
330
2
100
AcDbSymbolTableRecord
100
AcDbLayerTableRecord
  2
IMAGES
 70
     0
 62
     7
  6
CONTINUOUS
  0
LAYER
  5
49
330
2
100
AcDbSymbolTableRecord
100
AcDbLayerTableRecord
  2
CENTERLINES
 70
     0
 62
     7
  6
HIDDEN
  0
LAYER
  5
4A
330
2
100
AcDbSymbolTableRecord
100
AcDbLayerTableRecord
  2
BLOCKS
 70
     0
 62
    16
  6
CONTINUOUS
  0
ENDTAB
  0
TABLE
  2
STYLE
  5
3
330
0
100
AcDbSymbolTable
 70
     3
  0
STYLE
  5
11
330
3
100
AcDbSymbolTableRecord
100
AcDbTextStyleTableRecord
  2
STANDARD
 70
     0
 40
0.0
 41
1.0
 50
0.0
 71
     0
 42
0.2777777778
  3
ARIAL.TTF
  4

1001
ACAD
1000
ARIAL
1071
       34
  0
STYLE
  5
52
330
3
100
AcDbSymbolTableRecord
100
AcDbTextStyleTableRecord
  2
SLDTEXTSTYLE0
 70
     0
 40
0.0
 41
0.948
 50
0.0
 71
     0
 42
0.2
  3
ARIAL.TTF
  4

1001
ACAD
1000
Arial
1071
      290
  0
STYLE
  5
A8
330
3
100
AcDbSymbolTableRecord
100
AcDbTextStyleTableRecord
  2
SLDTEXTSTYLE1
 70
     0
 40
0.0
 41
0.948
 50
0.0
 71
     0
 42
0.2
  3
ARIALBD.TTF
  4

1001
ACAD
1000
Arial
1071
 33554722
  0
ENDTAB
  0
TABLE
  2
VIEW
  5
6
330
0
100
AcDbSymbolTable
 70
     0
  0
ENDTAB
  0
TABLE
  2
UCS
  5
7
330
0
100
AcDbSymbolTable
 70
     0
  0
ENDTAB
  0
TABLE
  2
APPID
  5
9
330
0
100
AcDbSymbolTable
 70
     1
  0
APPID
  5
12
330
9
100
AcDbSymbolTableRecord
100
AcDbRegAppTableRecord
  2
ACAD
 70
     0
  0
ENDTAB
  0
TABLE
  2
DIMSTYLE
  5
A
330
0
100
AcDbSymbolTable
 70
     4
  0
DIMSTYLE
105
27
330
A
100
AcDbSymbolTableRecord
100
AcDbDimStyleTableRecord
  2
STANDARD
 70
     0
  3

  4

  5

  6

  7

 40
1.0
 41
0.18
 42
0.0625
 43
0.38
 44
0.18
 45
0.0
 46
0.0
 47
0.0
 48
0.0
140
0.18
141
0.09
142
0.0
143
25.4
144
1.0
145
0.0
146
1.0
147
0.09
 71
     0
 72
     0
 73
     1
 74
     1
 75
     0
 76
     0
 77
     0
 78
     0
170
     0
171
     2
172
     0
173
     0
174
     0
175
     0
176
     0
177
     0
178
     0
270
     2
271
     4
272
     4
273
     2
274
     2
340
11
275
     0
280
     0
281
     0
282
     0
283
     1
284
     0
285
     0
286
     0
287
     3
288
     0
  0
DIMSTYLE
105
58
330
A
100
AcDbSymbolTableRecord
100
AcDbDimStyleTableRecord
  2
SLDDIMSTYLE0
 70
     0
  3

  4

  5

  6

  7

 40
1.0
 41
0.262898763
 42
0.0625
 43
0.38
 44
0.0
 45
0.000000001
 46
0.0
 47
0.0
 48
0.0
140
0.0
141
0.09
142
0.0
143
25.4
144
1.0
145
0.0
146
0.262898763
147
0.0
 71
     0
 72
     0
 73
     1
 74
     1
 75
     0
 76
     0
 77
     0
 78
     0
170
     0
171
     2
172
     0
173
     1
174
     0
175
     0
176
     0
177
     0
178
     0
270
     5
271
     0
272
     0
273
     2
274
     2
340
11
275
     0
280
     0
281
     0
282
     0
283
     1
284
     0
285
     0
286
     0
287
     3
288
     0
  0
DIMSTYLE
105
64
102
{ACAD_REACTORS
330
63
330
78
102
}
330
A
100
AcDbSymbolTableRecord
100
AcDbDimStyleTableRecord
  2
SLDDIMSTYLE1
 70
     0
  3

  4

  5

  6

  7

 40
1.0
 41
0.262898763
 42
0.0625
 43
0.38
 44
0.0
 45
0.000000001
 46
0.0
 47
0.0
 48
0.0
140
0.262898763
141
0.09
142
0.0
143
25.4
144
1.0
145
0.0
146
1.0
147
0.0657246908
 71
     0
 72
     0
 73
     1
 74
     1
 75
     0
 76
     0
 77
     0
 78
    12
170
     1
171
     0
172
     0
173
     1
174
     0
175
     0
176
     0
177
     0
178
     0
270
     5
271
     6
272
     3
273
     2
274
     0
340
52
275
     0
280
     0
281
     0
282
     0
283
     1
284
    12
285
     0
286
     0
287
     3
288
     0
  0
DIMSTYLE
105
8D
102
{ACAD_REACTORS
330
8C
102
}
330
A
100
AcDbSymbolTableRecord
100
AcDbDimStyleTableRecord
  2
SLDDIMSTYLE2
 70
     0
  3

  4

  5

  6

  7

 40
1.0
 41
0.262898763
 42
0.0625
 43
0.38
 44
0.0
 45
0.000000001
 46
0.0
 47
0.0
 48
0.0
140
0.262898763
141
0.0
142
0.0
143
25.4
144
1.0
145
0.0
146
1.0
147
0.0657246908
 71
     0
 72
     0
 73
     1
 74
     1
 75
     0
 76
     0
 77
     0
 78
    12
170
     1
171
     0
172
     0
173
     1
174
     0
175
     0
176
     0
177
     0
178
     0
270
     5
271
     3
272
     3
273
     2
274
     0
340
52
275
     0
280
     0
281
     0
282
     0
283
     1
284
    12
285
     0
286
     0
287
     4
288
     0
  0
ENDTAB
  0
TABLE
  2
BLOCK_RECORD
  5
1
330
0
100
AcDbSymbolTable
 70
     7
  0
BLOCK_RECORD
  5
1F
330
1
100
AcDbSymbolTableRecord
100
AcDbBlockTableRecord
  2
*MODEL_SPACE
  0
BLOCK_RECORD
  5
1B
330
1
100
AcDbSymbolTableRecord
100
AcDbBlockTableRecord
  2
*PAPER_SPACE
  0
BLOCK_RECORD
  5
23
330
1
100
AcDbSymbolTableRecord
100
AcDbBlockTableRecord
  2
*PAPER_SPACE0
  0
BLOCK_RECORD
  5
4F
330
1
100
AcDbSymbolTableRecord
100
AcDbBlockTableRecord
  2
SW_NOTE_0
  0
BLOCK_RECORD
  5
65
330
1
100
AcDbSymbolTableRecord
100
AcDbBlockTableRecord
  2
_D
  0
BLOCK_RECORD
  5
79
330
1
100
AcDbSymbolTableRecord
100
AcDbBlockTableRecord
  2
_D_1
  0
BLOCK_RECORD
  5
8E
330
1
100
AcDbSymbolTableRecord
100
AcDbBlockTableRecord
  2
_D_2
  0
BLOCK_RECORD
  5
A0
330
1
100
AcDbSymbolTableRecord
100
AcDbBlockTableRecord
  2
SW_NOTE_1
  0
BLOCK_RECORD
  5
B2
330
1
100
AcDbSymbolTableRecord
100
AcDbBlockTableRecord
  2
SW_NOTE_2
  0
ENDTAB
  0
ENDSEC
  0
SECTION
  2
BLOCKS
  0
BLOCK
  5
20
330
1F
100
AcDbEntity
  8
0
100
AcDbBlockBegin
  2
*MODEL_SPACE
 70
     0
 10
0.0
 20
0.0
 30
0.0
  3
*MODEL_SPACE
  1

  0
ENDBLK
  5
21
330
1F
100
AcDbEntity
  8
0
100
AcDbBlockEnd
  0
BLOCK
  5
1C
330
1B
100
AcDbEntity
 67
     1
  8
0
100
AcDbBlockBegin
  2
*PAPER_SPACE
 70
     0
 10
0.0
 20
0.0
 30
0.0
  3
*PAPER_SPACE
  1

  0
ENDBLK
  5
1D
330
1B
100
AcDbEntity
 67
     1
  8
0
100
AcDbBlockEnd
  0
BLOCK
  5
24
330
23
100
AcDbEntity
  8
0
100
AcDbBlockBegin
  2
*PAPER_SPACE0
 70
     0
 10
0.0
 20
0.0
 30
0.0
  3
*PAPER_SPACE0
  1

  0
ENDBLK
  5
25
330
23
100
AcDbEntity
  8
0
100
AcDbBlockEnd
  0
BLOCK
  5
50
330
4F
100
AcDbEntity
  8
0
100
AcDbBlockBegin
  2
SW_NOTE_0
 70
     0
 10
0.0
 20
0.0
 30
0.0
  3
SW_NOTE_0
  1

  0
MTEXT
  5
53
330
4F
100
AcDbEntity
  8
NOTES
 62
     0
100
AcDbMText
 10
-0.8931373875
 20
0.6872066068
 30
0.0
 40
0.2083333333
 41
0.0
 71
     2
 72
     1
  1
TEMPLATE
  7
SLDTEXTSTYLE0
  0
MTEXT
  5
54
330
4F
100
AcDbEntity
  8
NOTES
 62
     0
100
AcDbMText
 10
-0.8900027172
 20
0.4094288324
 30
0.0
 40
0.2083333333
 41
0.0
 71
     2
 72
     1
  1
CENTERLINE
  7
SLDTEXTSTYLE0
  0
MTEXT
  5
55
330
4F
100
AcDbEntity
  8
NOTES
 62
     0
100
AcDbMText
 10
-0.8898821791
 20
-0.1461267165
 30
0.0
 40
0.2083333333
 41
0.0
 71
     2
 72
     1
  1
PLANTILLA
  7
SLDTEXTSTYLE0
  0
MTEXT
  5
56
330
4F
100
AcDbEntity
  8
NOTES
 62
     0
100
AcDbMText
 10
-0.8928962446
 20
-0.4239044909
 30
0.0
 40
0.2083333333
 41
0.0
 71
     2
 72
     1
  1
CENTRAL
  7
SLDTEXTSTYLE0
  0
ENDBLK
  5
51
330
4F
100
AcDbEntity
  8
0
100
AcDbBlockEnd
  0
BLOCK
  5
66
330
65
100
AcDbEntity
  8
0
100
AcDbBlockBegin
  2
_D
 70
     0
 10
0.0
 20
0.0
 30
0.0
  3
_D
  1

  0
SOLID
  5
68
330
65
100
AcDbEntity
  8
DIMS
100
AcDbTrace
 10
8.4890739127
 20
19.296217965
 30
0.0
 11
8.4486279492
 21
19.033319202
 31
0.0
 12
8.5295198763
 22
19.033319202
 32
0.0
 13
8.5295198763
 23
19.033319202
 33
0.0
  0
SOLID
  5
69
330
65
100
AcDbEntity
  8
DIMS
100
AcDbTrace
 10
8.4890739127
 20
2.921217965
 30
0.0
 11
8.5295198763
 21
3.1841167281
 31
0.0
 12
8.4486279492
 22
3.1841167281
 32
0.0
 13
8.4486279492
 23
3.1841167281
 33
0.0
  0
LINE
  5
6A
330
65
100
AcDbEntity
  8
DIMS
100
AcDbLine
 10
8.4868169863
 20
11.5962718757
 30
0.0
 11
8.7641703673
 21
11.5962718757
 31
0.0
  0
LINE
  5
6B
330
65
100
AcDbEntity
  8
DIMS
100
AcDbLine
 10
8.1129165381
 20
11.144281148
 30
0.0
 11
8.0527313522
 21
11.144281148
 31
0.0
  0
LINE
  5
6C
330
65
100
AcDbEntity
  8
DIMS
100
AcDbLine
 10
8.0527313522
 20
11.144281148
 30
0.0
 11
8.0527313522
 21
10.7405388787
 31
0.0
  0
LINE
  5
6D
330
65
100
AcDbEntity
  8
DIMS
100
AcDbLine
 10
8.0527313522
 20
10.7405388787
 30
0.0
 11
8.1129165381
 21
10.7405388787
 31
0.0
  0
LINE
  5
6E
330
65
100
AcDbEntity
  8
DIMS
100
AcDbLine
 10
8.865231324
 20
11.144281148
 30
0.0
 11
8.92541651
 21
11.144281148
 31
0.0
  0
LINE
  5
6F
330
65
100
AcDbEntity
  8
DIMS
100
AcDbLine
 10
8.92541651
 20
11.144281148
 30
0.0
 11
8.92541651
 21
10.7405388787
 31
0.0
  0
LINE
  5
70
330
65
100
AcDbEntity
  8
DIMS
100
AcDbLine
 10
8.92541651
 20
10.7405388787
 30
0.0
 11
8.865231324
 21
10.7405388787
 31
0.0
  0
LINE
  5
71
330
65
100
AcDbEntity
  8
DIMS
100
AcDbLine
 10
8.4890739127
 20
19.296217965
 30
0.0
 11
8.4890739127
 21
11.9343621642
 31
0.0
  0
LINE
  5
72
330
65
100
AcDbEntity
  8
DIMS
100
AcDbLine
 10
8.4890739127
 20
2.921217965
 30
0.0
 11
8.4890739127
 21
10.6803537706
 31
0.0
  0
MTEXT
  5
73
330
65
100
AcDbEntity
  8
DIMS
100
AcDbMText
 10
8.0472143705
 20
11.737862041
 30
0.0039370079
 40
0.2708333333
 41
0.0
 71
     1
 72
     1
  1
16
  7
SLDTEXTSTYLE0
  0
MTEXT
  5
74
330
65
100
AcDbEntity
  8
DIMS
100
AcDbMText
 10
8.5251850381
 20
11.9223735612
 30
0.0039370079
 40
0.2708333333
 41
0.0
 71
     1
 72
     1
  1
3
  7
SLDTEXTSTYLE0
  0
MTEXT
  5
75
330
65
100
AcDbEntity
  8
DIMS
100
AcDbMText
 10
8.5251850381
 20
11.5535888239
 30
0.0039370079
 40
0.2708333333
 41
0.0
 71
     1
 72
     1
  1
8
  7
SLDTEXTSTYLE0
  0
MTEXT
  5
76
330
65
100
AcDbEntity
  8
DIMS
100
AcDbMText
 10
8.8025383916
 20
11.737862041
 30
0.0039370079
 40
0.2708333333
 41
0.0
 71
     1
 72
     1
  1
"
  7
SLDTEXTSTYLE0
  0
MTEXT
  5
77
330
65
100
AcDbEntity
  8
DIMS
100
AcDbMText
 10
8.1881480241
 20
11.0896613824
 30
0.0039370079
 40
0.2708333333
 41
0.0
 71
     1
 72
     1
  1
416
  7
SLDTEXTSTYLE0
  0
ENDBLK
  5
67
330
65
100
AcDbEntity
  8
0
100
AcDbBlockEnd
  0
BLOCK
  5
7A
330
79
100
AcDbEntity
  8
0
100
AcDbBlockBegin
  2
_D_1
 70
     0
 10
0.0
 20
0.0
 30
0.0
  3
_D_1
  1

  0
SOLID
  5
7C
330
79
100
AcDbEntity
  8
DIMS
100
AcDbTrace
 10
2.0536604851
 20
7.0810028511
 30
0.0
 11
2.3165592481
 21
7.0405568876
 31
0.0
 12
2.3165592481
 22
7.1214488146
 32
0.0
 13
2.3165592481
 23
7.1214488146
 33
0.0
  0
SOLID
  5
7D
330
79
100
AcDbEntity
  8
DIMS
100
AcDbTrace
 10
38.6786604851
 20
7.0810028511
 30
0.0
 11
38.415761722
 21
7.1214488146
 31
0.0
 12
38.415761722
 22
7.0405568876
 32
0.0
 13
38.415761722
 23
7.0405568876
 33
0.0
  0
LINE
  5
7E
330
79
100
AcDbEntity
  8
DIMS
100
AcDbLine
 10
5.843973287
 20
7.3699167594
 30
0.0
 11
6.121326668
 21
7.3699167594
 31
0.0
  0
LINE
  5
7F
330
79
100
AcDbEntity
  8
DIMS
100
AcDbLine
 10
5.4700728388
 20
6.9179260316
 30
0.0
 11
5.4098876528
 21
6.9179260316
 31
0.0
  0
LINE
  5
80
330
79
100
AcDbEntity
  8
DIMS
100
AcDbLine
 10
5.4098876528
 20
6.9179260316
 30
0.0
 11
5.4098876528
 21
6.5141837624
 31
0.0
  0
LINE
  5
81
330
79
100
AcDbEntity
  8
DIMS
100
AcDbLine
 10
5.4098876528
 20
6.5141837624
 30
0.0
 11
5.4700728388
 21
6.5141837624
 31
0.0
  0
LINE
  5
82
330
79
100
AcDbEntity
  8
DIMS
100
AcDbLine
 10
6.2223876247
 20
6.9179260316
 30
0.0
 11
6.2825728106
 21
6.9179260316
 31
0.0
  0
LINE
  5
83
330
79
100
AcDbEntity
  8
DIMS
100
AcDbLine
 10
6.2825728106
 20
6.9179260316
 30
0.0
 11
6.2825728106
 21
6.5141837624
 31
0.0
  0
LINE
  5
84
330
79
100
AcDbEntity
  8
DIMS
100
AcDbLine
 10
6.2825728106
 20
6.5141837624
 30
0.0
 11
6.2223876247
 21
6.5141837624
 31
0.0
  0
LINE
  5
85
330
79
100
AcDbEntity
  8
DIMS
100
AcDbLine
 10
2.0536604851
 20
7.0810028511
 30
0.0
 11
5.3046087342
 21
7.0810028511
 31
0.0
  0
LINE
  5
86
330
79
100
AcDbEntity
  8
DIMS
100
AcDbLine
 10
38.6786604851
 20
7.0810028511
 30
0.0
 11
6.3878516926
 21
7.0810028511
 31
0.0
  0
MTEXT
  5
87
330
79
100
AcDbEntity
  8
DIMS
100
AcDbMText
 10
5.4043706711
 20
7.5115069247
 30
0.0039370079
 40
0.2708333333
 41
0.0
 71
     1
 72
     1
  1
36
  7
SLDTEXTSTYLE0
  0
MTEXT
  5
88
330
79
100
AcDbEntity
  8
DIMS
100
AcDbMText
 10
5.8823413387
 20
7.6960184448
 30
0.0039370079
 40
0.2708333333
 41
0.0
 71
     1
 72
     1
  1
5
  7
SLDTEXTSTYLE0
  0
MTEXT
  5
89
330
79
100
AcDbEntity
  8
DIMS
100
AcDbMText
 10
5.8823413387
 20
7.3272337076
 30
0.0039370079
 40
0.2708333333
 41
0.0
 71
     1
 72
     1
  1
8
  7
SLDTEXTSTYLE0
  0
MTEXT
  5
8A
330
79
100
AcDbEntity
  8
DIMS
100
AcDbMText
 10
6.1596946922
 20
7.5115069247
 30
0.0039370079
 40
0.2708333333
 41
0.0
 71
     1
 72
     1
  1
"
  7
SLDTEXTSTYLE0
  0
MTEXT
  5
8B
330
79
100
AcDbEntity
  8
DIMS
100
AcDbMText
 10
5.5453043247
 20
6.8633062661
 30
0.0039370079
 40
0.2708333333
 41
0.0
 71
     1
 72
     1
  1
930
  7
SLDTEXTSTYLE0
  0
ENDBLK
  5
7B
330
79
100
AcDbEntity
  8
0
100
AcDbBlockEnd
  0
BLOCK
  5
8F
330
8E
100
AcDbEntity
  8
0
100
AcDbBlockBegin
  2
_D_2
 70
     0
 10
0.0
 20
0.0
 30
0.0
  3
_D_2
  1

  0
SOLID
  5
91
330
8E
100
AcDbEntity
  8
DIMS
100
AcDbTrace
 10
2.2967597584
 20
18.6148757466
 30
0.0
 11
2.494977254
 21
18.4375019605
 31
0.0
 12
2.5391257911
 22
18.5052840418
 32
0.0
 13
2.5391257911
 23
18.5052840418
 33
0.0
  0
LINE
  5
92
330
8E
100
AcDbEntity
  8
DIMS
100
AcDbLine
 10
5.8740658593
 20
16.9968884102
 30
0.0
 11
6.1514192403
 21
16.9968884102
 31
0.0
  0
LINE
  5
93
330
8E
100
AcDbEntity
  8
DIMS
100
AcDbLine
 10
5.57038145
 20
16.5448976825
 30
0.0
 11
5.510196264
 21
16.5448976825
 31
0.0
  0
LINE
  5
94
330
8E
100
AcDbEntity
  8
DIMS
100
AcDbLine
 10
5.510196264
 20
16.5448976825
 30
0.0
 11
5.510196264
 21
16.1411554132
 31
0.0
  0
LINE
  5
95
330
8E
100
AcDbEntity
  8
DIMS
100
AcDbLine
 10
5.510196264
 20
16.1411554132
 30
0.0
 11
5.57038145
 21
16.1411554132
 31
0.0
  0
LINE
  5
96
330
8E
100
AcDbEntity
  8
DIMS
100
AcDbLine
 10
6.1220789768
 20
16.5448976825
 30
0.0
 11
6.1822641628
 21
16.5448976825
 31
0.0
  0
LINE
  5
97
330
8E
100
AcDbEntity
  8
DIMS
100
AcDbLine
 10
6.1822641628
 20
16.5448976825
 30
0.0
 11
6.1822641628
 21
16.1411554132
 31
0.0
  0
LINE
  5
98
330
8E
100
AcDbEntity
  8
DIMS
100
AcDbLine
 10
6.1822641628
 20
16.1411554132
 30
0.0
 11
6.1220789768
 21
16.1411554132
 31
0.0
  0
LINE
  5
99
330
8E
100
AcDbEntity
  8
DIMS
100
AcDbLine
 10
2.2967597584
 20
18.6148757466
 30
0.0
 11
5.1242780621
 21
16.7732268298
 31
0.0
  0
LINE
  5
9A
330
8E
100
AcDbEntity
  8
DIMS
100
AcDbLine
 10
5.1242780621
 20
16.7732268298
 30
0.0
 11
5.3742780621
 21
16.7732268298
 31
0.0
  0
MTEXT
  5
9B
330
8E
100
AcDbEntity
  8
DIMS
100
AcDbMText
 10
5.3742780621
 20
17.1384785755
 30
0.0039370079
 40
0.2708333333
 41
0.0
 71
     1
 72
     1
  1
R1
  7
SLDTEXTSTYLE0
  0
MTEXT
  5
9C
330
8E
100
AcDbEntity
  8
DIMS
100
AcDbMText
 10
5.9124339111
 20
17.3229900957
 30
0.0039370079
 40
0.2708333333
 41
0.0
 71
     1
 72
     1
  1
1
  7
SLDTEXTSTYLE0
  0
MTEXT
  5
9D
330
8E
100
AcDbEntity
  8
DIMS
100
AcDbMText
 10
5.9124339111
 20
16.9542053584
 30
0.0039370079
 40
0.2708333333
 41
0.0
 71
     1
 72
     1
  1
2
  7
SLDTEXTSTYLE0
  0
MTEXT
  5
9E
330
8E
100
AcDbEntity
  8
DIMS
100
AcDbMText
 10
6.1897873013
 20
17.1384785755
 30
0.0039370079
 40
0.2708333333
 41
0.0
 71
     1
 72
     1
  1
"
  7
SLDTEXTSTYLE0
  0
MTEXT
  5
9F
330
8E
100
AcDbEntity
  8
DIMS
100
AcDbMText
 10
5.6456129359
 20
16.4902779169
 30
0.0039370079
 40
0.2708333333
 41
0.0
 71
     1
 72
     1
  1
38
  7
SLDTEXTSTYLE0
  0
ENDBLK
  5
90
330
8E
100
AcDbEntity
  8
0
100
AcDbBlockEnd
  0
BLOCK
  5
A1
330
A0
100
AcDbEntity
  8
0
100
AcDbBlockBegin
  2
SW_NOTE_1
 70
     0
 10
0.0
 20
0.0
 30
0.0
  3
SW_NOTE_1
  1

  0
MTEXT
  5
A3
330
A0
100
AcDbEntity
  8
NOTES
 62
     0
100
AcDbMText
 10
0.0
 20
0.2685557791
 30
0.0
 40
0.2083333333
 41
0.0
 71
     1
 72
     1
  1
NOTES:
  7
SLDTEXTSTYLE0
  0
MTEXT
  5
A4
330
A0
100
AcDbEntity
  8
NOTES
 62
     0
100
AcDbMText
 10
0.3937007786
 20
-0.2869997697
 30
0.0
 40
0.2083333333
 41
0.0
 71
     1
 72
     1
  1
THOROUGHLY READ ALL  INSTALLATION INSTRUCTIONS
  7
SLDTEXTSTYLE0
  0
MTEXT
  5
A5
330
A0
100
AcDbEntity
  8
NOTES
 62
     0
100
AcDbMText
 10
0.0
 20
-0.2869997697
 30
0.0
 40
0.2083333333
 41
0.0
 71
     1
 72
     1
  1
1.
  7
SLDTEXTSTYLE0
  0
MTEXT
  5
A6
330
A0
100
AcDbEntity
  8
NOTES
 62
     0
100
AcDbMText
 10
0.0
 20
-0.5647775441
 30
0.0
 40
0.2083333333
 41
0.0
 71
     1
 72
     1
  1
BEFORE CUTTING COUNTERTOP.
  7
SLDTEXTSTYLE0
  0
MTEXT
  5
A7
330
A0
100
AcDbEntity
  8
NOTES
 62
     0
100
AcDbMText
 10
0.0
 20
-1.120333093
 30
0.0
 40
0.2083333333
 41
0.0
 71
     1
 72
     1
  1
2.  DIMENSIONS ARE IN INCHES [MM].
  7
SLDTEXTSTYLE0
  0
MTEXT
  5
A9
330
A0
100
AcDbEntity
  8
NOTES
 62
     0
100
AcDbMText
 10
0.0
 20
-1.9536664162
 30
0.0
 40
0.2083333333
 41
0.0
 71
     1
 72
     1
  1
PLEASE CHECK TEMPLATE AGAINST PHYSICAL SINK FOR 
  7
SLDTEXTSTYLE1
  0
MTEXT
  5
AA
330
A0
100
AcDbEntity
  8
NOTES
 62
     0
100
AcDbMText
 10
0.0
 20
-2.2314441907
 30
0.0
 40
0.2083333333
 41
0.0
 71
     1
 72
     1
  1
MOST ACCURATE CUT.
  7
SLDTEXTSTYLE1
  0
MTEXT
  5
AB
330
A0
100
AcDbEntity
  8
NOTES
 62
     0
100
AcDbMText
 10
0.0
 20
-3.3425552884
 30
0.0
 40
0.2083333333
 41
0.0
 71
     1
 72
     1
  1
NOTAS:
  7
SLDTEXTSTYLE0
  0
MTEXT
  5
AC
330
A0
100
AcDbEntity
  8
NOTES
 62
     0
100
AcDbMText
 10
0.0
 20
-3.8981108372
 30
0.0
 40
0.2083333333
 41
0.0
 71
     1
 72
     1
  1
1.  LEA ATENTAMENTE LAS INSTRUCCIONES DE INSTALACIÓN 
  7
SLDTEXTSTYLE0
  0
MTEXT
  5
AD
330
A0
100
AcDbEntity
  8
NOTES
 62
     0
100
AcDbMText
 10
0.0
 20
-4.1758886116
 30
0.0
 40
0.2083333333
 41
0.0
 71
     1
 72
     1
  1
ANTES DE CORTAR LA ENCIMERA.
  7
SLDTEXTSTYLE0
  0
MTEXT
  5
AE
330
A0
100
AcDbEntity
  8
NOTES
 62
     0
100
AcDbMText
 10
0.0
 20
-4.7314441605
 30
0.0
 40
0.2083333333
 41
0.0
 71
     1
 72
     1
  1
2.  DIMENSIONES EN PULGADAS [MM].
  7
SLDTEXTSTYLE0
  0
MTEXT
  5
AF
330
A0
100
AcDbEntity
  8
NOTES
 62
     0
100
AcDbMText
 10
0.0
 20
-5.5647774837
 30
0.0
 40
0.2083333333
 41
0.0
 71
     1
 72
     1
  1
POR FAVOR COMPRUEBE PLANTILLA CONTRA FREGADERO 
  7
SLDTEXTSTYLE1
  0
MTEXT
  5
B0
330
A0
100
AcDbEntity
  8
NOTES
 62
     0
100
AcDbMText
 10
0.0
 20
-5.8425552581
 30
0.0
 40
0.2083333333
 41
0.0
 71
     1
 72
     1
  1
FÍSICO PARA CORTE MÁS EXACTO.
  7
SLDTEXTSTYLE1
  0
ENDBLK
  5
A2
330
A0
100
AcDbEntity
  8
0
100
AcDbBlockEnd
  0
BLOCK
  5
B3
330
B2
100
AcDbEntity
  8
0
100
AcDbBlockBegin
  2
SW_NOTE_2
 70
     0
 10
0.0
 20
0.0
 30
0.0
  3
SW_NOTE_2
  1

  0
MTEXT
  5
B5
330
B2
100
AcDbEntity
  8
NOTES
 62
     0
100
AcDbMText
 10
6.0042317708
 20
0.9399452269
 30
0.0
 40
0.7291666667
 41
0.0
 71
     2
 72
     1
  1
TEMPLATE #: 1000000735
  7
SLDTEXTSTYLE0
  0
MTEXT
  5
B6
330
B2
100
AcDbEntity
  8
NOTES
 62
     0
100
AcDbMText
 10
5.97656352
 20
-0.0230549333
 30
0.0
 40
0.5208333333
 41
0.0
 71
     2
 72
     1
  1
TOP MOUNT TEMPLATE 37-1/2" X 17"
  7
SLDTEXTSTYLE0
  0
ENDBLK
  5
B4
330
B2
100
AcDbEntity
  8
0
100
AcDbBlockEnd
  0
ENDSEC
  0
SECTION
  2
ENTITIES
  0
LINE
  5
4B
330
1F
100
AcDbEntity
  8
OBJECTS
  6
CENTERX2
100
AcDbLine
 10
38.6786604851
 20
11.108717965
 30
0.0
 11
36.9684478745
 21
11.108717965
 31
0.0
  0
LINE
  5
4C
330
1F
100
AcDbEntity
  8
OBJECTS
  6
CENTERX2
100
AcDbLine
 10
3.7638730956
 20
11.108717965
 30
0.0
 11
2.0536604851
 21
11.108717965
 31
0.0
  0
LINE
  5
4D
330
1F
100
AcDbEntity
  8
OBJECTS
  6
CENTERX2
100
AcDbLine
 10
20.3661604851
 20
2.921217965
 30
0.0
 11
20.3661604851
 21
4.6314305755
 31
0.0
  0
LINE
  5
4E
330
1F
100
AcDbEntity
  8
OBJECTS
  6
CENTERX2
100
AcDbLine
 10
20.3661604851
 20
19.296217965
 30
0.0
 11
20.3661604851
 21
17.5860053545
 31
0.0
  0
INSERT
  5
57
102
{ACAD_REACTORS
330
59
330
5A
102
}
330
1F
100
AcDbEntity
  8
NOTES
100
AcDbBlockReference
  2
SW_NOTE_0
 10
31.3756742219
 20
5.8345410808
 30
0.0
  0
LEADER
  5
59
330
1F
100
AcDbEntity
  8
NOTES
100
AcDbLeader
  3
SLDDIMSTYLE0
 73
     2
 76
     3
 10
37.926525213
 20
11.108717965
 30
0.0
 10
31.6256742219
 20
5.8345410808
 30
0.0
 10
31.3756742219
 20
5.8345410808
 30
0.0
340
57
1001
ACAD
1000
DSTYLE
1002
{
1070
     6
1000

1002
}
  0
LEADER
  5
5A
330
1F
100
AcDbEntity
  8
NOTES
100
AcDbLeader
  3
SLDDIMSTYLE0
 73
     2
 76
     3
 10
20.3661604851
 20
3.8384741359
 30
0.0
 10
29.3269770951
 20
5.8345410808
 30
0.0
 10
29.5769770951
 20
5.8345410808
 30
0.0
340
57
212
-1.798697126806019
222
0.0
232
0.0
1001
ACAD
1000
DSTYLE
1002
{
1070
     6
1000

1002
}
  0
LINE
  5
5B
330
1F
100
AcDbEntity
  8
OBJECTS
100
AcDbLine
 10
3.5536604851
 20
2.921217965
 30
0.0
 11
37.1786604851
 21
2.921217965
 31
0.0
  0
LINE
  5
5C
330
1F
100
AcDbEntity
  8
OBJECTS
100
AcDbLine
 10
38.6786604851
 20
4.421217965
 30
0.0
 11
38.6786604851
 21
17.796217965
 31
0.0
  0
LINE
  5
5D
330
1F
100
AcDbEntity
  8
OBJECTS
100
AcDbLine
 10
37.1786604851
 20
19.296217965
 30
0.0
 11
3.5536604851
 21
19.296217965
 31
0.0
  0
LINE
  5
5E
330
1F
100
AcDbEntity
  8
OBJECTS
100
AcDbLine
 10
2.0536604851
 20
17.796217965
 30
0.0
 11
2.0536604851
 21
4.421217965
 31
0.0
  0
ARC
  5
5F
330
1F
100
AcDbEntity
  8
OBJECTS
100
AcDbCircle
 10
37.1786604851
 20
4.421217965
 30
0.0
 40
1.5
100
AcDbArc
 50
270.0
 51
0.0
  0
ARC
  5
60
330
1F
100
AcDbEntity
  8
OBJECTS
100
AcDbCircle
 10
37.1786604851
 20
17.796217965
 30
0.0
 40
1.5
100
AcDbArc
 50
0.0
 51
90.0
  0
ARC
  5
61
330
1F
100
AcDbEntity
  8
OBJECTS
100
AcDbCircle
 10
3.5536604851
 20
17.796217965
 30
0.0
 40
1.500000000000001
100
AcDbArc
 50
90.0
 51
180.0
  0
ARC
  5
62
330
1F
100
AcDbEntity
  8
OBJECTS
100
AcDbCircle
 10
3.5536604851
 20
4.421217965
 30
0.0
 40
1.500000000000002
100
AcDbArc
 50
180.0
 51
270.0
  0
DIMENSION
  5
63
330
1F
100
AcDbEntity
  8
DIMS
100
AcDbDimension
  2
_D
 10
8.4890739127
 20
2.921217965
 30
0.0
 11
8.4890739127
 21
11.3073579674
 31
0.0
 70
   160
  1
<>
  3
SLDDIMSTYLE1
100
AcDbAlignedDimension
 13
3.5536604851
 23
19.296217965
 33
0.0
 14
3.5536604851
 24
2.921217965
 34
0.0
 50
90.0
100
AcDbRotatedDimension
  0
DIMENSION
  5
78
330
1F
100
AcDbEntity
  8
DIMS
100
AcDbDimension
  2
_D_1
 10
38.6786604851
 20
7.0810028511
 30
0.0
 11
5.8462302134
 21
7.0810028511
 31
0.0
 70
   160
  1
<>
  3
SLDDIMSTYLE1
100
AcDbAlignedDimension
 13
2.0536604851
 23
4.421217965
 33
0.0
 14
38.6786604851
 24
4.421217965
 34
0.0
 50
0.0
100
AcDbRotatedDimension
  0
DIMENSION
  5
8C
330
1F
100
AcDbEntity
  8
DIMS
100
AcDbDimension
  2
_D_2
 10
3.5536604851
 20
17.796217965
 30
0.0
 11
5.8462302134
 21
16.7079745019
 31
0.0
 70
   164
  1
<>
  3
SLDDIMSTYLE2
100
AcDbRadialDimension
 15
2.2967597584
 25
18.6148757466
 35
0.0
 40
0.0
  0
INSERT
  5
B1
330
1F
100
AcDbEntity
  8
NOTES
100
AcDbBlockReference
  2
SW_NOTE_1
 10
25.6424901965
 20
17.7600578203
 30
0.0
  0
INSERT
  5
B7
330
1F
100
AcDbEntity
  8
NOTES
100
AcDbBlockReference
  2
SW_NOTE_2
 10
14.6226562625
 20
9.725295377
 30
0.0
  0
MTEXT
  5
B8
330
1F
100
AcDbEntity
  8
NOTES
100
AcDbMText
 10
31.6904052659
 20
4.2788443004
 30
0.0
 40
0.2916666667
 41
0.0
 71
     1
 72
     1
  1
REV  B  6/17 
  7
SLDTEXTSTYLE0
  0
ENDSEC
  0
SECTION
  2
OBJECTS
  0
DICTIONARY
  5
C
330
0
100
AcDbDictionary
  3
ACAD_GROUP
350
D
  3
ACAD_MLINESTYLE
350
17
1001
ACAD
1000
TREAT_AS_HARD
1070
     0
  0
DICTIONARY
  5
D
102
{ACAD_REACTORS
330
C
102
}
330
C
100
AcDbDictionary
1001
ACAD
1000
TREAT_AS_HARD
1070
     0
  0
DICTIONARY
  5
17
102
{ACAD_REACTORS
330
C
102
}
330
C
100
AcDbDictionary
  3
STANDARD
350
18
1001
ACAD
1000
TREAT_AS_HARD
1070
     0
  0
MLINESTYLE
  5
18
102
{ACAD_REACTORS
330
17
102
}
330
17
100
AcDbMlineStyle
  2
Standard
 70
     0
  3

 62
   256
 51
90.0
 52
90.0
 71
     2
 49
0.5
 62
   256
  6
BYLAYER
 49
-0.5
 62
   256
  6
BYLAYER
  0
ENDSEC
  0
EOF
